#TITLE:Aztec Templing (Techno-titlan Mix);
#SUBTITLE:;
#ARTIST:Hi-G remixed by DM Ashura;
#TITLETRANSLIT:;
#SUBTITLETRANSLIT:;
#ARTISTTRANSLIT:;
#CREDIT:;
#BANNER:;
#BACKGROUND:;
#LYRICSPATH:;
#CDTITLE:;
#MUSIC:Aztec Templing (Techno-titlan Mix).mp3;
#OFFSET:-0.040;
#SAMPLESTART:39.995;
#SAMPLELENGTH:12.000;
#SELECTABLE:YES;
#BPMS:0.000=205.000,384.000=409.998;
#STOPS:;
#BGCHANGES:;
// cache tags:
#FIRSTBEAT:0.000;
#LASTBEAT:394.000;
#SONGFILENAME:Songs/juju steps/Aztec Templing (Techno-titlan Mix)/Aztec Templing (Techno-titlan Mix).sm;
#HASMUSIC:1;
#HASBANNER:0;
#MUSICLENGTH:117.138;
// end cache tags

//---------------dance-single - BETA STEPS----------------
#NOTES:
     dance-single:
     BETA STEPS:
     Challenge:
     11:
     1.000,1.000,1.000,1.000,0.512,753.000,231.000,169.000,170.000,57.000:
2M2M
0030
3202
0003
2320
3000
2230
0300
,
3022
0030
2203
3000
0322
0003
2230
0300
,
3022
0003
2230
3000
0322
0030
0223
0300
,
2032
0003
3202
0300
0223
0030
2302
0003
,
3220
0300
2230
3000
0322
0030
2203
0300
,
3022
0003
0231
2300
3202
0300
0203
0000
,
2302
0MM0
0MM0
0MM0
3223
M00M
M00M
M00M
,
2332
0MM0
3223
M00M
2332
0MM0
3223
0000
,
1330
0101
0010
1100
0010
0101
0010
1100
,
0010
1100
0010
1001
0100
1001
0010
1001
,
0100
1010
0001
0110
1000
0101
1000
0101
,
1000
0110
0001
0110
1000
0110
1001
1001
,
1001
0110
1000
0101
1000
0110
0001
1010
,
0001
1010
0001
1010
0100
1001
0010
1100
,
0011
0100
1000
0010
0101
0010
1000
0100
,
1001
0000
0010
0000
1001
0000
0010
0000
1000
0001
1MM0
0001
1MM0
0001
1MM0
0001
,
1MM0
0000
1000
0010
1000
0000
0100
0000
0001
0000
0110
0000
0110
0000
0110
0000
,
0110
0000
0001
0010
0001
0000
0100
0000
1000
0000
0110
0000
0110
0000
0110
0000
,
0110
0000
0100
0010
0100
0000
0010
0000
0001
0000
0110
0000
0110
0000
0110
0000
,
0110
0000
1000
0100
0010
0001
1000
0100
0010
0001
1000
0100
0010
0001
1000
0100
,
0010
0000
0001
0100
0001
0000
0010
0000
0100
0000
1001
0000
1001
0000
1001
0000
,
1001
0000
0100
0010
0100
0000
1000
0000
0001
0000
1001
0000
1001
0000
1001
0000
,
1001
0000
0010
0100
0010
0000
0100
0000
0001
0000
1001
0000
1001
0000
1001
0000
,
1001
0000
0001
0010
0100
1000
0001
0010
0100
1000
0001
0010
0100
1000
0001
0010
,
0100
0000
1010
0100
1010
0100
1010
0100
,
1000
0010
0101
0010
0101
0010
0101
0010
,
1000
0100
0011
1000
0011
1000
0011
0100
,
1000
0000
0001
0100
0001
0000
1000
0010
1000
0000
0001
0100
0001
0000
0110
0000
,
0110
0000
0011
1000
0011
1000
0011
1000
,
0010
0001
1100
0001
1100
0001
1100
0001
,
0010
1000
0101
0010
0101
0010
0101
1000
,
0010
0000
0100
1000
0100
0000
0010
0001
0010
0000
0100
1000
0100
0000
1001
0000
,
1001
0000
0101
0010
0101
0010
0101
0010
,
0001
0100
1010
0100
1010
0100
1010
0100
,
0001
0010
1100
0001
1100
0001
1100
0010
,
0001
0000
1000
0010
1000
0000
0001
0100
0001
0000
1000
0010
1000
0000
0110
0000
,
0110
0000
1100
0001
1100
0001
1100
0001
,
0100
1000
0011
1000
0011
1000
0011
1000
,
0100
0001
1010
0100
1010
0100
1010
0001
,
1000
0001
0100
0010
1000
0001
0100
0010
1000
0001
0100
0010
1000
0001
0100
0010
,
100M
0000
0000
0100
0000
0000
0001
0000
0000
0000
1000
0000
0010
0000
0100
0000
,
M001
0000
0000
1000
0000
0000
0010
0000
0000
0000
0100
0010
0100
0000
0010
0100
,
001M
0000
0000
0100
0000
0000
1000
0000
0000
0000
0001
0000
0100
0000
0010
0000
,
100M
0000
0000
0000
0000
0000
0100
0000
0000
0000
0000
0000
0001
0000
0000
0000
0000
0000
0000
0000
0010
1000
0010
0000
0000
0000
0000
0000
0001
0010
0001
0000
,
M000
0000
0000
0100
0000
0000
1000
0000
0000
0000
0010
0000
0100
0000
1000
0000
,
001M
0000
0000
0100
0000
0000
0001
0000
0000
0000
0010
0000
1000
0000
0001
1000
,
0M01
0000
0000
0010
0000
0000
0100
0000
0000
0000
0001
0000
1000
0000
0001
0000
,
100M
0000
0000
0010
0000
0000
0001
0000
0100
0000
1000
0000
0010
0000
0100
1000
,
001M
0000
0000
1000
0000
0000
0100
0000
0000
0000
0010
0000
0001
0000
1000
0000
,
010M
0000
0000
0010
0000
0000
0001
0000
0000
0000
1000
0001
1000
0000
0001
1000
,
00M1
0000
0000
1000
0000
0000
0010
0000
0000
0000
0100
0000
1000
0000
0001
0000
,
M010
0000
0000
0000
0000
0000
1000
0000
0000
0000
0000
0000
0100
0000
0000
0000
0000
0000
0000
0000
0001
0010
0001
0000
0000
0000
0000
0000
0100
0001
0100
0000
,
M000
0000
0000
1000
0000
0000
0010
0000
0000
0000
0001
0000
1000
0000
0010
0000
,
0M01
0000
0000
1000
0000
0000
0100
0000
0000
0000
0001
0000
0010
0000
0100
0010
,
M100
0000
0000
0001
0000
0000
1000
0000
0000
0000
0100
0000
0010
0000
0100
0000
,
M11M
0100
M11M
0100
M11M
0100
M11M
0100
,
MM22
0003
2230
0300
3022
0030
2023
3000
,
0232
0003
2320
0030
3202
0300
2023
3000
,
0232
0300
2023
0030
3202
0003
2302
3000
,
0223
0300
2230
3000
2302
0003
3220
0300
,
2032
3000
2023
0030
3202
0003
2320
3000
,
0232
0300
2103
3020
2230
3000
2302
0003
,
3202
0300
2203
3000
0322
0003
0232
0003
,
23M2
0M00
00M0
0M00
00M0
0M00
30M3
0000
,
1100
0010
1100
0001
1100
0010
1100
0001
,
1100
0001
1100
0010
1100
0010
1100
0001
,
1100
0010
1100
0010
1100
0010
1100
0010
,
1100
0001
1100
0001
1100
0001
1100
0000
,
0011
0100
0011
1000
0011
0100
0011
1000
,
0011
0100
0011
0100
0011
1000
0011
0100
,
0022
0033
2200
3300
,
2002
0000
3003
0000
0220
0000
0330
0000
0001
1000
0010
0100
0001
1000
0010
0100
,
0001
0000
1010
0100
1010
0100
1010
0100
,
1000
0010
0101
0010
0101
0010
0101
0010
,
1000
0100
0011
1000
0011
1000
0011
0100
,
1000
0000
0001
0100
0001
0000
1000
0010
1000
0000
0001
0100
0001
0000
0110
0000
,
0110
0000
0011
1000
0011
1000
0011
1000
,
0010
0001
1100
0001
1100
0001
1100
0001
,
0010
1000
0101
0010
0101
0010
0101
1000
,
0010
0000
0100
1000
0100
0000
0010
0001
0010
0000
0100
1000
0100
0000
1001
0000
,
1001
0000
0101
0010
0101
0010
0101
0010
,
0001
0100
1010
0100
1010
0100
1010
0100
,
0001
0010
1100
0001
1100
0001
1100
0010
,
0001
0000
1000
0010
1000
0000
0001
0100
0001
0000
1000
0010
1000
0000
0110
0000
,
0110
0000
1100
0001
1100
0001
1100
0001
,
0100
1000
0011
1000
0011
1000
0011
1000
,
0100
0001
1010
0100
1010
0100
1010
0001
,
1000
0001
0100
0010
1000
0001
0100
0010
1000
0001
0100
0010
1000
0001
0100
0010
,
1000
0000
MM01
0010
MM01
0000
MM10
0001
MM10
0000
MM01
0010
MM01
0000
MM10
0001
,
MM10
0000
01MM
1000
01MM
0000
10MM
0100
10MM
0000
01MM
1000
01MM
0000
10MM
0100
,
10MM
0000
0010
0100
M01M
0000
M10M
0010
M10M
0000
M01M
0100
M01M
0000
0100
0010
,
0100
0000
0001
1000
0MM1
0000
1MM0
0001
1MM0
0000
0MM1
1000
0MM1
0000
1000
0001
,
200M
3000
200M
3000
02M0
0300
02M0
0300
0M20
0030
0M20
0030
M002
0003
M002
0003
,
02M0
0300
02M0
0300
0M20
0030
0M20
0030
M002
0003
M002
0003
200M
3000
200M
3000
,
022M
0330
0020
0030
0200
0300
0200
0300
M220
0330
0020
0030
0200
0300
0200
0300
,
2000
0000
3200
0000
0320
0000
0032
0000
0023
0000
0230
0000
2300
0000
3002
0000
0023
0000
0230
0000
2300
0000
3200
0000
0320
0000
0032
0000
0023
0000
0230
0300
,
2M02
00M0
0M00
00M0
0M00
00M0
0M00
00M0
,
0M00
00M0
0M00
00M0
0M00
00M0
0M00
00M0
,
3MM3
M00M
MMMM
M00M
MMMM
M00M
MMMM
M00M
0MM0
0000
0000
0000
0000
0000
0000
0000
;

//---------------dance-single - ----------------
#NOTES:
     dance-single:
     :
     Hard:
     8:
     0.917,1.000,0.299,0.862,0.064,616.000,35.000,101.000,79.000,5.000:
0M02
M023
023M
23M0
,
3M02
20M3
3M20
023M
,
M302
0M23
203M
3M20
,
M032
02M3
230M
3M20
,
M032
2M03
302M
M230
,
03M2
0000
2003
3020
0230
0000
M32M
0000
,
2032
0000
0MM0
3003
2MM2
0000
0MM0
3003
,
2MM2
3223
2332
3223
,
1330
0100
0010
0001
0010
0100
1000
0001
,
1000
0100
0010
0001
0010
0100
1000
0001
,
0100
0010
0100
0010
1000
0001
1000
0001
,
0100
0010
0100
0010
1000
0001
1000
0010
,
1000
0010
0100
0010
0100
0001
0100
0001
,
1000
0001
1000
0010
1000
0001
0100
0001
,
1000
0001
1000
0010
1000
0100
1000
0010
,
0100
0001
0010
1000
0010
0001
0100
1000
,
0110
1000
0100
0010
1000
0010
0100
0011
,
0000
0011
0100
0010
1000
0100
0010
1100
,
0000
1100
0010
0100
0001
0100
0010
1000
,
0010
0010
0010
0010
0010
0010
0010
0010
,
0000
0001
0100
0010
0001
0100
0001
1010
,
0000
1010
0100
1000
0010
0100
1000
0101
,
0000
0101
0010
1000
0100
0010
0001
1000
,
0100
0100
0100
0100
0100
0100
0100
0100
,
1001
0000
0010
1000
0010
1000
0010
0100
,
0000
0000
0010
0001
0010
0001
0010
0100
,
0000
0000
0010
1000
0010
0001
0010
1000
,
0100
0001
0100
1000
0001
1000
0001
1000
,
0000
0000
0100
0001
0100
0001
0100
0010
,
0000
0000
0100
1000
0100
1000
0100
0010
,
0000
0000
0100
0001
0100
1000
0100
0001
,
0010
1000
0010
0001
1000
0001
1000
0001
,
0000
0000
0001
0010
0001
0100
0001
0010
,
0000
0000
1000
0010
1000
0100
1000
0010
,
0000
0000
0100
1000
0100
0001
0010
1000
,
0010
0001
0100
1000
0100
0001
0010
1000
,
0000
0000
1000
0001
1000
0001
1000
0010
,
0000
0000
0001
1000
0001
1000
0001
0100
,
0000
0000
1000
0100
0001
1000
0010
0001
,
0100
1000
0001
0010
1000
0001
1000
0001
,
1000
0000
0000
1000
0000
0000
1000
0000
0000
0000
0001
0000
0001
0000
0001
0000
,
0100
0000
0000
0100
0000
0000
0100
0000
0000
0000
0010
0000
0010
0000
0010
0000
,
0001
0000
0000
0001
0000
0000
0001
0000
0000
0000
1000
0000
1000
0000
1000
0000
,
0010
0000
0000
0010
0000
0000
0010
0000
0000
0000
0100
0000
0100
0000
0100
0000
,
0001
0000
0000
0010
0000
0000
0100
0000
0000
0000
1000
0000
0010
0000
0100
0000
,
0001
0000
0000
0010
0000
0000
0100
0000
0000
0000
1000
0000
0010
0000
0100
0000
,
0010
0000
0000
1000
0000
0000
0100
0000
0000
0000
0010
0000
0001
0000
0100
0000
,
0010
0000
0000
1000
0000
0000
0100
0000
0000
0000
0010
0000
0001
0000
1000
0000
,
0001
0000
0000
1000
0000
0000
0001
0000
0000
0000
1000
0000
0001
0000
1000
0000
,
0001
0000
0000
1000
0000
0000
0001
0000
0000
0000
1000
0000
0001
0000
1000
0000
,
0010
0000
0000
0100
0000
0000
0010
0000
0000
0000
0100
0000
0010
0000
0100
0000
,
0010
0000
0000
0100
0000
0000
0010
0000
0000
0000
0100
0000
0010
0000
0100
0000
,
0001
0000
0000
0010
0000
0000
0100
0000
0000
0000
1000
0000
0001
0000
0010
0000
,
0100
0000
0000
1000
0000
0000
0001
0000
0000
0000
0010
0000
0100
0000
1000
0000
,
0001
1000
0001
1000
0010
0100
0010
0100
,
0001
0000
1000
0000
0010
0000
0100
0000
0010
0000
0100
0000
0001
1000
0001
0000
,
0020
2030
3200
0302
,
2003
3020
0230
0302
,
2003
3020
0230
0302
,
2003
3002
2003
3200
,
0320
0032
0203
0320
,
2030
0000
3020
0230
2300
0000
3002
0000
,
0023
2030
3002
0203
,
23MM
0MMM
0MMM
0MMM
0MMM
0MMM
3MMM
0MM0
,
1000
0010
1000
0001
1000
0010
1000
0001
,
0100
0010
0100
0001
0100
0010
1000
0010
,
0100
0010
1000
0010
0100
0001
0100
0010
,
1000
0010
0100
0010
1000
0100
1000
0010
,
0100
0010
0100
0010
1000
0001
0100
0010
,
1000
0100
1000
0010
1000
0100
1000
0001
,
1000
0001
0100
0001
0010
0001
0100
0010
,
1000
0100
0010
0001
0010
0100
1000
0100
,
0001
0000
0010
1000
0010
1000
0010
0001
,
1000
0000
0100
0001
0100
0001
0100
1000
,
0001
0000
0100
0010
0100
0010
0100
0010
,
1000
0001
0100
0010
1000
0001
0100
0010
,
0000
0000
1000
0001
1000
0001
1000
0010
,
0001
0000
0001
1000
0001
1000
0001
0100
,
1000
0000
1000
0010
0001
1000
0010
0100
,
0001
1000
0010
1000
0001
0100
1000
0010
,
0000
0000
0010
0100
0010
0100
0010
0001
,
1000
0000
0100
0010
0100
0010
0100
1000
,
0001
0000
0001
0100
1000
0010
1000
0001
,
0100
1000
0001
0100
1000
0010
0001
1000
,
0000
0000
0100
1000
0100
0001
0100
1000
,
0001
0000
0010
0001
0010
1000
0010
0001
,
1000
0000
0100
1000
0100
0001
0010
1000
,
0010
0001
0100
1000
0010
1000
0100
0001
,
2200
3300
0022
0033
0220
0330
2002
3003
,
2020
3030
2200
3300
0022
0033
0202
0303
,
2020
3030
0202
0303
2020
3030
2002
3003
,
0220
0330
2002
3003
2200
3300
0022
0033
,
1000
0010
0001
0100
0010
1000
0001
0100
,
0010
1000
0010
0001
1000
0100
0001
0010
,
1000
0001
0010
1000
0001
0100
0010
1000
,
0010
0100
0001
1000
0001
0010
1001
0110
,
2002
0MM0
0000
0MM0
0000
0MM0
0000
0MM0
,
0000
0MM0
0000
0MM0
0000
0MM0
0000
0MM0
,
3003
MMMM
M00M
M00M
0MM0
0000
0000
0000
;
