#TITLE:Big Blue;
#SUBTITLE:[Seph];
#ARTIST:S.S.H;
#TITLETRANSLIT:;
#SUBTITLETRANSLIT:;
#ARTISTTRANSLIT:;
#CREDIT:;
#BANNER:../thisandthat-bn.png;
#BACKGROUND:../thisnthat-bg.png;
#LYRICSPATH:;
#CDTITLE:;
#MUSIC:S.S.H - Big Blue.ogg;
#OFFSET:-0.651;
#SAMPLESTART:27.200;
#SAMPLELENGTH:12.000;
#SELECTABLE:YES;
#BPMS:0.000=226.000;
#STOPS:;
#BGCHANGES:;
// cache tags:
#FIRSTBEAT:4.000;
#LASTBEAT:464.000;
#SONGFILENAME:Songs/Seph, Gson & Shpadoinkle's Pack of This 'n That/Big Blue [12]/Big Blue.sm;
#HASMUSIC:1;
#HASBANNER:1;
#MUSICLENGTH:105.000;
// end cache tags

//---------------dance-single - Seph----------------
#NOTES:
     dance-single:
     Seph:
     Challenge:
     12:
     1.000,1.000,0.343,1.000,0.562,756.000,36.000,173.000,4.000,2.000:


0000
0000
0000
0000
,
1000
0000
1100
0000
1000
0000
0001
1001
,
0000
1000
1100
0000
1000
0001
0101
0000
,
0001
0000
1001
0000
1000
0100
0010
0110
,
0000
0000
0010
0000
0110
0000
0000
0000
1000
0000
0100
1000
0002
0000
0000
0000
,
1003
0000
1010
0000
1000
0000
0200
2300
,
3000
0100
1100
0000
0100
0000
1000
0000
,
0001
0000
0011
0000
0001
0000
1001
0002
,
0003
0000
0000
0000
0000
0000
0000
0000
2000
3000
0000
0000
0000
0000
0000
0000
0002
0003
0000
0000
0000
0000
0000
0000
0200
0300
0000
0000
0000
0000
0000
0000
0020
0030
0000
0000
0000
0000
0000
0000
2000
3000
0000
0000
0000
0000
0000
0000
0002
0003
0000
0000
0000
0000
0000
0000
0200
0300
0000
0000
0000
0000
0000
0000
,
0002
0003
0000
0000
0000
0000
0000
0000
0000
0000
0000
0000
0000
0000
0000
0000
0011
0000
0000
0000
0000
0000
0000
0000
0000
0000
0000
0000
0000
0000
0000
0000
0001
0000
0000
0000
0000
0000
0000
0000
0000
0000
0000
0000
0000
0000
0000
0000
1000
0000
0000
0000
0000
0000
0000
0000
1001
0000
0000
0000
0000
0000
0000
0000
,
0000
0001
0011
0000
0001
0000
1010
0000
,
1000
0000
1001
0000
0001
0010
0100
0220
,
0330
0000
0000
0000
0000
0000
0000
0000
0200
0300
0000
0000
0000
0000
0000
0000
2000
3000
0000
0000
0000
0000
0000
0000
0020
0000
0000
0000
0000
0000
0000
0000
0030
0000
0000
0000
0000
0000
0000
0000
2000
3000
0000
0000
0000
0000
0000
0000
0200
0300
0000
0000
0000
0000
0000
0000
0020
0030
0000
0000
0000
0000
0000
0000
,
0002
0003
0000
0000
0000
0000
0000
0000
0000
0000
0000
0000
0000
0000
0000
0000
1001
0000
0000
0000
0000
0000
0000
0000
0000
0000
0000
0000
0000
0000
0000
0000
0001
0000
0000
0000
0000
0000
0000
0000
0010
0000
0000
0000
0000
0000
0000
0000
0001
0000
0000
0000
0000
0000
0000
0000
0011
0000
0000
0000
0000
0000
0000
0000
,
0000
0000
0000
0001
0000
0000
1000
0000
0000
0000
0000
0000
0002
0000
0003
0000
1000
0000
0000
0000
0001
0000
0000
0000
,
0400
0000
0000
0000
0300
0000
0000
0000
0001
0000
0000
0000
0100
0000
0001
0010
,
0100
1000
0001
1000
0001
1000
0100
0010
0001
0010
0100
1000
0001
1000
0100
0010
,
0002
0000
0000
2003
3000
0001
0100
0020
,
0000
0000
0000
0000
1030
0001
1000
0200
,
0000
0000
0000
0000
0000
0310
0001
2000
,
0000
0000
0000
0000
0000
0000
0000
3000
,
0001
0000
0002
0000
0000
0013
0001
0100
,
0002
0000
0000
0000
0000
0103
0001
1000
,
0001
0000
1001
0000
1000
1100
0000
1000
,
0001
0010
0100
1000
0001
1000
0001
1000
0100
0010
0001
0010
0100
1000
0001
1000
,
0001
0000
0001
0000
1000
1010
0100
0002
,
0000
0000
2003
0000
,
3100
0000
0100
0000
1000
1001
1000
0002
,
0000
0000
0000
0000
1003
0010
0100
0001
,
2000
0000
3100
0020
0000
0031
0100
0010
,
2000
0000
3100
0020
0030
0001
1000
0100
,
2000
0000
0000
0000
0000
0000
0000
3000
,
MMMM
0000
0000
0000
0000
0000
1100
0000
1001
0000
1100
0000
,
1000
0100
0010
0001
1000
0010
0100
0001
,
0010
0100
1000
0100
1000
0001
1000
0010
,
1000
0100
0010
0001
0010
0100
1000
0100
,
1000
0001
0100
0010
1000
0002
0000
0000
,
1003
0100
0010
0002
0000
0000
2003
0000
,
3020
0000
2030
3002
0000
0000
0203
0000
,
0301
0100
0010
1000
0100
0010
0001
2000
,
0000
0000
3002
2003
0000
3002
0203
0300
,
0001
0000
0001
0000
0001
0000
1000
0002
,
0000
0000
1003
0001
0010
0100
1000
0001
,
1000
0000
1000
0000
1000
0000
0001
2000
,
3000
1000
0100
0010
0001
0100
0010
1000
,
0002
0023
0230
2300
3002
0023
0230
2300
,
3002
0000
0000
0000
0023
0000
0000
0000
0230
0000
0000
0000
2300
0000
0000
0000
3002
0000
0000
0000
0000
0000
0000
0000
2003
0000
0000
0000
0000
0000
0000
3000
,
2000
3200
0320
0032
2003
3200
0320
0032
,
2003
3200
0320
0032
2003
0000
3002
0000
,
1003
0100
1000
0100
1000
0001
1000
0100
0010
0001
0010
0100
1000
0001
1000
0001
,
0010
0100
1000
0100
1000
0100
0010
0001
1000
0001
1000
0100
0010
0001
0010
0100
,
2000
0000
3001
0200
0000
0301
0010
0100
,
2000
0000
0000
0000
0000
0000
0000
0000
3002
0000
0000
0000
0000
0000
0000
0000
1003
0000
0000
0000
0010
0000
0000
0000
0100
0000
0000
0000
0001
2000
0000
0000
,
0000
0000
0000
3200
0000
0000
1300
0000
0001
0000
1000
0000
,
2000
0000
3002
0203
0000
0310
1000
0100
,
2000
0000
0000
0000
,
0002
0000
0000
0000
,
3013
0001
1000
0100
0010
0001
0010
0100
,
1000
0010
1000
0100
0010
0001
0010
0100
,
1000
0010
0100
0001
0010
0100
1000
0010
,
0100
0001
0010
0100
1000
0100
1000
0001
,
1000
0100
0010
0001
1000
0100
0010
0001
,
0010
0100
1000
0001
0100
0010
1000
0001
,
1000
0001
0010
0100
1000
0010
0100
0001
,
1000
0200
0320
0032
0023
0230
2300
3002
,
1003
0010
0100
0001
0010
0100
2000
3002
,
0000
1003
0100
0010
0001
0100
0010
1000
,
0002
0000
1003
0100
1000
0001
2000
3200
,
0000
2300
3002
0023
0030
0020
0032
2003
,
3200
0000
1300
0100
0010
0001
0020
0230
,
0000
0000
0000
0300
0000
0000
1000
0000
0000
0001
0000
0000
1000
0000
0000
0000
0010
0000
0000
0000
0100
0000
0000
0000
,
0002
0003
1000
0100
1000
0001
2000
3002
,
1003
0001
1000
0001
0010
0100
1000
0100
1000
0001
1000
0001
1000
0001
0010
0100
,
2000
0000
0000
3200
0000
1300
0001
0200
,
0000
0000
0000
0000
0000
0310
1000
0001
,
0200
0000
0000
0320
0030
1000
0100
0020
,
0000
0000
0000
0000
0000
0000
0031
0010
,
0200
0000
0000
2300
0000
3001
1000
0200
,
0000
0000
0300
2000
0000
0000
3200
0000
,
0320
0000
0000
0032
0000
0000
2003
0000
,
3200
0000
0000
0000
0000
0000
0000
0300
,
1100
0001
1001
0010
0100
0001
1000
0002
,
0000
0000
1003
0000
0002
0000
0000
0000
1003
0000
0001
0010
0001
0000
0010
0000
,
0011
1000
1001
0000
1000
0100
0010
0002
,
0000
0000
1003
0000
0200
0000
0000
0000
0000
0000
1300
0001
1000
0000
0010
0000
,
0100
0001
0010
0200
0000
1300
0001
0100
,
0020
0000
1030
0020
0000
1030
0010
0100
,
0001
0000
0000
0010
0000
0000
0100
0000
0000
2000
0000
0000
0000
0000
0000
0000
0000
0000
0000
0000
0000
3001
0010
0100
,
2000
0000
0000
0000
0000
0000
3110
0000
0011
0000
0101
0000
,
0001
0010
0100
1000
0002
0000
2003
0000
,
3200
0000
0000
0000
0320
0000
0032
0000
0003
0000
1000
0100
1000
0000
0001
0000
,
1000
0100
1000
0002
0000
0013
0100
1000
,
0002
0003
1000
0010
0100
0002
0000
0000
,
1003
0100
0020
0032
0000
0000
2003
0000
,
3200
0000
0310
0002
0000
1003
0100
0010
,
0001
0010
0100
1000
0100
0010
0001
0100
0010
1000
0001
1000
,
0001
0010
0100
1000
0100
1000
0001
1000
0100
0010
0001
0010
,
0200
0300
0000
0000
0000
0000
0000
0000
0000
0000
0000
0000
0000
0000
0000
0000
0200
0300
0000
0000
0000
0000
0000
0000
0000
0000
0000
0000
0000
0000
0000
0000
0200
0300
0000
0000
0000
0000
0000
0000
0000
0000
0000
0000
0000
0000
0000
0000
2000
3000
0000
0000
0000
0000
0000
0000
0002
0003
0000
0000
0000
0000
0000
0000
,
0000
0000
0000
0000
0000
0000
0000
0000
0001
0000
0000
0000
0000
0000
0000
0000
1000
0000
0000
0000
0000
0000
0000
0000
0100
0000
0000
0000
0000
0000
0000
0000
2000
3000
0000
0000
0000
0000
0000
0000
0010
0000
0000
0000
0000
0000
0000
0000
0100
0000
0000
0000
0000
0000
0000
0000
0001
0000
0000
0000
0000
0000
0000
0000
,
0010
0100
1000
0010
0100
0001
0010
0200
,
0300
0000
0200
0000
1300
0000
0100
0010
0001
0000
1000
0000
0100
0000
1000
0000
,
0001
0010
0001
0000
1000
0100
0010
0000
0001
0010
0001
0000
1000
0100
1000
0000
,
0001
0100
0001
0000
1000
0100
0010
0000
0001
0010
0100
0000
1000
0001
0100
0000
,
0001
0010
0001
0000
1000
0010
1000
0000
0001
0010
0100
0000
1000
0100
1000
0000
,
0001
0010
0100
2000
0000
0000
0000
0000
,
3001
1000
0001
1000
0100
0010
0001
1000
0100
0010
0001
1000
0001
0010
0100
0010
,
0001
1000
0001
1000
0100
0010
0001
0010
0100
1000
0001
1000
0001
0010
0100
1000
,
0002
0000
1003
0200
0000
0310
0001
1000
,
0100
1000
0001
1000
0001
0010
0100
1000
,
0001
0010
0100
2000
0000
3001
0010
0100
,
1000
0000
0000
0100
0000
0000
0010
0000
0000
0001
0000
0000
1000
0000
0100
0000
0010
0000
0001
0000
0010
0000
0100
0000
,
2000
0000
0000
0000
0000
0000
3001
0000
0011
0000
0110
0000
,
2200
0000
0000
0000
0000
0000
0000
3300
,
1000
0100
0010
0100
1000
0001
1000
0001
0010
0100
1000
0001
1000
0001
0010
0100
,
2000
3200
0320
0032
0023
0230
0000
2300
,
0000
0000
0000
0000
0000
0000
0000
0000
0000
0000
0000
0000
0000
0000
3001
1000
,
0100
0000
0000
0000
;
