#TITLE:For You;
#SUBTITLE:;
#ARTIST:DJ Sharpnel;
#TITLETRANSLIT:;
#SUBTITLETRANSLIT:;
#ARTISTTRANSLIT:;
#CREDIT:;
#BANNER:for you bn.png;
#BACKGROUND:for you bg.png;
#LYRICSPATH:;
#CDTITLE:;
#MUSIC:For You.ogg;
#OFFSET:0.004;
#SAMPLESTART:72.148;
#SAMPLELENGTH:22.856;
#SELECTABLE:YES;
#BPMS:0.000=168.000;
#STOPS:;
#BGCHANGES:;
// cache tags:
#FIRSTBEAT:12.000;
#LASTBEAT:467.000;
#SONGFILENAME:Songs/SHARPNELSTREAMZ v2/For You/For You.sm;
#HASMUSIC:1;
#HASBANNER:1;
#MUSICLENGTH:167.848;
// end cache tags

//---------------dance-single - 13+ (HPF!)----------------
#NOTES:
     dance-single:
     13+ (HPF!):
     Challenge:
     13:
     1.000,1.000,0.578,0.101,1.000,1224.000,97.000,17.000,14.000,0.000:

0000
0000
0000
0000
,
0000
0000
0000
0000
,
0000
0000
0000
0000
,
0001
0100
0110
0010
1000
1001
0001
0001
,
0100
0010
0110
0100
0001
1001
1000
1000
,
0100
0010
0011
0001
1000
1010
0010
0010
,
0100
0001
0101
0100
0010
1010
1000
1000
,
0001
0010
0110
0100
0010
0011
0001
0001
,
1000
0010
0110
0100
0001
0101
0100
0100
,
0010
1000
1001
0001
0010
0110
0100
0100
,
0020
0031
1000
0001
0020
0031
1000
0001
,
0020
0130
1100
1000
0001
0101
0100
0100
,
0010
1000
1001
0001
0010
0110
0100
0100
,
0010
0001
1001
1000
0010
1010
1000
1000
,
0001
0100
0101
0001
1000
1100
0100
0100
,
0010
0001
0011
0010
0001
1001
1000
1000
,
0010
0100
0110
0010
1000
1010
0010
0010
,
0100
0001
0101
0100
0001
1001
1000
1000
,
0100
0010
0011
0001
1000
1000
0002
0000
,
1003
0000
0100
0000
0110
0000
0010
0000
0001
1000
0001
1000
0100
0000
0000
0000
,
1000
0000
0001
0000
0101
0000
0100
0000
0010
1000
0010
1000
0001
0000
0000
0000
,
1000
0000
0001
0000
0011
0000
0010
0000
0100
0010
0100
0010
0001
0000
0000
0000
,
0010
0000
0001
0000
1001
0000
1000
0000
0010
0100
0010
0100
0001
0000
0000
0000
,
0100
0000
0001
0000
1001
0000
1000
0000
0001
0010
0001
0010
0100
000M
00M0
0000
,
1000
0000
0001
0000
1001
0000
1000
0000
0010
1000
0010
1000
0001
0000
0000
0000
,
0100
0000
0010
0000
1010
0000
1000
0000
0001
1000
0001
1000
0200
0300
0020
0030
,
0002
0003
0000
0000
0002
0003
0000
0000
2000
3000
0000
0000
2000
3000
0000
0000
0020
0030
0000
0000
0020
0030
0000
0000
0200
0300
0000
0000
0200
0300
0000
0000
,
0010
1000
0001
0100
0001
1000
0100
1000
,
0001
0010
0100
1000
0001
0100
0010
0100
,
0001
1000
0100
0010
0100
1000
0001
0010
,
0100
1000
0001
0100
0010
0100
0001
1000
,
0100
1000
0001
0010
0001
1000
0010
1000
,
0001
0010
0100
1000
0001
0100
0001
1000
,
0001
0010
0001
1000
0100
0010
0001
1000
0010
0100
0010
1000
0001
0100
0001
1000
,
0001
0000
2000
3002
,
1003
0100
0110
0010
0001
1000
1010
0010
,
0100
0001
1001
1000
0100
0010
0011
0001
,
1000
0010
0110
0100
0001
1000
1100
0100
,
1000
0001
0101
0100
0010
1000
1010
0010
,
0100
0001
1001
1000
0100
0010
0011
0001
,
1000
0010
0110
0100
0001
1000
1100
0100
,
1000
0001
0101
0100
0010
1000
1001
0001
,
0010
0100
0110
0010
0001
1000
1010
0010
,
0100
0010
1010
1000
0001
0010
0011
0001
,
1000
0100
0110
0010
0001
1000
1010
0010
,
0100
0001
1001
1000
0100
0010
0011
0001
,
1000
0010
0110
0100
0001
1000
1100
0100
,
1000
0001
1001
1000
0010
0100
0110
0010
,
1000
0001
0011
0010
0100
1000
1001
0001
,
0100
0010
0110
0100
0001
1000
1100
0100
,
0010
0001
1001
1000
0010
0100
0101
0001
,
1000
0010
0100
0010
1000
0001
0100
0001
1000
0100
0010
0100
1000
0001
0010
0100
,
1000
0001
0100
0001
1000
0010
1000
0010
1000
0001
0010
0100
0010
0001
1000
0100
,
1000
0001
0100
0001
1000
0010
0100
0010
1000
0001
1000
0001
0010
0100
1000
0001
,
1000
0010
0100
0010
1000
0001
0100
0001
1000
0100
1000
0100
0010
0001
0010
0100
,
1000
0001
0100
0001
0100
0001
1000
0010
1000
0001
0010
0100
0010
0001
1000
0100
,
1000
0001
0100
0010
0100
0001
1000
0010
1000
0001
0010
0100
0010
0001
1000
0100
,
1000
0001
0100
0010
0100
0001
1000
0010
1000
0001
0010
0100
0010
0001
1000
0100
,
1000
0001
0100
0010
0100
0010
1000
0001
1000
0001
0010
0100
1000
0001
0010
0100
,
1000
0001
0100
0001
1000
0010
0100
0010
1000
0001
0010
0100
0010
0001
0010
0100
,
1000
0001
0100
0001
0100
0010
1000
0010
1000
0001
0010
0100
0010
0001
0010
0100
,
1000
0001
0100
0010
0100
0001
1000
0010
1000
0001
0010
0001
1000
0100
0010
0100
,
1000
0001
0100
0010
0100
0001
1000
0010
1000
0001
0010
0100
1000
0001
0010
0001
,
1000
0010
0100
0010
1000
0001
0100
0001
1000
0100
0010
0001
1000
0100
0010
0100
,
1000
0001
0100
0001
1000
0010
0100
0010
1000
0001
0010
0100
0010
0001
1000
0100
,
1000
0010
0100
0010
1000
0001
0100
0001
1000
0100
0010
0001
1000
0100
1000
0001
,
1000
0010
0100
0010
1000
0001
0100
0001
1000
0001
0010
0100
0010
0001
1000
0001
,
1000
0100
1000
0001
0100
0001
1000
0001
1000
0100
0010
0001
0100
0001
1000
0001
,
1000
0100
1000
0001
0100
0001
1000
0001
1000
0100
0010
0001
0100
0001
1000
0001
,
1000
0100
1000
0001
0100
0001
1000
0001
1000
0100
0010
0001
0100
0001
1000
0001
,
1000
0100
1000
0001
0100
0001
1000
0001
1000
0100
0010
0001
0100
0001
1000
0001
,
1000
0100
1000
0001
0100
0001
1000
0001
1000
0100
0010
0001
0100
0001
1000
0001
,
1000
0100
1000
0001
0100
0001
1000
0001
1000
0100
0010
0001
0100
0001
1000
0001
,
1000
0100
1000
0001
0100
0001
1000
0001
1000
0100
0010
0001
0100
0001
1000
0001
,
1000
0100
1000
0001
0100
0001
1000
0001
1000
0100
0010
0001
0100
0001
1000
0001
,
1000
0100
1000
0001
0100
0001
1000
0001
1000
0100
0010
0001
0100
0001
1000
0001
,
1000
0100
1000
0001
0100
0001
1000
0001
1000
0100
0010
0001
0100
0001
1000
0001
,
1000
0100
1000
0001
0100
0001
1000
0001
1000
0100
0010
0001
0100
0001
1000
0001
,
1000
0100
1000
0001
0100
0001
1000
0001
1000
0100
0010
0001
0100
0001
1000
0001
,
1000
0100
1000
0001
0100
0001
1000
0001
1000
0100
0010
0001
0100
0001
1000
0001
,
1000
0100
1000
0001
0100
0001
1000
0001
1000
0100
0010
0001
0100
0001
1000
0001
,
1000
0100
1000
0001
0100
0001
1000
0001
1000
0100
0010
0001
0100
0001
1000
0001
,
1000
0100
1000
0001
0100
0001
1000
0001
1000
0100
0010
0001
0100
0001
1000
0001
,
1000
0100
1000
0010
0100
0010
1000
0001
1000
0001
0010
0001
0100
0010
1000
0100
,
1000
0001
1000
0010
0100
0010
1000
0001
1000
0001
0010
0001
0100
0010
1000
0100
,
1000
0001
1000
0010
0100
0010
1000
0001
1000
0001
0010
0001
0100
0010
1000
0100
,
1000
0001
1000
0010
0100
0010
1000
0001
1000
0001
0010
0001
0100
0010
1000
0100
,
1000
0001
1000
0010
0100
0010
1000
0001
1000
0001
0010
0001
0100
0010
1000
0100
,
1000
0001
1000
0010
0100
0010
1000
0001
1000
0001
0010
0001
0100
0010
1000
0100
,
1000
0001
1000
0010
0100
0010
1000
0001
1000
0001
0010
0001
0100
0010
1000
0100
,
1000
0001
1000
0010
0100
0010
1000
0001
1000
0001
0010
0001
0100
0010
1000
0100
,
1000
0001
1000
0010
0100
0010
1000
0001
1000
0001
0010
0001
0100
0010
1000
0100
,
1000
0001
1000
0010
0100
0010
1000
0001
1000
0001
0010
0001
0100
0010
1000
0100
,
1000
0001
1000
0010
0100
0010
1000
0001
1000
0001
0010
0001
0100
0010
1000
0100
,
1000
0001
1000
0010
0100
0010
1000
0001
1000
0001
0010
0001
0100
0010
1000
0100
,
1000
0001
1000
0010
0100
0010
1000
0001
1000
0001
0010
0001
0100
0010
1000
0100
,
1000
0001
1000
0010
0100
0010
1000
0001
1000
0001
0010
0001
0100
0010
1000
0100
,
1000
0001
1000
0010
0100
0010
1000
0001
1000
0001
0010
0001
0100
0010
1000
0100
,
1000
0001
1000
0010
0100
0010
1000
0001
1000
0001
0010
0001
0100
0010
1000
0100
,
0010
0110
0001
1010
,
0100
1001
0010
1010
,
0100
1001
0001
0110
,
1000
0011
0001
1010
,
0100
1001
0010
1010
,
0100
1001
0001
0110
,
1000
0011
0001
1010
,
0100
0000
1010
0000
0001
0000
1000
1000
,
0001
0011
1000
1001
,
0001
0110
1000
1001
,
0100
0011
1000
1010
,
0001
0110
1000
0011
,
0001
0110
1000
0101
,
0010
1001
1000
0011
,
0001
0110
1000
0101
,
0020
0000
0000
0000
0000
0000
0000
0000
0000
0M00
0000
0000
0000
0000
0000
0M00
,
0030
0000
0M00
0000
0000
0M00
0000
0000
0M00
0000
0000
0000
0M00
0000
0000
0000
,
0000
0000
0000
0000
0000
0000
0MM0
0000
0000
0000
0000
0000
0000
0000
0000
0000
0000
0000
0000
0000
0000
000M
00M0
0M00
M000
0000
0000
0000
0000
0000
0000
0000
;
