#TITLE:Stay The Same;
#SUBTITLE:;
#ARTIST:Joey McIntyre;
#TITLETRANSLIT:;
#SUBTITLETRANSLIT:;
#ARTISTTRANSLIT:;
#CREDIT:;
#BANNER:Stay the Same BN.jpg;
#BACKGROUND:Stay the Same BG.jpg;
#LYRICSPATH:;
#CDTITLE:;
#MUSIC:Stay The Same.mp3;
#OFFSET:-0.460;
#SAMPLESTART:100.030;
#SAMPLELENGTH:12.000;
#SELECTABLE:YES;
#BPMS:0.000=130.080;
#STOPS:;
#BGCHANGES:;
// cache tags:
#FIRSTBEAT:0.000;
#LASTBEAT:486.000;
#SONGFILENAME:Songs/Fog's StupidStream Pack/[Fogfactor] Stay The Same/Stay The Same.sm;
#HASMUSIC:1;
#HASBANNER:1;
#MUSICLENGTH:231.314;
// end cache tags

//---------------dance-single - ----------------
#NOTES:
     dance-single:
     :
     Challenge:
     21:
     1.000,1.000,0.246,0.000,1.000,4671.000,57.000,0.000,0.000,20.000:
1001
0100
0010
0001
0010
0001
0100
0010
1000
0010
1000
0100
0001
0010
0001
0010
,
1000
0001
0100
0001
0100
0010
0001
1000
0100
1000
0100
0010
0001
0010
0100
0010
,
1000
0001
0100
0001
0010
0100
0010
0001
1000
0010
0100
0010
1000
0100
0010
1000
,
0100
0001
0100
1000
0100
0001
0010
1000
0100
0010
0100
1000
0001
0100
0010
0001
,
0100
0001
1000
0100
0010
1000
0010
0100
0010
1000
0010
0100
1000
0100
0010
0001
,
0010
0001
0010
0001
0010
0100
1000
0010
0001
0100
0010
0001
0100
1000
0010
0001
,
0100
0001
0010
0100
0010
0100
0010
1000
0010
0100
1000
0100
1000
0010
1000
0100
,
0010
1000
0100
0001
0010
1000
0010
0100
1000
0010
0100
0001
1000
0100
0010
0001
,
0010
0000
0000
0100
0000
0000
0001
0000
0000
1000
0000
0000
1111
0000
0100
0000
0001
0000
0100
0000
0010
0000
0100
0000
0010
0000
1000
0000
0001
0000
0100
0000
0010
0000
0001
0000
1010
0000
0100
0000
0001
0000
0010
0000
1000
0000
0100
0000
,
0011
0100
0010
1000
0100
1000
0101
0010
1000
0001
0100
0010
0001
0100
0010
0001
1000
0010
0101
0010
1000
0001
0100
1000
,
0010
0001
1000
0100
0001
0010
1001
0100
0010
1000
0100
0010
0100
0010
0100
1000
0100
1000
0101
0010
0100
0010
0100
1000
,
0100
1000
0100
1000
0100
0001
1010
0100
1000
0001
0010
0100
0010
0100
0010
0100
0010
0100
1001
0010
0001
0010
0001
1000
,
0100
0001
0010
1000
0100
0010
1001
0100
0010
1000
0010
1000
0100
0001
0100
0001
0100
0010
0101
0010
0001
1000
0001
1000
,
0100
0001
0010
0100
1000
0100
1010
0001
0010
0100
1000
0100
1000
0001
0010
0001
1000
0100
0011
1000
0001
0010
0100
1000
,
0100
1000
0001
0010
0001
0100
0011
1000
0001
0100
0010
0100
0010
1000
0010
0100
1000
0001
0110
1000
0001
0010
0100
0010
,
0001
0100
0001
0010
0100
1000
0110
0001
0100
1000
0100
0010
0100
0001
0100
1000
0001
0010
1001
0010
0100
0010
0001
1000
,
0010
0100
1000
0100
0010
1000
0101
1000
0010
1000
0001
1000
0001
1000
0010
1000
0001
1000
0101
0010
0100
0010
1000
0100
,
1000
0010
0100
1000
0001
0100
0011
1000
0010
0100
1000
0100
0010
0100
0010
0001
0010
0001
1010
0100
0001
0010
1000
0100
,
0001
0100
0001
1000
0100
0001
0110
0001
0010
1000
0010
1000
0001
1000
0001
0100
1000
0010
1100
0001
1000
0100
0010
0001
,
0100
0010
1000
0001
0010
0100
1010
0001
0100
1000
0010
0100
0001
0100
0001
1000
0100
0010
1100
0001
0010
0001
0100
0010
,
0001
1000
0010
0100
1000
0010
1001
0100
1000
0100
0010
0001
0100
0010
0100
1000
0100
0010
0101
0010
1000
0100
0010
0001
,
0010
0101
0010
1000
0100
0010
0100
1000
0010
1000
0100
0001
1010
0100
0001
0100
0010
0001
0100
0010
0001
1000
0100
0010
,
1001
0100
0001
0010
0100
1000
0110
0001
0100
0001
1000
0100
0010
0100
1000
0100
1000
0100
1001
0010
0100
1000
0010
0100
,
0001
0010
0001
0100
1000
0001
1010
0100
0001
0100
0001
0010
1000
0100
0001
0010
1000
0100
1010
0100
0001
0010
0100
0010
,
0001
0010
0001
0100
1000
0010
0101
1000
0001
0100
0010
1000
0010
0100
0010
0100
1000
0100
1001
0100
0010
0100
0010
0100
,
1000
0000
0000
0000
0000
0000
0000
0000
0010
0000
0000
0000
0000
0000
0000
0000
0001
0000
0000
0000
0000
0000
0000
0000
0010
0000
0000
0000
0000
0000
0000
0000
1000
0000
0000
0000
0000
0000
0000
0000
0001
0000
0000
0000
0000
0000
0000
0000
1010
0000
0000
0000
0000
0000
0000
0000
0100
0000
0000
0000
0000
0000
0000
0000
1000
0000
0000
0000
0000
0000
0000
0000
0001
0000
0000
0000
0000
0000
0000
0000
0010
0000
0000
0000
0000
0000
0000
0000
0001
0000
0000
0000
0000
0000
0000
0000
1111
0000
0000
0000
0000
0000
1000
0000
0000
0000
0000
0000
0010
0000
0000
0000
0000
0000
0001
0000
0000
0000
0000
0000
0100
0000
0000
0000
0000
0000
1000
0000
0000
0000
0000
0000
0100
0000
0000
0000
0000
0000
1000
0000
0000
0000
0000
0000
0100
0000
0000
0000
0000
0000
0010
0000
0000
0000
0000
0000
1000
0000
0000
0000
0000
0000
0100
0000
0000
0000
0000
0000
1000
0000
0000
0000
0000
0000
0010
0000
0000
0000
0000
0000
0100
0000
0000
0000
0000
0000
0010
0000
0000
0000
0000
0000
,
0100
0010
0100
1000
0001
0010
0001
0100
0010
1000
0001
0100
0001
0010
1000
0001
1000
0010
0100
0001
1000
0010
1000
0010
0100
0010
0100
0001
0010
1000
0100
0010
,
0001
0000
0000
0000
0000
0000
0100
0000
0000
0000
0000
0000
0010
0000
0000
0000
0000
0000
0001
0000
0000
0000
0000
0000
0010
0000
0000
0000
0000
0000
0001
0000
0000
0000
0000
0000
0010
0000
0000
0000
0000
0000
0100
0000
0000
0000
0000
0000
1111
0000
0000
0000
0000
0000
0000
0000
1000
0000
0000
0000
0000
0000
0000
0000
0001
0000
0000
0000
0000
0000
0000
0000
1000
0000
0000
0000
0000
0000
0000
0000
0100
0000
0000
0000
0000
0000
0000
0000
0010
0000
0000
0000
0000
0000
0000
0000
0001
0000
0000
0000
0000
0000
0000
0000
0010
0000
0000
0000
0000
0000
0000
0000
0100
0000
0000
0000
0000
0000
0000
0000
0010
0000
0000
0000
0000
0000
0000
0000
0001
0000
0000
0000
0000
0000
0000
0000
0100
0000
0000
0000
0000
0000
0000
0000
0001
0000
0000
0000
0000
0000
0000
0000
0010
0000
0000
0000
0000
0000
0000
0000
0100
0000
0000
0000
0000
0000
0000
0000
0010
0000
0000
0000
0000
0000
0000
0000
0001
0000
0000
0000
0000
0000
0000
0000
0100
0000
0000
0000
0000
0000
0000
0000
,
0001
0010
0100
0010
0001
1000
0010
0100
0010
1000
0001
0100
1000
0010
0100
0001
1000
0100
1000
0100
0001
1000
0001
0100
,
0001
1000
0001
0010
1000
0100
0001
0100
0010
0001
0100
0010
0100
0010
0100
1000
0010
0100
0010
0001
0100
1000
0010
1000
,
0100
0010
0100
0010
0100
0001
0010
1000
0100
1000
0100
0010
0100
0010
0100
1000
0010
0001
0100
0001
0100
0010
0001
1000
,
0001
0000
0000
0000
0000
0000
0000
0000
0100
0000
0000
0000
0000
0000
0000
0000
0010
0000
0000
0000
0000
0000
0000
0000
0001
0000
0000
0000
0000
0000
0000
0000
0100
0000
0000
0000
0000
0000
0000
0000
1000
0000
0000
0000
0000
0000
0000
0000
0001
0000
0000
0000
0000
0000
0000
0000
0100
0000
0000
0000
0000
0000
0000
0000
0010
0000
0000
0000
0000
0000
0000
0000
1000
0000
0000
0000
0000
0000
0000
0000
0100
0000
0000
0000
0000
0000
0000
0000
1000
0000
0000
0000
0000
0000
0000
0000
1111
0000
0000
0000
0000
0000
1000
0000
0000
0000
0000
0000
0001
0000
0000
0000
0000
0000
0010
0000
0000
0000
0000
0000
1000
0000
0000
0000
0000
0000
0100
0000
0000
0000
0000
0000
0001
0000
0000
0000
0000
0000
0100
0000
0000
0000
0000
0000
0010
0000
0000
0000
0000
0000
0100
0000
0000
0000
0000
0000
1000
0000
0000
0000
0000
0000
0100
0000
0000
0000
0000
0000
0001
0000
0000
0000
0000
0000
1000
0000
0000
0000
0000
0000
0100
0000
0000
0000
0000
0000
0001
0000
0000
0000
0000
0000
,
0010
1000
0001
0010
0001
0100
0001
1000
0010
0001
0100
1000
0100
0010
1000
0010
1000
0010
0100
1000
0100
0010
0100
1000
0010
0100
1000
0001
1000
0010
0100
0010
,
0100
0001
1000
0010
0001
0100
0001
1000
0100
1000
0100
0001
1000
0001
0010
1000
0010
1000
0100
0001
0100
1000
0010
1000
0010
0100
0010
1000
0100
0001
0100
1000
,
0100
1000
0100
0010
0001
0010
0100
1000
0010
0001
0100
0010
1000
0100
0010
1000
0001
0010
0100
1000
0100
0010
0100
0010
0100
1000
0100
0010
1000
0010
0001
1000
,
0010
1000
0100
0001
1000
0001
0010
0001
0100
1000
0010
1000
0010
1000
0001
0010
1000
0010
0100
0001
1000
0010
0001
0100
0010
1000
0100
0010
0001
1000
0001
0010
,
0100
1000
0100
0001
0010
1000
0010
0001
0010
0100
1000
0001
0010
0001
0100
0010
0001
1000
0010
0001
0010
1000
0100
0010
0001
0100
0010
1000
0010
1000
0010
0100
,
0001
1000
0010
0100
1000
0100
0010
0001
1000
0010
0001
1000
0010
0001
1000
0010
0001
0100
0001
0010
0100
1000
0010
0001
1000
0001
1000
0001
0100
0001
0100
0001
,
0100
1000
0100
1000
0100
0010
0100
0001
1000
0100
0010
1000
0001
1000
0001
1000
0100
1000
0001
0010
1000
0100
1000
0010
0001
1000
0100
0010
1000
0100
0010
1000
,
0010
0100
0001
0010
0100
0001
0010
1000
0010
0100
0010
1000
0010
0001
0010
1000
0100
1000
0010
1000
0100
1000
0001
0010
0001
1000
0001
0100
0010
1000
0001
0010
,
1000
0100
0001
0100
1000
0010
0100
0001
0010
1000
0001
1000
0010
1000
0100
0010
0001
0010
0100
1000
0010
0100
0010
1000
0001
1000
0010
1000
0010
0001
0010
0100
,
0010
0100
0010
0100
1000
0001
0010
0100
0010
0100
1000
0100
0001
1000
0010
0100
1000
0001
0100
1000
0001
0010
0100
0001
1000
0100
1000
0010
1000
0100
1000
0001
,
0100
0001
0010
0001
0010
1000
0010
0100
0001
1000
0010
1000
0010
0100
0001
0010
0100
1000
0001
1000
0100
0010
0100
0001
1000
0010
1000
0001
0100
0010
0001
0010
,
1000
0100
0001
0010
0001
0100
1000
0010
0001
0100
1000
0001
0010
0100
0010
1000
0100
0001
0010
1000
0001
0100
0001
1000
0100
0001
1000
0010
0001
0010
0001
0100
,
1000
0100
1000
0010
0001
0010
0001
1000
0100
0010
0001
0010
1000
0001
0010
1000
0001
0010
0001
0100
0001
0010
1000
0001
0010
0001
0010
0100
0010
1000
0100
1000
,
0100
0010
1000
0010
0001
0010
0100
0001
0100
0010
1000
0010
0001
0100
0010
0001
0100
1000
0010
0100
0001
0100
1000
0100
0001
1000
0010
0100
0010
1000
0100
0001
,
0010
0001
1000
0100
1000
0010
0001
0100
0001
0010
0001
0100
0001
0010
1000
0100
0001
0010
0100
0010
0001
0100
1000
0010
0100
1000
0001
1000
0010
0001
1000
0100
,
0010
1000
0100
0010
1000
0100
1000
0100
0001
0100
0010
0100
0001
1000
0100
0010
0001
1000
0100
1000
0010
1000
0100
0010
1000
0100
0010
0001
1000
0100
0001
0010
,
0001
0000
0000
0000
0000
0000
0010
0000
0000
0000
0000
0000
0001
0000
0000
0000
0000
0000
1000
0000
0000
0000
0000
0000
0100
0000
0000
0000
0000
0000
0001
0000
0000
0000
0000
0000
1000
0000
0000
0000
0000
0000
0010
0000
0000
0000
0000
0000
1111
0000
0000
0000
0001
0000
0000
0000
1000
0000
0000
0000
0100
0000
0000
0000
0001
0000
0000
0000
0010
0000
0000
0000
0100
0000
0000
0000
0001
0000
0000
0000
1000
0000
0000
0000
0001
0000
0000
0000
0100
0000
0000
0000
0001
0000
0000
0000
1000
0000
0000
0000
0001
0000
0000
0000
0010
0000
0000
0000
0001
0000
0000
0000
1000
0000
0000
0000
0001
0000
0000
0000
0100
0000
0000
0000
0010
0000
0000
0000
0001
0000
0000
0000
0010
0000
0000
0000
0001
0000
0000
0000
1000
0000
0000
0000
0010
0000
0000
0000
1000
0000
0000
0000
0010
0000
0000
0000
0001
0000
0000
0000
1000
0000
0000
0000
0010
0000
0000
0000
0100
0000
0000
0000
1000
0000
0000
0000
0001
0000
0000
0000
1000
0000
0000
0000
0100
0000
0000
0000
0010
0000
0000
0000
,
0100
1000
0010
0100
1000
0010
1000
0100
0001
1000
0100
0010
0100
0010
1000
0001
0100
0010
0100
1000
0100
0010
1000
0010
1000
0001
0100
0010
0100
1000
0100
1000
0010
0001
0100
0001
1000
0100
0010
0100
0010
0001
0010
1000
0100
1000
0100
0010
,
0100
1000
0001
1000
0001
1000
0001
0010
0001
0100
0010
1000
0100
0001
0100
1000
0010
0100
0001
1000
0001
0100
0010
1000
0100
0001
0100
1000
0010
0001
0100
0001
0010
1000
0010
1000
0010
0001
1000
0010
0100
0010
0001
1000
0001
0010
0001
0010
,
1000
0000
0000
0000
0001
0000
0000
0000
1000
0000
0000
0000
0100
0000
0000
0000
0001
0000
0000
0000
1000
0000
0000
0000
0001
0000
0000
0000
0010
0000
0000
0000
0100
0000
0000
0000
0010
0000
0000
0000
0100
0000
0000
0000
1000
0000
0000
0000
0010
0000
0000
0000
0100
0000
0000
0000
1000
0000
0000
0000
1111
0000
0000
0000
0000
0000
0100
0000
0000
0000
0000
0000
1000
0000
0000
0000
0000
0000
0001
0000
0000
0000
0000
0000
1000
0000
0000
0000
0000
0000
0100
0000
0000
0000
0000
0000
1000
0000
0000
0000
0000
0000
0010
0000
0000
0000
0000
0000
0100
0000
0000
0000
0000
0000
1000
0000
0000
0000
0000
0000
0001
0000
0000
0000
0000
0000
0010
0000
0000
0000
0000
0000
0001
0000
0000
0000
0000
0000
0100
0000
0000
0000
0000
0000
0001
0000
0000
0000
0000
0000
1000
0000
0000
0000
0000
0000
1000
0000
0000
0000
0000
0000
0100
0000
0000
0000
0000
0000
0010
0000
0000
0000
0000
0000
0100
0000
0000
0000
0000
0000
1000
0000
0000
0000
0000
0000
0001
0000
0000
0000
0000
0000
,
0010
0100
1000
0100
0001
0010
1000
0010
0100
0001
1000
0100
0010
1000
0010
1000
0100
0010
0001
0010
0100
0010
0100
1000
0100
1000
0100
1000
0010
0100
0010
0001
,
0100
1000
0100
0001
0100
0010
0001
1000
0001
0100
0010
1000
0010
0001
1000
0100
0001
0010
1000
0010
1000
0010
0001
1000
0010
0001
0010
0100
1000
0100
1000
0001
,
0010
0000
0000
0000
0000
0000
0100
0000
0000
0000
0000
0000
0001
0000
0000
0000
0000
0000
0010
0000
0000
0000
0000
0000
1111
0000
0000
0000
0001
0000
0000
0000
0100
0000
0000
0000
0010
0000
0000
0000
0001
0000
0000
0000
1000
0000
0000
0000
0100
0000
0000
0000
0001
0000
0000
0000
0010
0000
0000
0000
0001
0000
0000
0000
0010
0000
0000
0000
0100
0000
0000
0000
0010
0000
0000
0000
1000
0000
0000
0000
0010
0000
0000
0000
1000
0000
0000
0000
0100
0000
0000
0000
0010
0000
0000
0000
0100
0000
0000
0000
0010
0000
0000
0000
1000
0000
0000
0000
0001
0000
0000
0000
0010
0000
0000
0000
1000
0000
0000
0000
0100
0000
0000
0000
1000
0000
0000
0000
0001
0000
0000
0000
0100
0000
0000
0000
0010
0000
0000
0000
1000
0000
0000
0000
0100
0000
0000
0000
0001
0000
0000
0000
0010
0000
0000
0000
0001
0000
0000
0000
1000
0000
0000
0000
0010
0000
0000
0000
1000
0000
0000
0000
0001
0000
0000
0000
0010
0000
0000
0000
0001
0000
0000
0000
1000
0000
0000
0000
0100
0000
0000
0000
,
1000
0010
0001
1000
0100
1000
0100
1000
0100
1000
0010
0100
1000
0100
1000
0010
0100
0001
0100
1000
0010
0100
1000
0001
0010
1000
0100
1000
0100
1000
0001
1000
0001
0010
1000
0100
0001
0010
0001
0010
1000
0100
0010
1000
0100
1000
0001
1000
,
0100
0000
0000
0000
0001
0000
0000
0000
0010
0000
0000
0000
1000
0000
0000
0000
0100
0000
0000
0000
0010
0000
0000
0000
0001
0000
0000
0000
0010
0000
0000
0000
0100
0000
0000
0000
1000
0000
0000
0000
0010
0000
0000
0000
0100
0000
0000
0000
1111
0000
0000
0000
0000
0000
1000
0000
0000
0000
0000
0000
0100
0000
0000
0000
0000
0000
1000
0000
0000
0000
0000
0000
0010
0000
0000
0000
0000
0000
1000
0000
0000
0000
0000
0000
0100
0000
0000
0000
0000
0000
0010
0000
0000
0000
0000
0000
0001
0000
0000
0000
0000
0000
0010
0000
0000
0000
0000
0000
0100
0000
0000
0000
0000
0000
0010
0000
0000
0000
0000
0000
0100
0000
0000
0000
0000
0000
0001
0000
0000
0000
0000
0000
1000
0000
0000
0000
0000
0000
0010
0000
0000
0000
0000
0000
1000
0000
0000
0000
0000
0000
0100
0000
0000
0000
0000
0000
1000
0000
0000
0000
0000
0000
0100
0000
0000
0000
0000
0000
1000
0000
0000
0000
0000
0000
0100
0000
0000
0000
0000
0000
1000
0000
0000
0000
0000
0000
0010
0000
0000
0000
0000
0000
,
0100
0001
0010
1000
0100
1000
0001
0010
0100
0001
0010
1000
0100
0001
0010
0001
1000
0100
1000
0001
0100
0001
0100
1000
0100
1000
0001
1000
0010
0100
1000
0001
,
0010
0100
0010
0001
1000
0010
0100
1000
0010
0100
1000
0001
0100
1000
0001
1000
0001
0010
1000
0010
0100
1000
0001
0010
1000
0100
1000
0001
0100
1000
0010
1000
,
0010
0100
1000
0100
0010
0100
0001
1000
0010
1000
0010
0001
1000
0001
0010
1000
0010
0100
1000
0100
1000
0001
0100
0010
1000
0100
1000
0100
1000
0100
0010
0100
,
0010
0001
0100
0010
0001
0100
0010
1000
0100
0010
0100
1000
0001
0010
0001
0010
0100
0001
0100
1000
0001
0010
0001
1000
0100
0001
0010
0001
0010
1000
0100
0001
,
0100
0010
1000
0100
0001
0010
0001
0100
0010
0100
1000
0001
0010
0001
1000
0100
1000
0010
0001
1000
0010
1000
0100
0001
0010
0001
1000
0100
0001
0100
0001
1000
,
0010
0000
0000
0000
0000
0000
1000
0000
0000
0000
0000
0000
0010
0000
0000
0000
0000
0000
0001
0000
0000
0000
0000
0000
0010
0000
0000
0000
0000
0000
1000
0000
0000
0000
0000
0000
0100
0000
0000
0000
0000
0000
0010
0000
0000
0000
0000
0000
1111
0000
0000
0000
0100
0000
0000
0000
0010
0000
0000
0000
0001
0000
0000
0000
0100
0000
0000
0000
1000
0000
0000
0000
0010
0000
0000
0000
0100
0000
0000
0000
0001
0000
0000
0000
0010
0000
0000
0000
0001
0000
0000
0000
0100
0000
0000
0000
1000
0000
0000
0000
0010
0000
0000
0000
0100
0000
0000
0000
0010
0000
0000
0000
0001
0000
0000
0000
1000
0000
0000
0000
0100
0000
0000
0000
0010
0000
0000
0000
1000
0000
0000
0000
0100
0000
0000
0000
0001
0000
0000
0000
1000
0000
0000
0000
0100
0000
0000
0000
1000
0000
0000
0000
0100
0000
0000
0000
1000
0000
0000
0000
0100
0000
0000
0000
0001
0000
0000
0000
0010
0000
0000
0000
1000
0000
0000
0000
0010
0000
0000
0000
1000
0000
0000
0000
0010
0000
0000
0000
1000
0000
0000
0000
,
0100
0000
0000
0000
0001
0000
0000
0000
0010
0000
0000
0000
1000
0000
0000
0000
0001
0000
0000
0000
0010
0000
0000
0000
0001
0000
0000
0000
0010
0000
0000
0000
0001
0000
0000
0000
0100
0000
0000
0000
0010
0000
0000
0000
1000
0000
0000
0000
0001
0000
0000
0000
1000
0000
0000
0000
0100
0000
0000
0000
1000
0000
0000
0000
0010
0000
0000
0000
0100
0000
0000
0000
1000
0000
0000
0000
0001
0000
0000
0000
0010
0000
0000
0000
1000
0000
0000
0000
0001
0000
0000
0000
0010
0000
0000
0000
0100
0000
0000
0000
0010
0000
0000
0000
0100
0000
0000
0000
0001
0000
0000
0000
0100
0000
0000
0000
0010
0000
0000
0000
1000
0000
0000
0000
0001
0000
0000
0000
0010
0000
0000
0000
0100
0000
0000
0000
1000
0000
0000
0000
0001
0000
0000
0000
1111
0000
0000
0000
0000
0000
1000
0000
0000
0000
0000
0000
0010
0000
0000
0000
0000
0000
0001
0000
0000
0000
0000
0000
0100
0000
0000
0000
0000
0000
0010
0000
0000
0000
0000
0000
1000
0000
0000
0000
0000
0000
0001
0000
0000
0000
0000
0000
,
0010
0100
0010
0001
0010
0100
0001
1000
0100
1000
0010
0100
1000
0001
0100
1000
0100
0010
1000
0100
0001
1000
0010
0001
0100
0010
1000
0010
0100
0010
1000
0100
,
0001
0000
0000
0000
0000
0000
0010
0000
0000
0000
0000
0000
0100
0000
0000
0000
0000
0000
0010
0000
0000
0000
0000
0000
0100
0000
0000
0000
0000
0000
0010
0000
0000
0000
0000
0000
1000
0000
0000
0000
0000
0000
0001
0000
0000
0000
0000
0000
1000
0000
0000
0000
0000
0000
0010
0000
0000
0000
0000
0000
0001
0000
0000
0000
0000
0000
1000
0000
0000
0000
0000
0000
0100
0000
0000
0000
0000
0000
0001
0000
0000
0000
0000
0000
0100
0000
0000
0000
0000
0000
0010
0000
0000
0000
0000
0000
1111
0000
0000
0000
0100
0000
0000
0000
0001
0000
0000
0000
1000
0000
0000
0000
0100
0000
0000
0000
1000
0000
0000
0000
0100
0000
0000
0000
0010
0000
0000
0000
1000
0000
0000
0000
0010
0000
0000
0000
0100
0000
0000
0000
1000
0000
0000
0000
0010
0000
0000
0000
0001
0000
0000
0000
1000
0000
0000
0000
0100
0000
0000
0000
1000
0000
0000
0000
0100
0000
0000
0000
0010
0000
0000
0000
0001
0000
0000
0000
0100
0000
0000
0000
0010
0000
0000
0000
1000
0000
0000
0000
0010
0000
0000
0000
,
0100
1000
0001
1000
0100
1000
0010
0100
1000
0001
1000
0100
0010
0100
1000
0001
0010
1000
0100
0001
1000
0010
0100
1000
0100
0010
0100
0010
0000
0001
0010
1000
0100
0001
1000
0100
0010
1000
0010
0001
0100
0010
0100
0010
0100
0010
0100
0010
,
0100
0000
0000
0000
0001
0000
0000
0000
0010
0000
0000
0000
1000
0000
0000
0000
0001
0000
0000
0000
0010
0000
0000
0000
0100
0000
0000
0000
0001
0000
0000
0000
1000
0000
0000
0000
0100
0000
0000
0000
0001
0000
0000
0000
0010
0000
0000
0000
1111
0000
0000
0000
0000
0000
0100
0000
0000
0000
0000
0000
0010
0000
0000
0000
0000
0000
0100
0000
0000
0000
0000
0000
0010
0000
0000
0000
0000
0000
0001
0000
0000
0000
0000
0000
1000
0000
0000
0000
0000
0000
0010
0000
0000
0000
0000
0000
0100
0000
0000
0000
0000
0000
0001
0000
0000
0000
0000
0000
0100
0000
0000
0000
0000
0000
0010
0000
0000
0000
0000
0000
0100
0000
0000
0000
0000
0000
0010
0000
0000
0000
0000
0000
0100
0000
0000
0000
0000
0000
0010
0000
0000
0000
0000
0000
0001
0000
0000
0000
0000
0000
0100
0000
0000
0000
0000
0000
0010
0000
0000
0000
0000
0000
1000
0000
0000
0000
0000
0000
0010
0000
0000
0000
0000
0000
0100
0000
0000
0000
0000
0000
0001
0000
0000
0000
0000
0000
0010
0000
0000
0000
0000
0000
,
0100
0001
0010
0001
0010
0001
0010
0100
0001
0010
0100
1000
0100
1000
0001
0010
0001
0100
0001
1000
0100
1000
0100
0001
0100
1000
0100
0010
0100
0010
0001
1000
,
0100
0000
0000
0000
0000
0000
0001
0000
0000
0000
0000
0000
0100
0000
0000
0000
0000
0000
0010
0000
0000
0000
0000
0000
0001
0000
0000
0000
0000
0000
0100
0000
0000
0000
0000
0000
1000
0000
0000
0000
0000
0000
0100
0000
0000
0000
0000
0000
1111
0000
0000
0000
0100
0000
0000
0000
0001
0000
0000
0000
0100
0000
0000
0000
0010
0000
0000
0000
0001
0000
0000
0000
0100
0000
0000
0000
0010
0000
0000
0000
0100
0000
0000
0000
0001
0000
0000
0000
1000
0000
0000
0000
0100
0000
0000
0000
1000
0000
0000
0000
0001
0000
0000
0000
0010
0000
0000
0000
0100
0000
0000
0000
0010
0000
0000
0000
1000
0000
0000
0000
0100
0000
0000
0000
1000
0000
0000
0000
0010
0000
0000
0000
0100
0000
0000
0000
1000
0000
0000
0000
0100
0000
0000
0000
0001
0000
0000
0000
0010
0000
0000
0000
0001
0000
0000
0000
1000
0000
0000
0000
0100
0000
0000
0000
0001
0000
0000
0000
0100
0000
0000
0000
0010
0000
0000
0000
1000
0000
0000
0000
0010
0000
0000
0000
0100
0000
0000
0000
1000
0000
0000
0000
,
0100
1000
0010
0100
1000
0100
0010
1000
0010
1000
0100
0010
0001
1000
0010
0100
0001
0010
0100
1000
0100
0010
1000
0100
0010
0100
0010
0100
0010
0100
1000
0010
0001
0100
1000
0001
1000
0100
0001
1000
0100
0001
0100
1000
0010
0100
1000
0010
,
1000
0000
0000
0000
0001
0000
0000
0000
1000
0000
0000
0000
0100
0000
0000
0000
1000
0000
0000
0000
0010
0000
0000
0000
0001
0000
0000
0000
0100
0000
0000
0000
1000
0000
0000
0000
0100
0000
0000
0000
1000
0000
0000
0000
0010
0000
0000
0000
1111
0000
0000
0000
0000
0000
1000
0000
0000
0000
0000
0000
0010
0000
0000
0000
0000
0000
0100
0000
0000
0000
0000
0000
0001
0000
0000
0000
0000
0000
0100
0000
0000
0000
0000
0000
1000
0000
0000
0000
0000
0000
0100
0000
0000
0000
0000
0000
1000
0000
0000
0000
0000
0000
0100
0000
0000
0000
0000
0000
0010
0000
0000
0000
0000
0000
1000
0000
0000
0000
0000
0000
0010
0000
0000
0000
0000
0000
0100
0000
0000
0000
0000
0000
1000
0000
0000
0000
0000
0000
0001
0000
0000
0000
0000
0000
1000
0000
0000
0000
0000
0000
0100
0000
0000
0000
0000
0000
0010
0000
0000
0000
0000
0000
0100
0000
0000
0000
0000
0000
0010
0000
0000
0000
0000
0000
1000
0000
0000
0000
0000
0000
0100
0000
0000
0000
0000
0000
1000
0000
0000
0000
0000
0000
,
0100
0000
0000
0000
0000
0000
1000
0000
0000
0000
0000
0000
0001
0000
0000
0000
0000
0000
1000
0000
0000
0000
0000
0000
0100
0000
0000
0000
0000
0000
0010
0000
0000
0000
0000
0000
0100
0000
0000
0000
0000
0000
1000
0000
0000
0000
0000
0000
1111
0000
0000
0000
0010
0000
0000
0000
0100
0000
0000
0000
1000
0000
0000
0000
0010
0000
0000
0000
1000
0000
0000
0000
0010
0000
0000
0000
1000
0000
0000
0000
0100
0000
0000
0000
0010
0000
0000
0000
0100
0000
0000
0000
1000
0000
0000
0000
0010
0000
0000
0000
1000
0000
0000
0000
0010
0000
0000
0000
0001
0000
0000
0000
0100
0000
0000
0000
1000
0000
0000
0000
0100
0000
0000
0000
0010
0000
0000
0000
0001
0000
0000
0000
1000
0000
0000
0000
0001
0000
0000
0000
0010
0000
0000
0000
0001
0000
0000
0000
0010
0000
0000
0000
0100
0000
0000
0000
1000
0000
0000
0000
0010
0000
0000
0000
1000
0000
0000
0000
0100
0000
0000
0000
0001
0000
0000
0000
0100
0000
0000
0000
0010
0000
0000
0000
0100
0000
0000
0000
1000
0000
0000
0000
,
0010
0100
1000
0001
1000
0001
0010
0100
0010
0100
1000
0010
0100
0001
0010
0001
0010
0100
0010
0001
0010
0100
0010
0001
0100
0010
0001
1000
0100
0001
1000
0100
1000
0100
0001
0010
0100
0001
0010
0001
1000
0100
0010
0100
0001
0010
1000
0100
,
0001
0100
1000
0100
1000
0010
1000
0100
1000
0100
0001
1000
0010
0100
0010
1000
0100
0001
0010
0100
1000
0001
0010
0100
0001
0010
0100
1000
0100
0001
0010
0001
1000
0010
0100
0001
0010
0100
0010
0100
0001
0010
0100
1000
0100
0001
0010
1000
,
0001
0010
0100
0001
0010
0001
0100
0010
0100
0001
1000
0010
0100
1000
0001
0010
0100
0001
0010
0100
0010
1000
0001
0100
0001
1000
0010
0100
1000
0001
1000
0100
1000
0100
1000
0001
0010
1000
0010
0001
0100
1000
0010
0100
0001
0100
1000
0010
,
0100
1000
0100
0010
0100
0001
0100
1000
0100
1000
0010
0100
0010
0100
0001
0010
0001
0100
0010
0001
0100
0001
0100
0010
0100
0010
1000
0100
1000
0010
0100
0010
0100
0010
1000
0100
1000
0001
1000
0010
0100
0010
0100
0001
1000
0010
1000
0100
,
0010
1000
0100
0001
0010
0100
0010
0001
0010
1000
0001
0010
0100
0001
0010
1000
0010
0100
1000
0001
1000
0001
0010
1000
0100
0001
0010
0100
0001
0010
0100
0010
1000
0010
0001
0010
0001
0010
0100
1000
0001
1000
0100
1000
0001
0010
0001
0001
,
0010
1000
0100
0010
0100
0001
1000
0001
0010
0100
1000
0010
0100
0010
0100
0010
0001
0100
0010
1000
0001
0100
0010
1000
0001
1000
0100
0010
0100
1000
0010
0100
0010
0001
1000
0100
1000
0100
1000
0001
0100
1000
0010
0100
0010
1000
0001
0100
,
0010
0100
0010
0001
0100
0010
0100
1000
0001
0010
0001
1000
0100
0010
1000
0100
0001
0010
0001
0010
1000
0100
1000
0100
1000
0100
1000
0100
0001
0100
0010
0001
1000
0100
1000
0100
1000
0010
1000
0100
0010
0001
0010
0100
0010
0100
1000
0010
,
0001
0100
0010
0001
0100
1000
0001
1000
0001
1000
0100
0010
1000
0001
1000
0001
1000
0010
1000
0010
0001
0100
1000
0010
0001
0100
1000
0001
0100
0001
0100
0010
1000
0010
0100
1000
0100
0001
1000
0010
1000
0100
0010
1000
0010
0100
1000
0010
,
0100
0001
0010
1000
0010
1000
0001
0100
0001
0010
0001
0100
1000
0001
0100
1000
0001
1000
0001
0010
1000
0100
1000
0010
1000
0001
0010
0001
0010
0100
0010
0001
1000
0100
1000
0100
1000
0010
0100
0010
1000
0001
0010
0100
0010
1000
0001
0010
,
1000
0100
0010
0100
1000
0001
0010
1000
0100
0010
0001
0010
1000
0010
0100
0010
0100
0001
0100
0001
1000
0010
0100
0001
0010
0100
0010
0100
1000
0001
0010
1000
0100
0001
1000
0100
0010
0001
1000
0001
0100
0010
0001
1000
0100
0010
0100
0010
,
0001
0100
0010
0100
1000
0001
1000
0010
0100
0010
1000
0100
0001
0100
0010
0001
1000
0100
1000
0001
0010
0100
0010
0100
0010
1000
0010
1000
0001
1000
0001
1000
0100
0010
0100
1000
0100
0010
0100
1000
0001
0010
0001
0010
0001
0010
0001
0010
,
0001
0100
0001
0100
0001
0100
0001
0010
0100
0001
1000
0100
0010
0001
0100
0001
0010
0100
1000
0001
1000
0010
0100
0001
0100
0010
0100
0001
0100
0010
1000
0010
0001
0010
0100
0010
0001
1000
0010
0100
0001
0100
0001
0010
0100
0001
0100
1000
,
0100
0001
0010
0100
1000
0010
1000
0001
1000
0010
0100
0010
0001
0100
1000
0010
1000
0010
0100
1000
0100
1000
0100
0010
1000
0010
1000
0100
0010
0100
0010
0100
1000
0001
0010
0100
1000
0100
0010
0001
0010
0100
0010
0001
1000
0100
1000
0010
,
1000
0001
0010
0100
0010
0001
0100
0001
1000
0010
1000
0010
0100
0010
1000
0100
0010
0100
1000
0010
0100
0010
1000
0010
0100
1000
0001
0100
0010
0001
0100
0001
0010
0001
1000
0010
0100
0001
0010
0001
0100
1000
0010
1000
0100
0010
1000
0010
,
0100
0010
0001
1000
0001
1000
0001
1000
0100
0010
1000
0001
0010
0100
0010
0100
0010
1000
0100
0010
1000
0010
0100
1000
0010
0100
0001
0100
0010
1000
0001
0100
0010
0100
0010
1000
0100
0001
1000
0001
1000
0100
0010
1000
0100
1000
0100
1000
,
0001
1000
0100
1000
0010
0100
0001
1000
0010
1000
0010
0001
1000
0001
1000
0100
0001
1000
0100
0010
0001
1000
0100
0010
1000
0100
0001
0010
0100
1000
0100
0010
0001
0010
0100
1000
0010
0100
1000
0001
0100
0010
0100
0010
0100
1000
0001
0010
,
1000
0100
1000
0010
0001
1000
0001
0100
1000
0100
0001
0010
0001
0100
1000
0010
1000
0100
0001
0100
0010
0001
0100
1000
0001
0100
1000
0010
0001
0100
1000
0010
0001
0100
0001
1000
0100
1000
0100
0001
1000
0001
1000
0001
0100
0010
1000
0100
,
0010
0000
0000
0000
0001
0000
0000
0000
1000
0000
0000
0000
0100
0000
0000
0000
1000
0000
0000
0000
0100
0000
0000
0000
0010
0000
0000
0000
0001
0000
0000
0000
0010
0000
0000
0000
0001
0000
0000
0000
0010
0000
0000
0000
0100
0000
0000
0000
1111
0000
0000
0010
0000
0000
0100
0000
0000
0010
0000
0000
1000
0000
0000
0010
0000
0000
0001
0000
0000
0100
0000
0000
0010
0000
0000
1000
0000
0000
0010
0000
0000
1000
0000
0000
0100
0000
0000
0010
0000
0000
0100
0000
0000
0010
0000
0000
0100
0000
0000
1000
0000
0000
0001
0000
0000
0100
0000
0000
0010
0000
0000
1000
0000
0000
0100
0000
0000
0001
0000
0000
1000
0000
0000
0010
0000
0000
0100
0000
0000
0010
0000
0000
0001
0000
0000
0100
0000
0000
0001
0000
0000
0010
0000
0000
1000
0000
0000
0010
0000
0000
0100
0000
0000
1000
0000
0000
0001
0000
0000
0100
0000
0000
0001
0000
0000
0010
0000
0000
0001
0000
0000
0010
0000
0000
1000
0000
0000
0100
0000
0000
0010
0000
0000
0001
0000
0000
0100
0000
0000
1000
0000
0000
,
0100
0010
0100
0001
1000
0010
0100
1000
0010
0100
0001
0100
1000
0010
0001
1000
0010
1000
0010
0100
0001
0100
0010
1000
0001
1000
0001
0100
0010
1000
0100
0010
1000
0100
0001
0010
1000
0010
0100
0001
0010
0001
1000
0001
1000
0100
1000
0100
0001
0010
0001
0100
0001
1000
0100
0001
1000
0100
0010
0100
0010
0100
1000
0010
,
0100
0001
0010
1000
0100
1000
0100
1000
0100
0010
0001
0010
0100
0001
0010
0100
0010
0001
1000
0100
1000
0010
0100
1000
0100
1000
0001
0100
0001
1000
0001
0010
1000
0001
0001
0100
0010
0001
1000
0001
0100
1000
0010
0100
1000
0001
0100
0010
0100
0010
1000
0100
1000
0010
0100
0001
0100
0010
0001
0010
1000
0001
0100
1000
,
0010
0100
0001
0010
1000
0100
0001
0010
1000
0100
0010
0001
0100
0010
0001
1000
0100
0010
1000
0100
0010
1000
0001
1000
0001
0100
0010
0100
1000
0100
0001
0010
1000
0100
0001
0010
0100
1000
0001
0010
1000
0100
1000
0010
0100
0010
1000
0001
0010
0100
0001
0010
0100
0010
1000
0010
1000
0100
1000
0010
1000
0100
0001
0010
,
0001
1000
0010
0001
1000
0100
0010
1000
0100
1000
0001
1000
0001
1000
0100
1000
0100
1000
0010
0001
0100
0010
0001
1000
0001
0100
0010
1000
0001
0010
0001
0010
1000
0010
0100
1000
0010
0001
0010
0100
1000
0010
0100
1000
0100
0001
0010
1000
0001
1000
0010
0001
0010
1000
0010
0100
1000
0010
0100
0010
1000
0001
0010
0001
,
0100
0001
0010
0100
0001
0100
0010
0001
1000
0100
1000
0100
0001
0010
1000
0100
0010
0001
0100
1000
0100
0010
0100
0001
0010
0100
1000
0100
0010
0001
0100
0001
0010
0100
0010
1000
0100
1000
0100
1000
0100
1000
0100
0001
0010
0001
0100
0010
1000
0001
0010
0001
0100
0010
0001
0010
0100
0010
0001
1000
0100
0010
1000
0100
,
0010
1000
0100
0001
0100
1000
0010
0001
1000
0100
0010
1000
0010
1000
0100
1000
0100
0010
1000
0100
0010
1000
0100
0001
1000
0100
0010
0100
0001
0010
0000
0000
0001
1000
0001
1000
0100
0001
1000
0010
0001
0111
0001
0010
0001
0100
0001
0001
1000
0100
0001
0010
0100
0001
0010
0100
1000
0100
0010
0001
0100
0010
1000
0100
,
1000
0100
0010
0001
0010
0100
0001
0010
1000
0010
0001
0100
0010
0001
0100
0001
1000
0001
0010
1000
0001
0100
1000
0010
1000
0100
1000
0010
1000
0100
1000
0001
1000
0001
0100
0010
0100
0010
0001
0100
0010
1000
0001
0010
0100
1000
0001
0010
0100
1000
0100
0010
0001
0010
1000
0100
0001
0010
1000
0010
0001
1000
1000
0100
,
0010
0001
0010
0100
0010
0100
1000
0100
0001
1000
0001
1000
0010
1000
0100
1000
0001
0100
0001
0010
0001
0100
0001
0010
0001
0010
0100
0010
0100
1000
0001
0010
0100
0010
0100
0001
1000
0001
0010
0100
0010
0001
1000
0010
0001
0100
0001
0010
1000
0001
1000
0001
0010
0100
1000
0010
1000
0100
1000
0100
0010
1000
0001
1000
,
0100
0001
0010
1000
0100
1000
0001
1000
0010
1000
0010
0100
0010
0100
0001
0010
1000
0010
0100
0001
1000
0100
0010
0100
1000
1000
0100
0001
1000
0100
0001
0010
0100
1000
0001
0100
0001
1000
0010
1000
0100
1000
0010
0001
0100
0010
0100
0010
0001
1000
0001
0100
0001
0100
0001
1000
0001
0100
1000
0001
0010
1000
0001
0010
,
1000
0100
0001
1000
0100
0001
0100
1000
0001
0100
0001
0100
0001
0100
0010
1000
0010
1000
0010
0100
1000
0100
0001
0010
1000
0010
0001
0100
1000
0010
0100
0010
0001
0010
1000
0100
0010
0100
0010
0001
1000
0001
0010
0100
0001
0010
1000
0100
0010
0100
0010
0100
0010
1000
0100
0001
1000
0010
0001
1000
0001
0010
0100
1000
,
0010
0001
0100
1000
0100
1000
0100
0010
0001
0100
1000
0100
0001
1000
0001
0010
0100
1000
0100
0001
0010
1000
0100
0010
0100
0001
1000
0001
0010
0001
0100
1000
0010
0100
1000
0100
0001
0010
0001
1000
0001
1000
0100
0010
0001
0010
0100
1000
0010
0001
0100
1000
0100
0001
0010
1000
0010
1000
0010
0001
1000
0100
1000
0001
,
0100
0010
0100
1000
0001
0010
0001
0100
0010
1000
0100
1000
0001
0100
1000
0100
0010
1000
0100
1000
0100
1000
0100
1000
0100
0001
0010
1000
0100
0010
1000
0100
0010
0100
0010
0001
0010
0100
1000
0001
0010
1000
0010
1000
0010
1000
0100
0010
0100
0001
0010
0100
0010
0001
0100
0001
0010
0001
0010
0100
1000
0001
0010
1000
,
0001
0100
0001
0010
0100
0010
1000
0100
0010
0100
0001
1000
0100
0010
1000
0010
0001
0100
0001
0010
0001
1000
0100
0010
0001
0010
0001
1000
0001
0100
0001
0100
1000
0001
0100
0010
0001
0100
0001
0010
1000
0100
1000
0010
1000
0100
0001
0100
0010
0001
1000
0100
0010
1000
0100
1000
0010
0100
0001
0010
0100
0010
1000
0100
,
0001
1000
0010
0100
0001
0010
1000
0100
0010
0100
0001
1000
0100
0001
1000
0001
0010
0100
0010
0001
1000
0010
0100
1000
0010
0001
0100
0010
1000
0010
0001
1000
0100
0001
0100
0010
0100
0010
0100
0001
1000
0100
1000
0010
0100
0001
0010
0100
1000
0100
1000
0100
0001
0010
1000
0001
0100
1000
0010
0001
0010
0100
0001
1000
,
0010
0100
0001
1000
0100
0001
0010
1000
0010
0100
0001
0010
0100
0001
0010
0100
1000
0010
1000
0010
0001
0100
1000
0100
0001
0100
1000
0100
0010
0100
0010
1000
0001
0100
0010
0001
1000
0100
0001
0010
0001
0010
1000
0010
0001
0100
0010
0001
0010
0001
0100
0010
0100
0001
0010
0100
1000
0100
1000
0010
0100
0010
0001
1000
,
0100
1000
0001
0010
1000
0100
0010
0100
0001
0010
1000
0001
0100
1000
0100
1000
0001
0010
1000
0001
1000
0100
0010
0100
0001
1000
0100
1000
0010
0001
0100
1000
0100
0100
0010
1000
0010
0001
1000
0001
1000
0001
0010
0100
0001
0010
0100
1000
0010
0001
1000
0100
0001
0100
0010
1000
0001
0010
1000
0001
1000
0100
0010
0100
,
0001
0010
0100
0010
1000
0010
0100
1000
0010
0100
0001
1000
0100
0001
0010
0001
1000
0010
0001
0100
1000
0010
0100
0010
0001
1000
0010
0100
1000
0100
1000
0100
0001
0010
0001
1000
0010
0001
0010
1000
0100
0001
1000
0001
0100
0010
1000
0001
0100
1000
0100
0010
1000
0100
0001
0010
0001
0010
0001
0010
0001
0100
1000
0010
,
1000
0100
0010
0100
1000
0010
1000
0010
0001
0010
0001
0100
0010
0100
0010
0100
0010
0100
0001
1000
0001
0010
0100
1000
0100
0001
0010
1000
0100
0010
0001
1000
0100
0001
0010
1000
0010
0100
1000
0001
0010
1000
0001
0100
0010
0001
0010
0100
0010
1000
0001
0100
0010
0100
0001
0100
1000
0100
1000
0010
0001
0100
1000
0010
,
0100
0001
0010
0001
0100
0010
0001
1000
0001
0010
0100
0010
1000
0010
1000
0100
0010
1000
0010
0001
0010
0100
1000
0010
0100
0001
1000
0001
0010
0100
0001
1000
0001
0100
1000
0010
1000
0001
0010
1000
0100
0001
0010
0001
0100
0010
0100
0010
1000
0001
1000
0010
0100
1000
0010
0100
1000
0010
1000
0100
1000
0100
0001
1000
,
0100
1000
0100
0001
0010
1000
1000
1110
0001
1000
0001
0010
0001
0010
0100
1000
0010
0001
1000
0010
0100
0001
1000
0010
1000
0010
0100
0001
0010
1000
0010
1000
0001
1000
0100
0010
1000
0010
1000
0100
0001
0010
1000
0001
0010
1000
0010
0001
1000
0001
0100
1000
0001
0010
1000
0010
0100
1000
0001
1000
0001
1000
0100
0010
,
0100
0010
1000
0010
0001
0010
0100
0001
1000
0001
0010
1000
0001
0010
0001
0010
0100
1000
0010
0100
0001
0010
0100
0001
0010
1000
0100
1000
0001
0010
0100
1000
0001
0010
0100
0001
0010
1000
0100
0001
0100
1000
0100
0010
0001
0010
1000
0100
0001
0100
0010
0100
0010
0001
0100
1000
0100
1000
0010
1000
0010
0100
1000
0100
,
1000
0010
1000
0010
0001
1000
0100
0010
0100
0010
0100
1000
0100
0010
0001
0100
0010
0100
1000
0100
1000
0010
0100
0001
0010
0100
0001
0100
0010
0001
1000
0100
1000
0100
0001
0010
1000
0001
0010
1000
0100
0001
1000
0100
1000
0001
0010
0100
1000
0010
0001
0010
0001
1000
0100
1000
0100
0010
0001
0100
0001
1000
0001
0010
,
0100
1000
0100
0001
0010
1000
0100
0010
0001
1000
0100
0010
0001
1000
0100
0010
0100
1000
0100
1000
0010
1000
0100
0010
1000
0100
0001
1000
0001
0100
0010
1000
0100
1000
0001
1000
0100
0010
1000
0100
0010
0100
0001
0010
0001
1000
0100
0001
1000
0001
0010
1000
0001
0010
0001
1000
1111
0000
0000
0000
1000
0000
0000
0000
,
0100
0010
0100
0001
0010
0100
0001
0010
1000
0100
1000
0100
1000
0001
0010
1000
,
0001
1000
0100
0010
0100
1000
0001
0100
0010
0100
0001
1000
0100
0001
0010
0100
,
0001
0100
0010
0001
1000
0001
0010
0001
0010
0100
0001
0010
1000
0001
0010
0001
,
0010
1000
0100
1000
0010
1000
0010
0100
1000
0001
0010
0100
1000
0001
0010
0001
,
0100
0010
0001
0010
0100
0010
0100
1000
0001
0100
0001
1000
0010
0001
1000
0100
,
0001
1000
0001
1000
0100
0001
0010
1000
0100
0010
0001
1000
0100
1000
0001
0100
,
0010
0001
1000
0001
0010
0001
1000
0001
0010
1000
0001
1000
0100
0010
0100
1000
,
0010
0100
0001
1000
0010
0100
1000
0100
1111
0000
0000
0000
0000
0000
0000
0000
;
