#TITLE:Dancing Queen;
#SUBTITLE:;
#ARTIST:A*Teens;
#TITLETRANSLIT:;
#SUBTITLETRANSLIT:;
#ARTISTTRANSLIT:;
#CREDIT:;
#BANNER:Dancing Queen.png;
#BACKGROUND:Dancing Queen_bg.png;
#LYRICSPATH:;
#CDTITLE:sheepdude.png;
#MUSIC:Dancing Queen.mp3;
#OFFSET:-1.540;
#SAMPLESTART:60.000;
#SAMPLELENGTH:12.000;
#SELECTABLE:YES;
#BPMS:0.000=104.920;
#STOPS:;
#BGCHANGES:;
// cache tags:
#FIRSTBEAT:2.750;
#LASTBEAT:389.000;
#SONGFILENAME:Songs/IzzySM Keyboard Mega Pack/Dancing Queen/Dancing Queen.sm;
#HASMUSIC:1;
#HASBANNER:1;
#MUSICLENGTH:233.565;
// end cache tags

//---------------dance-single - ----------------
#NOTES:
     dance-single:
     :
     Hard:
     12:
     0.832,0.916,0.732,0.013,0.963,1186.000,171.000,3.000,0.000,0.000:  // measure 1
0000
0000
0000
0000
0000
0000
0000
0000
0000
0000
0000
0000
0000
0000
0000
0000
0000
0000
0000
0000
0000
0000
0000
0000
0000
0000
0000
0000
0000
0000
0000
0000
0000
1000
0000
0100
0000
0010
0000
0001
0000
0000
0000
0000
0000
0000
0000
0000
,  // measure 2
1001
0000
0001
0000
0011
0000
1000
0010
0100
0000
0110
0000
1001
0000
0010
0000
,  // measure 3
1001
0000
0010
0000
1100
0000
0100
0000
0011
0001
1000
0000
0100
0000
0100
0000
,  // measure 4
0110
0000
0010
0000
0011
0000
1000
0001
0100
0000
0010
0000
1010
0000
1000
0000
,  // measure 5
1100
0000
0010
0000
0011
0000
1000
0000
1001
0100
0001
0000
1001
0000
0010
0000
,  // measure 6
1001
0000
1000
0000
1100
0000
0001
0100
0010
0000
0110
0000
1001
0000
0100
0000
,  // measure 7
1001
0000
0100
0000
0011
0000
0010
0000
1100
1000
0001
0000
0010
0000
0010
0000
,  // measure 8
0110
0000
0100
0000
1100
0000
0001
1000
0010
0000
0100
0000
0101
0000
0001
0000
,  // measure 9
0011
0000
0100
0000
1100
0000
0001
0000
1001
0010
1000
0000
1001
0000
0100
0000
,  // measure 10
1000
0100
1000
0000
0010
0000
0100
0000
0001
0000
0010
0000
0001
0000
0100
0000
,  // measure 11
0010
1000
0010
0000
0100
0000
0010
0000
0100
0000
0001
0000
0010
0000
0001
0000
,  // measure 12
0100
0001
0100
0000
0010
0000
0100
0000
0010
1000
0010
0000
0100
0000
0001
0000
,  // measure 13
0010
0100
1000
0000
1001
0000
0010
0000
1001
0000
0010
0000
0010
0000
0010
0000
,  // measure 14
0001
1000
0001
0000
0010
0000
0100
0010
0100
0000
1001
0000
0010
0000
0110
0000
,  // measure 15
0001
0000
1000
0100
0010
0000
0001
0000
0100
0000
0010
0000
0100
1000
0010
0000
,  // measure 16
0010
1000
0100
0000
0100
1000
0010
0000
0100
0000
0001
0000
1001
0000
1000
0000
,  // measure 17
0011
0000
0100
0000
1100
0000
0010
0000
0110
0000
0001
0000
1000
0100
0000
0010
,  // measure 18
0001
1001
0010
0110
0010
0010
1000
0100
,  // measure 19
0011
0000
1000
0000
0001
0000
0100
0000
0100
1000
0100
0000
0010
0001
0010
0000
,  // measure 20
1001
0000
1000
0001
0010
0000
0100
1000
0001
0000
0100
0000
0010
0000
1000
0000
,  // measure 21
0001
0010
0100
1000
0001
0010
0100
1000
0001
0010
0100
1000
0001
0010
0100
0000
,  // measure 22
1001
0000
0010
1000
0000
0001
0010
0100
1000
0000
0010
0000
0100
0000
0001
0000
,  // measure 23
0010
1000
0000
1000
0100
0010
0000
0010
0001
0100
0000
0100
0010
1000
0110
0000
,  // measure 24
0010
0000
0010
1000
0000
1000
0100
0000
0010
0000
0001
0000
1001
0000
1001
0000
,  // measure 25
0001
0000
0001
1000
0000
1000
0010
0000
1000
0000
0100
0000
1000
0100
1000
0000
,  // measure 26
0011
0000
0000
1100
0000
0000
0101
0000
0010
0000
1000
0000
0001
1000
0001
1000
,  // measure 27
0001
0000
0010
1000
0000
0010
0001
0000
0001
0000
1001
0000
0010
0000
1100
0000
,  // measure 28
0001
0000
0001
0100
0000
0001
0100
0000
0001
0000
0200
0000
0310
0000
0011
0000
,  // measure 29
0001
0010
0100
1000
0001
0010
0100
1000
0001
0010
0100
1000
0100
1000
0100
0000
,  // measure 30
0010
0000
1000
0001
0000
1000
0010
0000
1000
0000
0001
0000
0100
0000
0010
0000
,  // measure 31
1001
0000
0001
0010
0100
0000
1000
0010
0100
0001
0010
0100
1000
0100
0010
0001
,  // measure 32
1001
0000
0010
1000
0000
0001
1000
0001
0010
0100
1000
0001
0100
0010
1000
0001
,  // measure 33
0010
0000
0010
0001
0000
0001
1000
0000
0011
0000
1010
0000
1001
0010
0000
0010
,  // measure 34
1001
0100
0010
0000
1000
0100
0010
0000
0001
0000
0010
0000
1000
0100
0010
0001
,  // measure 35
1000
0000
0100
0001
0000
0100
1000
0000
0110
0000
0010
0000
0110
0000
1000
0100
,  // measure 36
0010
0000
0100
0010
0001
0000
0010
0001
1000
0000
0110
0000
1000
0000
0110
0000
,  // measure 37
1000
0100
0010
0000
0100
0010
0001
0000
0100
0001
0100
0000
0010
1000
0100
0000
,  // measure 38
0110
0000
0001
1000
0010
0000
1000
0100
0010
0001
0100
0010
1000
0100
0010
0000
,  // measure 39
0001
0000
0100
0010
1000
0000
0100
0010
0001
0100
0010
1000
0001
0010
0100
1000
,  // measure 40
0010
1000
0100
0010
0001
0100
0010
1000
0100
0000
0010
0000
0001
0100
0010
1000
,  // measure 41
0100
0010
0001
1000
0010
0100
0001
0010
0100
1000
0010
0100
0001
0000
0010
0000
,  // measure 42
0100
0000
1000
0010
0100
0000
0001
0010
0100
0000
1000
0010
0100
0001
0010
0100
,  // measure 43
1000
0000
0001
1000
0001
0000
1000
0010
1000
0000
1000
0100
0010
0001
0010
0100
,  // measure 44
1000
0100
0010
0001
0010
0100
1000
0010
0100
0001
0010
0100
0010
0010
0001
0010
,  // measure 45
0100
0010
0001
1000
0010
0100
0001
0010
0100
1000
0010
0100
0001
1000
0100
0000
,  // measure 46
1000
0100
0010
0001
1000
0010
0001
0010
1000
0100
0010
0001
0010
1000
0010
0000
,  // measure 47
0001
1000
0010
0100
0001
0010
0100
1000
0010
0100
0001
0010
0100
1000
0010
0000
,  // measure 48
0100
0010
1000
0100
0010
0100
1000
0010
0100
0010
0100
0010
1000
0100
0010
0001
,  // measure 49
1000
0100
0010
0001
0010
0100
1000
0010
0100
0001
0010
0100
1000
0100
0010
0001
,  // measure 50
0010
0100
1000
0010
0100
0001
0010
0100
1000
0100
0010
0001
0010
0100
1000
0000
,  // measure 51
0001
0010
0100
1000
0010
0100
0001
0010
0100
1000
0100
0000
0010
0100
0010
0100
,  // measure 52
1000
0001
0010
0100
0010
0100
1000
0001
0010
0100
0001
0000
0010
0100
1000
0000
,  // measure 53
0010
0100
0001
0010
0100
1000
0010
0100
0001
0010
0100
0000
1000
0001
0100
0001
,  // measure 54
0010
0100
1000
0010
0100
0001
0010
0100
0010
0000
0001
0010
0001
0000
0100
0010
,  // measure 55
0100
0000
0010
0100
0010
0000
0100
1000
0010
1000
0100
0010
0001
1000
0010
0010
,  // measure 56
0100
0000
0001
1000
0010
0000
0010
0100
0001
1000
0110
0000
0110
0000
0001
0000
,  // measure 57
0001
0000
0100
0010
0100
0010
0100
0010
0100
0010
1001
0000
1001
0000
0100
0000
,  // measure 58
0010
0000
1000
0010
0000
1000
0010
0000
1001
0000
0010
0000
1100
0000
0001
0000
,  // measure 59
0001
0010
0100
1000
0001
0010
0100
1000
0001
0010
0100
1000
0001
0010
0100
0000
,  // measure 60
0010
0000
1000
0010
0000
1000
0010
0000
1000
0000
0010
0000
1001
0000
1001
0000
,  // measure 61
0010
0000
1000
0001
0000
1000
0001
0000
0110
0000
1000
0001
0000
1000
0001
0000
,  // measure 62
1001
0000
0001
1000
0000
0001
1000
0000
1001
0000
1001
0000
0010
0000
0110
0000
,  // measure 63
1001
0000
0010
0100
0000
0010
0100
0000
0011
0000
1010
0000
1000
0100
0010
0001
,  // measure 64
1000
0000
1100
0000
0011
0000
0001
0000
0001
0000
0001
0000
0010
1000
0100
0010
,  // measure 65
0001
0000
1100
0010
0000
0010
1100
0000
1001
0000
0010
1001
0000
0010
1001
0000
,  // measure 66
0001
0010
1000
0100
1000
0010
0001
0100
,  // measure 67
1000
0100
0010
0000
0100
0010
0001
0000
0010
0001
1000
0000
0001
1000
0100
0000
,  // measure 68
0110
0000
0000
0000
0000
0000
1000
0000
0000
0010
0000
0000
0100
0000
0000
0000
0000
0000
1000
0000
0000
0100
0000
0000
0010
0000
0000
0001
0000
0000
1000
0000
0000
0010
0000
0000
0100
0000
0001
0000
0100
0000
0001
0000
0000
0000
0000
0000
,  // measure 69
0110
0000
0000
0000
0000
0000
1000
0000
0000
0100
0000
0000
1000
0000
0000
0000
0000
0000
0001
0000
0000
0010
0000
0000
0001
0000
0000
1000
0000
0000
0001
0000
0000
0010
0000
0000
0100
0000
0010
0000
0100
0000
0010
0000
0000
0000
0000
0000
,  // measure 70
1001
0000
0000
0000
0000
0000
0010
0000
0000
1000
0000
0000
0100
0000
0000
0000
0000
0000
0010
0000
0000
1000
0000
0000
0100
0000
0000
0010
0000
0000
0001
0000
0000
0100
0000
0000
0010
0000
1000
0000
0010
0000
1000
0000
0000
0000
0000
0000
,  // measure 71
0110
0000
0000
0000
0000
0000
1000
0000
0000
0100
0000
0000
1000
0000
0000
0000
0000
0000
0001
0000
0000
0010
0000
0000
0001
0000
0000
1000
0000
0000
0001
0000
0000
0010
0000
0000
0100
0000
0010
0000
0100
0000
0010
0000
0000
0000
0000
0000
,  // measure 72
1001
0000
0000
0000
0000
0000
0010
0000
0000
1000
0000
0000
0010
0000
0000
0000
0000
0000
0100
0000
0000
0001
0000
0000
0100
0000
0000
0000
0000
0000
0010
0000
0000
1000
0000
0000
0100
0000
0010
0000
0100
0000
0010
0000
0000
0000
0000
0000
,  // measure 73
0011
0000
0000
0000
0000
0000
0100
0000
0000
1000
0000
0000
0010
0000
0000
0000
0000
0000
0100
0000
0000
1000
0000
0000
0001
0000
0000
0000
0000
0000
0001
0000
0000
1000
0000
0000
0001
0000
1000
0000
0001
0000
1000
0000
0000
0000
0000
0000
,  // measure 74
1001
0010
0100
1000
0100
0010
0001
0000
1001
0010
0100
0010
0001
1000
0001
0000
,  // measure 75
1001
0100
0010
0001
1100
0010
0100
0001
1100
0010
0100
0001
1100
0010
0100
0010
,  // measure 76
1001
0100
0010
0001
0010
0100
1000
0001
0110
1000
0001
0100
0010
1000
0010
0100
,  // measure 77
0011
0000
1100
0011
0000
1001
0110
0000
0110
0000
1001
0110
0000
0110
1010
0000
,  // measure 78
1000
0100
0010
0100
1000
0010
1000
0100
0010
0001
0010
0100
1000
0001
0100
0001
,  // measure 79
1000
0100
0010
0100
1000
0001
0100
0001
1001
0001
0100
0010
1001
0100
0010
0100
,  // measure 80
1001
0010
0100
0001
0010
0100
1000
0001
0010
0100
1000
0001
0010
0100
0010
0000
,  // measure 81
0011
0100
1000
0100
0010
0100
1000
0100
0010
0100
1000
0010
0100
0001
0100
0000
,  // measure 82
1001
0001
0000
0001
1001
0000
0010
0110
0000
0010
1001
0000
1001
0000
0110
0000
,  // measure 83
0010
0001
0010
0100
1000
0100
1000
0010
0100
0001
0010
1000
0010
0001
0100
0010
,  // measure 84
1000
0100
0010
0100
1000
0010
0100
0001
1000
0000
0000
1001
1001
0000
0000
0110
,  // measure 85
0110
0000
0000
1001
1001
0000
0100
0000
1000
0000
0110
0000
1000
0000
0110
0000
,  // measure 86
1000
0010
0100
0010
1000
0100
1000
0010
0100
0001
0010
0001
0100
0010
1000
0010
,  // measure 87
1000
0001
0100
0001
1000
0001
0010
0001
1000
0001
0010
0100
0010
0001
1000
0001
,  // measure 88
0100
0001
0010
0100
1000
0001
0010
0100
0010
0001
1000
0110
0011
0000
0001
0110
,  // measure 89
1001
0000
1000
0110
0011
0000
0000
0010
1000
0100
0010
0001
1000
0100
0010
0001
,  // measure 90
1001
0010
0100
0001
0110
1000
0010
0100
1001
0010
0100
1000
0011
0100
0010
0100
,  // measure 91
1001
0010
0100
1000
0011
0100
0010
1000
0011
0100
0001
0100
0101
1000
0001
0100
,  // measure 92
1001
0010
0100
0010
1001
0010
0100
0001
1000
0000
0010
1001
1001
0000
0100
1001
,  // measure 93
1001
0000
0001
0110
0110
0000
0000
1000
0100
1000
0100
1000
0100
1000
0100
1000
,  // measure 94
1100
0001
1000
0100
1010
0001
0100
0010
1100
0001
1000
0001
1001
0010
1000
0100
,  // measure 95
0011
0100
0001
0010
1001
0100
1000
0001
1010
0001
0010
0001
0110
0001
0100
0001
,  // measure 96
0110
0100
1000
0001
1100
0010
1000
0100
0110
0100
1000
1001
1001
0001
0100
0110
,  // measure 97
0110
0001
0010
1001
1001
0001
0100
0010
1010
0001
0100
0010
1100
1010
0011
0101
,  // measure 98
2002
3003
0000
0000
;

//---------------dance-single - ----------------
#NOTES:
     dance-single:
     :
     Challenge:
     13:
     0.896,1.000,0.407,0.013,1.000,1367.000,95.000,3.000,0.000,0.000:  // measure 1
0000
0000
0000
0000
0000
0000
0000
0000
0000
0000
0000
0000
0000
0000
0000
0000
0000
0000
0000
0000
0000
0000
0000
0000
0000
0000
0000
0000
0000
0000
0000
0000
0000
1000
0000
0100
0000
0010
0000
0001
0000
0000
0000
0000
0000
0000
0000
0000
,  // measure 2
1001
0000
0001
0000
0011
0000
1000
0010
0100
0000
0110
0000
1001
0000
0010
0000
,  // measure 3
1001
0000
0010
0000
1100
0000
0100
0000
0011
0001
1000
0000
0100
0000
0100
0000
,  // measure 4
0110
0000
0010
0000
0011
0000
1000
0001
0100
0000
0010
0000
1010
0000
1000
0000
,  // measure 5
1100
0000
0010
0000
0011
0000
1000
0000
1001
0100
0001
0000
1001
0000
0010
0000
,  // measure 6
1001
0000
1000
0000
1100
0000
0001
0100
0010
0000
0110
0000
1001
0000
0100
0000
,  // measure 7
1001
0000
0100
0000
0011
0000
0010
0000
1100
1000
0001
0000
0010
0000
0010
0000
,  // measure 8
0110
0000
0100
0000
1100
0000
0001
1000
0010
0000
0100
0000
0101
0000
0001
0000
,  // measure 9
0011
0000
0100
0000
1100
0000
0001
0000
1001
0010
1000
0000
1001
0000
0100
0000
,  // measure 10
1000
0100
1000
0000
0010
0000
0100
0000
0001
0000
0010
0000
0001
0000
0100
0000
,  // measure 11
0010
1000
0010
0000
0100
0000
0010
0000
0100
0000
0001
0000
0010
0000
0001
0000
,  // measure 12
0100
0001
0100
0000
0010
0000
0100
0000
0010
1000
0010
0000
0100
0000
0001
0000
,  // measure 13
0010
0100
1000
0000
1001
0000
0010
0000
1001
0000
0010
0000
0010
0000
0010
0000
,  // measure 14
0001
1000
0001
0000
0010
0000
0100
0010
0100
0000
1001
0000
0010
0000
0110
0000
,  // measure 15
0001
0000
1000
0100
0010
0000
0001
0000
0100
0000
0010
0000
0100
1000
0010
0000
,  // measure 16
0010
1000
0100
0000
0100
1000
0010
0000
0100
0000
0001
0000
1001
0000
1000
0000
,  // measure 17
0011
0000
0100
0000
1100
0000
0010
0000
0110
0000
0001
0000
1000
0100
0000
0010
,  // measure 18
0001
1001
0010
0110
0010
0010
1000
0100
,  // measure 19
0011
0000
1000
0000
0001
0000
0100
0000
0100
1000
0100
0000
0010
0001
0010
0000
,  // measure 20
1001
0000
1000
0001
0010
0000
0100
1000
0001
0000
0100
0000
0010
0000
1000
0000
,  // measure 21
0001
0010
0100
1000
0001
0010
0100
1000
0001
0010
0100
1000
0001
0010
0100
0000
,  // measure 22
1001
0000
0010
1000
0000
0001
0010
0100
1000
0000
0010
0000
0100
0000
0001
0000
,  // measure 23
0010
1000
0000
1000
0100
0010
0000
0010
0001
0100
0000
0100
0010
1000
0110
0000
,  // measure 24
0010
0000
0010
1000
0000
1000
0100
0000
0010
0000
0001
0000
1001
0000
1001
0000
,  // measure 25
0001
0000
0001
1000
0000
1000
0010
0000
1000
0000
0100
0000
1000
0100
1000
0000
,  // measure 26
0011
0000
0000
1100
0000
0000
0101
0000
0010
0000
1000
0000
0001
1000
0001
1000
,  // measure 27
0001
0000
0010
1000
0000
0010
0001
0000
0001
0000
1001
0000
0010
0000
1100
0000
,  // measure 28
0001
0000
0001
0100
0000
0001
0100
0000
0001
0000
0200
0000
0310
0000
0011
0000
,  // measure 29
0001
0010
0100
1000
0001
0010
0100
1000
0001
0010
0100
1000
0100
1000
0100
0000
,  // measure 30
0010
0000
1000
0001
0000
1000
0010
0000
1000
0000
0001
0000
0100
0000
0010
0000
,  // measure 31
1001
0000
0001
0010
0100
0000
1000
0010
0100
0001
0010
0100
1000
0100
0010
0001
,  // measure 32
1001
0000
0010
1000
0000
0001
1000
0001
0010
0100
1000
0001
0100
0010
1000
0001
,  // measure 33
0010
0000
0010
0001
0000
0001
1000
0000
0011
0000
1010
0000
1001
0010
0000
0010
,  // measure 34
1001
0100
0010
0000
1000
0100
0010
0000
0001
0000
0010
0000
1000
0100
0010
0001
,  // measure 35
1000
0000
0100
0001
0000
0100
1000
0000
0110
0000
0010
0000
0110
0000
1000
0100
,  // measure 36
0010
0000
0100
0010
0001
0000
0010
0001
1000
0000
0110
0000
1000
0000
0110
0000
,  // measure 37
1000
0100
0010
0000
0100
0010
0001
0000
0100
0001
0100
0000
0010
1000
0100
0000
,  // measure 38
0110
0000
0001
1000
0010
0000
1000
0100
0010
0001
0100
0010
1000
0100
0010
0000
,  // measure 39
0001
0000
0100
0010
1000
0000
0100
0010
0001
0100
0010
1000
0001
0010
0100
1000
,  // measure 40
0010
1000
0100
0010
0001
0100
0010
1000
0100
0000
0010
0000
0001
0100
0010
1000
,  // measure 41
0100
0010
0001
1000
0010
0100
0001
0010
0100
1000
0010
0100
0001
0000
0010
0000
,  // measure 42
0100
0000
1000
0010
0100
0000
0001
0010
0100
0000
1000
0010
0100
0001
0010
0100
,  // measure 43
1000
0000
0001
1000
0001
0000
1000
0010
1000
0000
1000
0100
0010
0001
0010
0100
,  // measure 44
1000
0100
0010
0001
0010
0100
1000
0010
0100
0001
0010
0100
0010
0010
0001
0010
,  // measure 45
0100
0010
0001
1000
0010
0100
0001
0010
0100
1000
0010
0100
0001
1000
0100
0000
,  // measure 46
1000
0100
0010
0001
1000
0010
0001
0010
1000
0100
0010
0001
0010
1000
0010
0000
,  // measure 47
0001
1000
0010
0100
0001
0010
0100
1000
0010
0100
0001
0010
0100
1000
0010
0000
,  // measure 48
0100
0010
1000
0100
0010
0100
1000
0010
0100
0010
0100
0010
1000
0100
0010
0001
,  // measure 49
1000
0100
0010
0001
0010
0100
1000
0010
0100
0001
0010
0100
1000
0100
0010
0001
,  // measure 50
0010
0100
1000
0010
0100
0001
0010
0100
1000
0100
0010
0001
0010
0100
1000
0000
,  // measure 51
0001
0010
0100
1000
0010
0100
0001
0010
0100
1000
0100
0000
0010
0100
0010
0100
,  // measure 52
1000
0001
0010
0100
0010
0100
1000
0001
0010
0100
0001
0000
0010
0100
1000
0000
,  // measure 53
0010
0100
0001
0010
0100
1000
0010
0100
0001
0010
0100
0000
1000
0001
0100
0001
,  // measure 54
0010
0100
1000
0010
0100
0001
0010
0100
0010
0000
0001
0010
0001
0000
0100
0010
,  // measure 55
0100
0000
0010
0100
0010
0000
0100
1000
0010
1000
0100
0010
0001
1000
0010
0010
,  // measure 56
0100
0000
0001
1000
0010
0000
0010
0100
0001
1000
0110
0000
0110
0000
0001
0000
,  // measure 57
0001
0000
0100
0010
0100
0010
0100
0010
0100
0010
1001
0000
1001
0000
0100
0000
,  // measure 58
0010
0000
1000
0010
0000
1000
0010
0000
1001
0000
0010
0000
1100
0000
0001
0000
,  // measure 59
0001
0010
0100
1000
0001
0010
0100
1000
0001
0010
0100
1000
0001
0010
0100
0000
,  // measure 60
0010
0000
1000
0010
0000
1000
0010
0000
1000
0000
0010
0000
1001
0000
1001
0000
,  // measure 61
0010
0000
1000
0001
0000
1000
0001
0000
0110
0000
1000
0001
0000
1000
0001
0000
,  // measure 62
1001
0000
0001
1000
0000
0001
1000
0000
1001
0000
1001
0000
0010
0000
0110
0000
,  // measure 63
1001
0000
0010
0100
0000
0010
0100
0000
0011
0000
1010
0000
1000
0100
0010
0001
,  // measure 64
1000
0000
1100
0000
0011
0000
0001
0000
0001
0000
0001
0000
0010
1000
0100
0010
,  // measure 65
0001
0000
1100
0010
0000
0010
1100
0000
1001
0000
0010
1001
0000
0010
1001
0000
,  // measure 66
0001
0010
1000
0100
1000
0010
0001
0100
,  // measure 67
1000
0100
0010
0000
0100
0010
0001
0000
0010
0001
1000
0000
0001
1000
0100
0000
,  // measure 68
0110
0000
0000
0000
0000
0000
1000
0000
0000
0010
0000
0000
0100
0000
0000
0000
0000
0000
1000
0000
0000
0100
0000
0000
0010
0000
0000
0001
0000
0000
1000
0000
0000
0010
0000
0000
0100
0000
0001
0000
0100
0000
0001
0000
0000
0000
0000
0000
,  // measure 69
0110
0000
0000
0000
0000
0000
1000
0000
0000
0100
0000
0000
1000
0000
0000
0000
0000
0000
0001
0000
0000
0010
0000
0000
0001
0000
0000
1000
0000
0000
0001
0000
0000
0010
0000
0000
0100
0000
0010
0000
0100
0000
0010
0000
0000
0000
0000
0000
,  // measure 70
1001
0000
0000
0000
0000
0000
0010
0000
0000
1000
0000
0000
0100
0000
0000
0000
0000
0000
0010
0000
0000
1000
0000
0000
0100
0000
0000
0010
0000
0000
0001
0000
0000
0100
0000
0000
0010
0000
1000
0000
0010
0000
1000
0000
0000
0000
0000
0000
,  // measure 71
0110
0000
0000
0000
0000
0000
1000
0000
0000
0100
0000
0000
1000
0000
0000
0000
0000
0000
0001
0000
0000
0010
0000
0000
0001
0000
0000
1000
0000
0000
0001
0000
0000
0010
0000
0000
0100
0000
0010
0000
0100
0000
0010
0000
0000
0000
0000
0000
,  // measure 72
1001
0000
0000
0000
0000
0000
0010
0000
0000
1000
0000
0000
0010
0000
0000
0000
0000
0000
0100
0000
0000
0001
0000
0000
0100
0000
0000
0000
0000
0000
0010
0000
0000
1000
0000
0000
0100
0000
0010
0000
0100
0000
0010
0000
0000
0000
0000
0000
,  // measure 73
0011
0000
0000
0000
0000
0000
0100
0000
0000
1000
0000
0000
0010
0000
0000
0000
0000
0000
0100
0000
0000
1000
0000
0000
0001
0000
0000
0000
0000
0000
0001
0000
0000
1000
0000
0000
0001
0000
1000
0000
0001
0000
1000
0000
0000
0000
0000
0000
,  // measure 74
1001
0010
0100
1000
0100
0010
0001
0000
1001
0010
0100
0010
0001
1000
0001
0000
,  // measure 75
1000
0001
1000
0001
1000
0001
1000
0000
0000
1001
0000
0000
1000
0001
1000
0001
1000
0001
1000
0000
0000
1001
0000
0000
,  // measure 76
1000
0001
0100
0010
1000
0001
0100
0010
1000
0001
0100
0010
1000
0001
0100
0010
1000
0001
0100
0010
1000
0001
0000
0000
,  // measure 77
0001
0010
0100
1000
0010
0100
0001
0010
0100
1000
0010
0100
0001
0010
0100
1000
0010
0100
0001
0010
0100
1000
0000
0000
,  // measure 78
1000
0100
1000
0001
0010
0001
1000
0010
1000
0100
1000
0001
1000
0100
0010
0001
0010
0100
1000
0100
0010
0001
0000
0000
,  // measure 79
1000
0100
0010
0001
0010
0100
1000
0100
0010
0001
0010
0001
0010
0100
1000
0100
0010
0100
1000
0100
0010
0001
0000
0000
,  // measure 80
1000
0001
1000
0100
0010
0001
1000
0001
1000
0100
0010
0001
1000
0001
1000
0100
0010
0001
1000
0100
1000
0010
0000
0000
,  // measure 81
0001
1000
0001
0100
0001
0010
0100
1000
0100
0010
0001
0010
0100
1000
0001
1000
0100
0010
0001
1000
0001
0010
0000
0000
,  // measure 82
0010
1000
0100
0010
0001
0010
0100
1000
0001
1000
0100
0010
0001
0100
0010
1000
0100
0010
0001
0100
0010
1000
0100
0010
,  // measure 83
0001
0010
0100
1000
0010
1000
0100
0010
0001
1000
0001
0010
0100
1000
0001
1000
0100
0010
0001
0100
0001
0010
0100
1000
,  // measure 84
0100
0010
0001
0010
0100
0010
0001
0100
0010
0100
0001
0010
0100
0010
0001
0100
0010
0100
0001
0010
0100
1000
0100
0010
,  // measure 85
0100
1000
0010
0100
0010
1000
0100
0010
0100
1000
0010
0100
0001
0010
0100
1000
0100
0010
0001
0000
0000
0000
0000
0000
,  // measure 86
1000
0001
1000
0100
0010
0001
1000
0010
1000
0100
0010
0001
1000
0010
1000
0100
0010
0001
1000
0100
1000
0010
0000
0000
,  // measure 87
0001
1000
0001
0100
0001
0010
0100
1000
0100
0010
0001
0010
0100
1000
0001
1000
0100
0010
0001
1000
0001
0010
0000
0000
,  // measure 88
0010
1000
0100
0010
0001
0010
0100
1000
0001
1000
0100
0010
0001
0100
0010
1000
0100
0010
0001
0100
0010
1000
0100
0010
,  // measure 89
0001
0010
0100
1000
0010
1000
0100
0010
0001
1000
0001
0010
0100
1000
0001
1000
0100
0010
0100
0000
0000
0000
0000
0000
,  // measure 90
0100
0010
0001
0010
0100
0010
0001
0100
0010
0100
0001
0010
0100
0010
0001
0100
0010
0100
0001
0010
0100
1000
0100
0010
,  // measure 91
0100
1000
0010
0100
0010
1000
0100
0010
0100
1000
0010
0100
0001
0010
0100
1000
0100
0010
0001
1000
0001
0100
0001
0010
,  // measure 92
0100
1000
0100
0010
0001
0010
0100
1000
0001
1000
0100
0010
0001
1000
0001
1000
0100
0010
0001
0010
0100
1000
0001
1000
,  // measure 93
0100
0010
0001
0100
0010
1000
0100
0010
0001
0100
0010
1000
0100
0010
0001
0100
0010
1000
0100
1000
0010
0010
0000
0000
,  // measure 94
1000
0001
0100
0001
1000
0001
0100
0010
0100
0001
0100
0010
1000
0100
0010
0001
1000
0100
0010
0001
1000
0001
1000
0100
,  // measure 95
0010
0100
1000
0010
0100
0001
0010
0100
1000
0001
1000
0100
0010
0001
0100
0001
0010
0100
1000
0010
1000
0100
0010
0001
,  // measure 96
1000
0100
1000
0010
0100
0001
0010
0001
0100
0010
1000
0100
1000
0010
0100
0001
1000
0001
0010
0100
1000
0100
0010
0100
,  // measure 97
1000
0010
0100
0001
0010
0100
0010
0001
0010
0100
0010
0001
1000
0100
0010
0001
0010
0100
1000
0100
0010
0001
0000
0000
,  // measure 98
2002
3003
0000
0000
;
