#TITLE:Need You Now;
#SUBTITLE:;
#ARTIST:Plumb;
#TITLETRANSLIT:;
#SUBTITLETRANSLIT:;
#ARTISTTRANSLIT:;
#CREDIT:;
#BANNER:../Banner.png;
#BACKGROUND:../BG.png;
#LYRICSPATH:;
#CDTITLE:../CDTitleBRAEDEN.png;
#MUSIC:Plumb - Need You Now (How Many Times) (Bryan Kearney Remi.ogg;
#OFFSET:0.036;
#SAMPLESTART:45.096;
#SAMPLELENGTH:12.000;
#SELECTABLE:YES;
#BPMS:0.000=141.940,266.000=70.970,322.000=141.940;
#STOPS:;
#BGCHANGES:;
// cache tags:
#FIRSTBEAT:6.000;
#LASTBEAT:642.000;
#SONGFILENAME:Songs/Index Tesseract/Need You Now - [Braeden]/Need You Now.sm;
#HASMUSIC:1;
#HASBANNER:1;
#MUSICLENGTH:297.308;
// end cache tags

//---------------dance-single - ----------------
#NOTES:
     dance-single:
     :
     Challenge:
     14:
     0.936,1.000,0.074,0.168,1.000,1875.000,22.000,50.000,46.000,10.000:

0000
0000
0000
0000
,
0000
0000
0200
0000
,
0000
0000
0000
0000
0310
0000
0000
0000
1000
0000
0001
0100
0001
0000
1000
0010
,
0100
0000
0001
0100
0010
0000
1000
0100
0010
0000
0100
1000
0001
0000
0100
0010
,
0100
0000
0001
1000
0100
0000
0010
0001
0010
0000
0100
1000
0001
0000
0100
0010
,
0100
0000
0001
0100
0010
0000
1000
0100
0010
0000
0100
1000
0001
0000
0100
0010
,
1000
0000
0001
0010
0100
0000
1000
0001
0100
0000
0010
1000
0001
0000
0100
0010
,
1000
0000
0001
0010
0100
0000
1000
0001
0100
0000
0010
1000
0001
0000
0100
0010
,
1000
0000
0001
0010
0100
0000
1000
0001
0100
0000
0010
1000
0010
0000
0100
0001
,
0100
0000
0010
1000
0001
0000
0100
0010
1000
0000
0100
0010
0001
0000
0010
0100
,
1000
0000
0001
0100
0010
0000
1000
0010
0200
0000
0000
0000
0001
0000
0302
0000
,
0000
0000
0010
0023
0000
0000
1030
2000
,
0000
0000
3010
0000
0100
0000
0010
0000
1000
0000
0001
0100
0010
0000
1000
0100
,
1000
0000
0001
0010
0100
0000
1000
0001
0100
0000
0010
1000
0001
0000
0010
0100
,
1000
0000
0001
0100
0010
0000
1000
0010
2000
0000
0000
0000
0010
0000
3020
0000
,
0000
0000
0130
0200
0000
0000
0301
0001
,
0000
0000
0010
0000
0010
0000
0100
0000
1000
0000
0001
0100
0010
0000
1000
0100
,
0010
0000
0100
1000
0001
0000
0100
0010
1000
0000
0001
0010
0100
0000
1000
0001
,
0100
0000
0010
1000
0100
0000
0010
0100
2000
0000
0000
0000
0000
0000
3000
0000
,
2000
0000
0000
0000
3200
0000
0000
0320
,
0000
0000
0000
0000
0031
0000
0000
0000
1000
0000
0001
0100
0010
0000
1000
0100
,
0010
0000
0100
1000
0001
0000
0100
0010
1000
0000
0001
0010
0100
0000
1000
0001
,
0100
0000
0010
1000
0100
0000
0010
0100
2000
0000
0000
0000
0010
0000
3200
0000
,
0000
0000
0301
0200
0000
0000
0310
2000
,
0000
0000
3001
0100
0010
0000
1000
0000
,
0100
0010
0100
1000
,
0001
0000
0100
0100
1001
0000
MMMM
0010
,
MMMM
0010
MMMM
0010
0000
MMMM
0000
0100
,
MMMM
0100
M0MM
0000
0000
0000
0011
0000
,
1000
0000
0001
0010
0200
0000
0300
0000
1000
0000
0100
0010
0002
0000
0003
0000
,
1000
0000
0001
0000
0100
0000
0000
0000
0010
0100
0010
0100
1000
0001
0100
0010
,
1000
0100
0010
0100
1000
0001
0100
0010
1000
0100
0010
0100
1000
0001
0010
0100
,
1000
0001
0100
0010
1000
0100
0010
0100
1000
0001
0010
0100
1000
0001
0010
0001
,
0100
0000
0000
0010
0000
0000
1000
0000
0000
0100
0000
0000
0010
0000
0000
0001
0000
0000
0010
0000
0000
0100
0000
0000
1000
0000
0010
0000
0100
0000
0001
0000
1000
0000
0100
0000
0010
0000
0100
0000
1000
0000
0001
0000
0010
0000
0100
0000
,
1000
0000
0001
0000
0100
0000
0010
0000
1000
0000
0100
0000
0010
0000
0100
0000
1000
0000
0001
0000
0010
0000
0100
0000
1000
0000
0000
0000
0000
0000
0001
0000
0000
0100
0000
0000
0001
0000
0000
0000
0000
0000
0100
0000
0000
0010
0000
0000
,
0000
0010
0100
0000
0001
1000
0010
0100
0001
0000
1000
0100
0000
0000
0010
0001
,
0000
0010
0100
0000
1000
0100
0010
0100
1000
0000
0001
0100
0000
0000
0010
1000
,
0000
0001
0100
0000
0010
1000
0100
1000
0001
0000
0100
0010
0000
0000
1000
0000
,
1100
0000
0010
0001
0100
0000
0010
1000
0010
0000
0100
0001
0000
0100
0010
0000
,
2000
0000
0000
0000
3010
0100
0010
0100
0001
0000
1000
0100
0000
0010
0001
0000
,
2000
0000
0000
0000
3010
0100
0001
0100
0010
0000
1000
0100
0000
0010
0001
0000
,
0000
1001
0000
0000
1000
0100
0010
0100
1000
0000
0001
0100
0000
0010
1000
0000
,
0000
1010
0000
0000
0100
0000
0001
0000
0101
0000
0010
1000
0000
1000
0100
0000
,
0010
0001
0000
0001
0010
0001
0100
0010
1000
0000
0001
0100
0000
0100
0010
0000
,
0010
1000
0000
1000
0100
0010
0100
1000
0001
0000
0100
0010
0000
0100
0010
0000
,
1000
0100
0000
1000
0001
0010
0100
1000
0001
0100
0000
0001
0010
0000
0100
0000
,
1001
0000
0010
0100
0010
0000
1000
0100
0010
0100
0000
0000
1100
0000
1000
0000
,
0000
0010
0000
0000
0100
0001
0100
0010
1000
0100
0000
0010
0001
0000
0010
0001
,
0000
0100
0010
1000
0100
0010
0100
1000
0001
0100
0010
1000
0100
0010
0100
1000
,
0001
0000
0000
0010
0000
0000
0100
0000
0000
1000
0000
0000
0001
0000
0000
0100
0000
0000
0010
0000
0000
0100
0000
0000
0001
0000
0010
0000
0100
0000
1000
0000
0001
0000
0100
0000
0010
0000
1000
0000
0100
0000
0010
0000
0100
0000
1000
0000
,
0001
0000
0010
0000
0100
0000
1000
0000
0001
0000
0100
0000
0010
0000
0100
0000
0010
0000
0100
0000
0001
0000
0100
0000
0010
0000
0000
0100
0000
0000
0001
0000
0000
1000
0000
0000
0100
0000
0000
0010
0000
0000
0100
0000
0000
1000
0000
0000
,
0001
0010
0100
1000
0001
0100
0010
0100
0001
1000
0100
0010
0100
1000
0001
0010
,
0100
1000
0001
0100
0010
0100
0001
1000
0100
0010
0100
1000
0001
0010
0100
1000
,
0001
0100
0010
0100
0010
1000
0100
0010
0100
1000
0001
0100
0010
1000
0100
0010
,
0100
1000
0001
0010
0100
1000
0001
0100
0010
0100
0001
1000
0100
0010
0100
1000
,
0001
0010
0100
1000
0001
0100
0010
1000
0001
0100
0010
1000
0100
0010
0100
1000
,
0001
0010
0100
1000
0001
0100
0010
0100
0001
1000
0100
0010
0100
1000
0001
0010
,
0100
1000
0001
0100
0010
1000
0001
0100
0010
1000
0100
0010
0000
1000
0001
0010
,
0100
0010
0001
0100
0010
0100
0010
1000
0001
0000
0010
0100
1000
0000
0001
0100
,
0010
0000
0100
0010
1000
0000
1000
0010
1000
0000
0100
1000
0100
0000
0010
0001
,
0010
0000
0001
0010
0001
0000
1000
0100
1000
0010
0010
0100
0001
1000
0100
0010
,
0100
1000
0001
0100
0010
1000
0100
0010
0100
1000
0001
0100
0010
0100
0001
1000
,
0100
0010
0001
1000
0010
1000
0001
0100
0001
0010
0001
0010
0100
1000
0100
1000
,
0001
0100
0001
0100
0010
1000
0010
1000
0001
0100
0001
0100
0001
0100
0010
1000
,
0010
1000
0010
1000
0001
0100
0010
1000
0001
0010
0100
1000
0001
0100
0010
1000
,
0100
0000
0000
0010
0000
0000
0100
0000
0000
1000
0000
0000
0001
0000
0000
0100
0000
0000
0010
0000
0000
1000
0000
0000
0010
0000
0100
0000
0001
0000
0100
0000
0010
0000
1000
0000
0100
0000
0010
0000
0100
0000
1000
0000
0001
0000
0010
0000
,
0100
1000
0001
0100
0010
1000
0100
0010
0100
1000
0001
0010
0001
0000
0000
0000
0000
0000
0000
0000
0000
0000
0000
0000
,
0000
M000
00M0
0000
,
0000
0000
00M0
0000
,
0000
0000
1000
0100
0010
0000
0000
0000
,
0002
0000
0000
0000
0003
0000
0000
0000
1001
0010
0100
0010
0000
0100
0010
0100
,
0000
1000
0000
0010
0000
0100
0000
0000
0000
0000
0000
0000
0000
0000
0000
0000
,
0000
0000
0000
0000
0000
0000
0000
0000
1000
0100
0010
0100
0000
1000
0001
0100
,
0000
0010
1000
0010
0000
0100
0000
0000
0000
0000
0000
0000
0000
0000
0000
0000
,
0000
0000
0000
0000
0000
0000
0000
0000
1001
0010
0100
0001
0000
1000
0100
0010
,
0000
0100
0000
1000
0000
0001
0000
0000
2000
0000
0000
0000
3002
0000
0000
0000
,
2003
0000
0000
0000
3002
0000
0000
0000
1003
0001
1000
0001
0000
0100
0010
1000
,
0000
0001
0100
0010
0000
0010
0000
0000
0002
0000
0000
0000
0203
0000
0000
0000
,
0320
0230
0302
2003
,
3020
0230
0302
2003
,
3020
0000
0000
0000
0230
0000
0000
0000
0310
0100
0010
0100
0000
0010
0100
0000
,
0010
0100
0000
0010
0100
0000
0010
0000
1000
0100
1000
0100
0000
1000
0100
0000
,
1000
0100
0000
1000
0100
0000
0010
0000
0001
1000
0001
1000
0000
0001
1000
0000
,
0010
0100
0000
0010
0100
0000
0010
0000
1000
0100
0010
0100
1000
0001
0100
0010
,
0100
0001
1000
0100
0010
0001
0010
0001
0010
0100
0010
0001
0100
0010
1000
0100
,
0010
0100
1000
0001
0100
0010
1000
0100
0010
0100
1000
0001
0010
0100
1000
0001
,
0100
0010
0100
0001
1000
0100
0010
0100
1000
0001
0010
0100
1000
0001
0100
0010
,
0100
0001
1000
0100
0010
0100
1000
0001
0010
0100
1000
0001
0100
0010
0100
0001
,
1000
0100
0010
0100
1000
0001
0010
0100
1000
0001
0100
0010
1000
0100
0010
0100
,
1000
0001
1000
0010
1000
0100
0010
0001
0010
0100
1000
0001
0100
0010
0100
0001
,
0010
0100
0010
0100
0010
0001
0100
0010
1000
0100
0010
0100
1000
0001
0010
0100
,
1000
0001
0100
0010
1000
0001
0010
0100
1000
0010
1000
0001
0100
0010
0100
0001
,
0100
0010
1000
0100
0010
0001
0010
0100
1000
0000
0000
0000
0000
0000
0000
0000
,
0000
0000
0000
0000
0000
0000
0000
0000
0001
0010
0001
1000
0100
1000
0001
0010
,
0001
1000
0100
1000
0001
0010
0100
1000
0100
0010
0001
0100
0001
1000
0010
1000
,
0001
0100
0001
1000
0010
1000
0001
0100
0010
1000
0100
0010
0001
1000
0001
1000
,
0010
1000
0001
0100
0001
1000
0010
1000
0100
0010
0100
1000
0001
0100
0010
0100
,
0001
1000
0100
0010
0100
1000
0001
0010
0100
1000
0001
0100
0010
0100
0001
1000
,
0100
0010
0100
1000
0001
0010
0100
1000
0001
0100
0010
0100
0001
1000
0100
0010
,
0100
1000
0001
0010
0100
1000
0001
0100
0010
0100
0001
1000
0100
0010
0100
1000
,
0001
0000
0000
0010
0000
0000
0100
0000
0000
1000
0000
0000
0010
0000
0100
0000
0001
0000
0100
0000
0010
0000
1000
0000
0100
0000
0000
0010
0000
0000
0001
0000
0000
1000
0000
0000
0100
0000
0000
0010
0000
0000
0100
0000
0000
1000
0000
0000
,
0001
1000
0100
0010
0100
1000
0001
0010
0100
1000
0001
0100
0010
1000
0100
0010
,
0100
1000
0001
0100
0010
1000
0001
0010
0100
1000
0001
0100
0010
0100
0001
0010
,
0100
1000
0001
0100
0010
0100
0001
1000
0100
0010
0100
1000
0001
0010
0100
1000
,
0001
0100
0010
0100
0001
1000
0100
0010
0100
1000
0001
0100
0010
1000
0001
0010
,
0100
1000
0001
0100
0010
1000
0100
0010
0100
1000
0001
0010
0100
1000
0001
0100
,
0010
0000
0000
1000
0000
0000
0100
0000
0000
0010
0000
0000
0100
0000
0000
1000
0000
0000
0001
0000
0000
0100
0000
0000
0001
0000
0010
0000
0100
0000
1000
0000
0001
0000
0100
0000
0010
0000
1000
0000
0100
0000
0010
0000
0100
0000
1000
0000
,
0001
0010
0100
1000
0001
0100
0010
1000
0100
0010
0001
1000
0010
0100
0001
0010
0100
1000
0001
0100
0010
1000
0100
0010
,
0100
0000
1000
0000
0001
0000
0010
0000
0100
0000
1000
0000
0001
0000
0010
0000
0001
0000
0010
0000
0001
0000
0010
0000
0001
0000
0000
1000
0000
0000
0001
0000
0000
1000
0000
0000
0001
0000
0000
1000
0000
0000
0001
0000
0000
1000
0000
0000
,
0001
0010
0100
1000
0001
0100
0010
1000
0100
0010
0100
1000
0001
0100
0010
1000
,
0100
0010
0100
1000
0001
0100
0010
1000
0001
0010
0100
1000
0001
0010
0001
1000
,
0100
0010
0100
1000
0001
0100
0010
1000
0001
0010
0100
1000
0001
0100
0010
0100
,
0001
1000
0100
0010
0100
1000
0001
0010
0100
1000
0001
0100
0010
1000
0100
0010
,
0100
1000
0001
0010
0100
1000
0001
0100
0010
1000
0100
0010
0100
1000
0001
0100
,
0010
1000
0001
0010
0100
0010
0001
0100
0010
1000
0001
0010
0100
1000
0001
0100
,
0010
1000
0100
0010
0100
1000
0001
0010
0100
0010
0001
0100
0010
1000
0100
0010
,
0001
0100
0010
1000
0001
0100
0010
1000
0100
0010
0100
1000
0001
0010
0100
1000
,
0001
0100
0010
1000
0100
0010
0100
1000
0001
0010
0100
1000
0001
0100
0010
0100
,
0001
0100
0010
1000
0001
0010
0100
1000
0001
0100
0010
0100
0001
1000
0100
0010
,
0100
1000
0001
0010
0100
1000
0001
0100
0010
0100
0001
1000
0100
0010
0100
1000
,
0001
0100
0010
1000
0001
0010
0100
1000
0001
0100
0010
1000
0001
0010
0100
1000
,
0001
0100
0010
0100
0001
1000
0100
0010
0001
0010
0100
1000
0001
0100
0010
1000
,
0001
0010
0001
1000
0100
1000
0001
0010
0001
1000
0010
0100
0001
1000
0001
0010
,
0100
0010
0001
0100
0010
1000
0001
0010
0100
1000
0001
0100
0010
0100
0001
1000
,
0100
0010
0100
1000
0001
0010
0100
1000
0001
0100
0010
0100
0001
1000
0010
0100
,
0010
1000
0010
0100
0001
0100
0010
1000
0100
0010
0100
1000
0001
0010
0100
1000
,
0001
0100
0010
0100
0001
1000
0100
0010
0100
1000
0001
0010
0100
1000
0001
0100
,
0010
0100
0001
1000
0100
0010
0100
1000
0001
0010
0100
1000
0001
0100
0010
0100
,
0001
1000
0010
0100
0001
0100
0010
0100
0001
1000
0100
1000
0100
0010
0100
0010
,
0100
0010
0001
0100
0010
1000
0100
0010
0100
1000
0001
0010
0100
1000
0001
0100
,
0010
1000
0100
0010
0100
1000
0001
0010
0100
1000
0001
0100
0010
1000
0100
0010
,
0100
0000
0000
1000
0000
0000
0001
0000
0000
0010
0000
0000
0100
0000
0000
1000
0000
0000
0001
0000
0000
0100
0000
0000
0010
0000
1000
0000
0001
0000
0010
0000
0100
0000
1000
0000
0001
0000
0100
0000
0010
0000
1000
0000
0100
0000
0010
0000
,
0100
1000
0001
0010
0100
1000
0002
0000
0000
0000
0000
0000
0103
0000
0000
0010
0000
0000
1000
0000
0000
0010
0000
0000
,
MMMM
0010
1000
0010
MMMM
1000
0MM0
1000
,
0MM0
0001
0000
0000
2000
0000
0000
0000
,
0200
0000
0020
0000
,
3331
0000
0000
0000
0001
0100
0010
0100
,
M0MM
0100
0010
0100
M0MM
0100
0010
1000
,
0000
0001
0000
0000
0002
0000
0000
0000
,
0200
0000
2000
0000
,
3313
0000
0002
0000
,
0200
0000
0020
0000
,
1333
0000
2000
0000
,
0200
0000
0020
0000
,
0000
0000
0001
0001
3331
0000
0000
0000
,
1000
0001
0100
0010
1000
0100
0010
0100
1000
0001
0010
0100
1000
0001
0100
0010
,
0100
0001
1000
0100
0010
0100
1000
0001
0100
0010
1000
0100
0010
0100
1000
0001
,
0100
0001
0010
0100
1000
0001
0100
0010
1000
0100
0010
0100
1000
0001
0100
0010
,
1000
0100
0010
0100
1000
0001
0100
0010
1000
0100
0010
0001
1000
0010
0100
0001
,
1000
0100
0010
0100
1000
0001
0010
0100
1000
0001
0100
0010
1000
0100
0010
0100
,
1000
0001
0010
0100
1000
0001
0100
0010
0100
0001
1000
0100
0010
0100
1000
0001
,
0100
0010
1000
0100
0010
0100
1000
0001
0010
0100
1000
0001
0100
0010
1000
0100
,
0010
0100
1000
0001
0100
0010
1000
0001
1000
0000
0000
0000
1010
0000
0000
0000
,
0110
0011
0101
1010
,
1100
0000
0110
0000
0011
0000
0001
1000
,
1010
0110
0101
1001
,
1000
0010
1000
0010
1000
0010
1000
0010
1000
0010
1000
0010
1000
0010
1000
0010
,
0100
0001
0100
0001
0100
0001
0100
0001
0100
0001
0100
0001
0100
0001
0100
0001
,
1000
0001
1000
0001
1000
0001
1000
0001
1000
0001
1000
0001
1000
0001
1000
0001
,
0100
0010
0100
0010
0100
0010
0100
0010
0100
0010
0100
0010
0100
0010
0100
0010
,
1000
0010
0MM0
0000
;
