#TITLE:Orochimaru ~Fight~;
#SUBTITLE:;
#ARTIST:Unknown artist;
#TITLETRANSLIT:;
#SUBTITLETRANSLIT:;
#ARTISTTRANSLIT:;
#CREDIT:;
#BANNER:You-Are-A-Pirate-bn.jpg;
#BACKGROUND:You-Are-A-Pirate-bg.jpg;
#LYRICSPATH:;
#CDTITLE:;
#MUSIC:15_-_orochimaru_~fight~.ogg;
#OFFSET:0.016;
#SAMPLESTART:7.920;
#SAMPLELENGTH:12.000;
#SELECTABLE:YES;
#BPMS:0.000=240.040,386.500=120.020,434.500=240.040;
#STOPS:498.500=4.800
;
#BGCHANGES:;
// cache tags:
#FIRSTBEAT:34.500;
#LASTBEAT:498.563;
#SONGFILENAME:Songs/toune 1 (2010)/Orochimaru ~Fight~/Orochimaru.sm;
#HASMUSIC:1;
#HASBANNER:0;
#MUSICLENGTH:145.188;
// end cache tags

//---------------dance-single - Copied from Hard----------------
#NOTES:
     dance-single:
     Copied from Hard:
     Medium:
     10:
     0.613,0.730,0.069,0.158,0.021,590.000,10.000,23.000,3.000,0.000:
0000
0000
0000
0000
,
0000
0000
0000
0000
,
0000
0000
0000
0000
,
0000
0000
0000
0000
,
0000
0000
0000
0000
,
0000
0000
0000
0000
,
0000
0000
0000
0000
,
0000
0000
0000
0000
,
0000
0000
0000
0000
0000
0100
0000
0010
,
0000
1000
0000
0010
0000
0100
0000
0001
,
0000
1000
0000
0100
0000
0001
0000
0100
,
0000
1000
0000
0010
0000
0100
0000
0001
,
0000
0100
0000
0010
0000
1000
0000
0100
,
0000
0010
0000
0100
0000
1000
0000
0001
,
0000
0100
0000
0010
0000
1000
0000
0010
,
0000
0100
0000
0001
0000
1000
0000
0100
,
0000
0010
0000
0001
0000
1002
0000
0000
,
0003
0020
0000
0000
0000
0230
0000
0000
,
0000
0000
0000
0000
,
0000
0000
0000
0000
,
0000
0000
0000
0300
0000
1100
0000
0000
,
0000
2000
0000
0000
0000
3200
0000
0000
,
0000
0320
0000
0000
0000
0000
0000
0000
,
0000
0000
0000
0000
,
0000
0000
0000
0030
0000
0120
0000
0000
,
0000
2030
0000
0000
0000
3200
0000
0000
,
0000
0000
0000
0000
,
0000
0000
0000
0000
,
0000
0000
0000
0300
0000
0000
0000
0000
,
0000
0012
0000
0000
0000
0203
0000
0000
,
0000
0320
0000
0000
0000
0000
0000
0000
,
0000
0000
0000
0000
,
0000
0030
0000
0000
0000
0100
0010
0100
,
1000
0100
0001
0100
1000
0100
0001
0100
,
1000
0100
0010
0001
0100
0010
1000
0010
,
0100
0010
0001
0010
0100
0010
1000
0010
,
0100
0010
1000
0100
0001
0100
1000
0100
,
0001
0100
1000
0100
0001
0100
1000
0100
,
0001
0100
1000
0100
0010
0001
0010
1000
,
0010
0001
0010
1000
0010
0001
0010
1000
,
0010
0001
0100
0010
1000
0001
0100
0010
,
0100
0001
1000
0100
0010
0100
1000
0001
,
0100
0010
1000
0010
0100
0001
1000
0100
,
0010
0001
0010
0100
1000
0001
0100
0010
,
0100
0001
1000
0100
0010
0100
1000
0100
,
0010
0100
1000
0001
1000
0100
0000
0001
,
1000
0001
1000
0001
1000
0100
0000
1000
,
0001
1000
0001
1000
0100
1000
0100
0010
,
0100
1000
0001
0100
0010
1000
0000
0100
,
0000
0010
0000
0001
0000
0100
0000
0010
,
0000
0100
0000
0001
0100
1000
0000
0100
,
0000
0001
0000
1000
0000
0100
0000
0001
,
0000
0100
1000
0010
1000
0100
0000
0010
,
0000
1000
0000
0001
0000
0100
0000
0010
,
0000
1000
0000
0100
1000
0001
0000
0100
,
0000
0001
0000
0010
0000
0100
0000
1000
,
0000
0010
0100
0001
0100
0010
0000
0100
,
0000
0001
0000
0010
0000
0100
0000
1000
,
0000
0001
0000
1000
0001
0100
0000
0001
,
0000
0010
0000
0100
0000
1000
0000
0010
,
0000
0100
0001
0010
0001
1000
0000
0100
,
0000
0010
0000
0100
0000
1000
0000
0010
,
0000
0100
0001
0100
0010
0100
0000
0001
,
0000
0100
0000
0010
0000
1000
0000
0100
,
0000
0010
0001
0010
0100
1000
0001
0100
,
0001
0010
0001
0010
0001
1000
0001
0100
,
0001
0010
0001
0010
0001
1000
0001
0100
,
0001
0010
0001
0010
0001
1000
0001
0100
,
0001
0010
0000
1000
0000
0001
1000
0100
,
1000
0010
1000
0010
1000
0001
1000
0100
,
1000
0010
1000
0010
1000
0001
1000
0100
,
1000
0010
1000
0001
1000
0100
1000
0010
,
1000
0010
1000
0100
0000
0100
0010
0100
,
0001
0100
1000
0100
0010
0100
0010
0100
,
0001
0100
1000
0100
0010
0100
0010
0100
,
0001
0100
1000
0100
0010
0100
0010
0100
,
0000
1000
0000
0010
0100
0010
1000
0010
,
0001
0010
0100
0010
0100
0010
1000
0010
,
0001
0010
0100
0010
0100
0001
0100
0010
,
1000
0001
0100
0010
1000
0001
0100
1000
,
0100
0001
0010
0100
1000
0001
0000
1000
,
0000
0001
0000
0010
0000
0100
0000
1000
,
0000
0000
0001
0000
0000
0000
0100
0010
1000
0010
0100
0000
0000
0000
0001
0000
,
0000
0100
0000
0010
0000
1000
0000
0100
,
0000
0001
0100
0010
1000
0001
0000
1000
,
0000
0100
0000
0100
0000
0001
0000
1000
,
0000
0000
0100
0000
0000
0000
0100
0001
0100
1000
0100
0000
0000
0000
0010
0000
,
0000
0001
0000
0100
0000
0010
0000
1000
,
0000
0100
1000
0001
1000
0100
0000
0010
,
0000
0001
0000
0100
0000
0100
0000
0010
,
0000
0000
1000
0000
0000
0000
0100
1000
0010
1000
0100
0000
0000
0000
1000
0000
,
0000
0100
0000
0010
0000
0100
0000
1000
,
0000
0001
0100
0010
0100
0001
0000
1000
,
0000
0100
0000
0010
0000
0001
0000
0100
,
0000
0100
0000
0010
0000
1000
0000
0100
,
0000
0100
0000
0010
0000
0001
0000
0100
,
0000
0001
1000
0001
1000
1001
0000
0000
,
0000
0000
0100
0010
0001
0100
0000
0000
,
0000
0000
0010
1000
0100
0001
0000
0000
,
0000
0000
0100
1000
0001
0100
0010
1000
,
0100
0001
0000
0000
0000
1002
0000
0023
,
0000
0230
0000
0000
0000
0000
0000
0000
,
0000
0000
0000
0000
0300
2100
0000
3002
,
0000
0203
0000
0320
0000
0000
0000
0000
,
0000
0000
0000
0000
0030
2000
0000
3002
,
0000
0203
0000
0000
0000
0000
0000
0000
,
0000
0000
0000
0000
0300
0000
0000
0011
,
0000
0101
0000
2010
0000
0000
0000
0000
,
0000
0000
0000
0000
3000
0001
0100
0010
,
1000
0100
0000
0100
0000
0010
0001
0100
,
0010
1000
0000
1000
0000
0010
1000
0100
,
0010
0001
0000
0001
0000
0100
0010
1000
,
0100
0010
0000
0010
0000
0001
0100
0010
,
1000
0100
0000
0100
0000
0010
1000
0100
,
0010
0001
0000
0001
0000
0100
0010
0100
,
0001
1000
0000
1000
0000
0010
1000
0100
,
0010
0001
0100
0010
1000
0100
0010
0100
,
1000
0001
0000
0100
0001
1000
0000
0100
,
1000
0010
0100
0001
0000
0100
0010
1000
,
0100
0010
0000
0010
0100
1000
0000
1000
,
0010
0100
0001
0100
0010
1000
0100
0010
,
0001
0100
0000
0100
0010
1000
0000
0100
,
0010
0001
0100
0010
1000
0100
0010
0100
,
1000
0100
0001
0100
1000
0010
0100
0001
,
0100
0010
1000
0100
0001
M1MM
0000
0000
;

//---------------dance-single - Copied from ITG-ish----------------
#NOTES:
     dance-single:
     Copied from ITG-ish:
     Hard:
     12:
     0.703,0.730,0.028,0.096,0.059,696.000,4.000,14.000,346.000,0.000:
0000
0000
0000
0000
,
0000
0000
0000
0000
,
0000
0000
0000
0000
,
0000
0000
0000
0000
,
0000
0000
0000
0000
,
0000
0000
0000
0000
,
0000
0000
0000
0000
,
0000
0000
0000
0000
,
0000
0000
0000
0000
0000
0100
0000
1000
,
0100
0000
0100
0001
0000
0001
0100
0000
,
0100
1000
0000
1000
0010
0000
0010
0100
,
0000
0100
0001
0000
0001
0100
0000
0100
,
0010
0000
0010
1000
0000
0100
0001
0000
,
0100
1000
0000
0010
0100
0000
0001
0100
,
0000
0010
1000
0000
0100
0010
0000
0001
,
0100
0000
0010
1000
0000
0001
0000
0010
,
0000
1000
0000
0100
0000
1001
0000
M000
,
0000
0M00
0000
00M0
0000
000M
0000
M000
,
0000
0M00
0000
00M0
0000
000M
0000
M000
,
0000
00M0
0000
0M00
0000
000M
0000
M000
,
0000
00M0
0000
0M00
0000
0110
0000
000M
,
0000
0M00
0000
00M0
0000
M000
0000
0M00
,
0000
00M0
0000
000M
0000
M000
0000
00M0
,
0000
0M00
0000
000M
0000
00M0
0000
0M00
,
0000
M000
0000
00M0
0000
1001
0000
0M0M
,
0000
0MM0
0000
M00M
0000
MM00
0000
0MM0
,
0000
M0M0
0000
M00M
0000
0M0M
0000
0MM0
,
0000
M0M0
0000
MM00
0000
00MM
0000
0MM0
,
0000
MM00
0000
M00M
0000
0110
0000
M00M
,
0000
0MM0
0000
00MM
0000
MM00
0000
M0M0
,
0000
0M0M
0000
M0M0
0000
M00M
0000
0MM0
,
0000
00MM
0000
MM00
0000
M00M
0000
0MM0
,
0000
M00M
0MM0
0000
0000
0001
0010
1000
,
0100
0001
0100
1000
0010
1000
0100
0001
,
0100
1000
0010
1000
0100
0001
0100
1000
,
0100
0001
0100
1000
0100
0010
0001
0010
,
0001
0010
0001
0010
0100
0010
0100
0010
,
0100
0010
0100
1000
0100
1000
0100
1000
,
0010
0100
0001
0100
0010
1000
0100
0010
,
0100
1000
0001
0100
0010
0100
0001
1000
,
0100
0010
0100
1000
0001
0100
0010
0100
,
0001
0010
0100
1000
0010
0100
0001
0100
,
0010
1000
0100
0010
0001
0010
0100
1000
,
0001
0100
0010
0100
0001
0010
0100
0010
,
0001
0100
0010
1000
0100
0010
0100
1000
,
0010
0100
0010
1000
0001
0100
0001
1000
,
0100
1000
0001
0010
0100
1000
0010
0100
,
0010
1000
0010
0001
0010
1000
0100
0001
,
0010
1000
0100
0001
1000
0100
0010
0001
,
0100
0010
1000
0100
0010
0001
0100
0010
,
1000
0100
0001
0100
1000
0100
0010
0001
,
0100
0010
1000
0100
0010
0100
1000
0010
,
0100
0001
0100
0010
1000
0001
0010
0100
,
1000
0010
0100
0010
1000
0001
0010
0100
,
0010
0001
0100
1000
0100
0001
0100
0001
,
0010
0001
0010
1000
0010
1000
0100
1000
,
0100
0001
0100
0001
0010
0001
0010
0100
,
1000
0010
1000
0010
0001
0010
0001
0010
,
1000
0100
0001
0100
1000
0001
0100
0010
,
1000
0010
0100
0001
1000
0100
0010
0001
,
0010
0100
1000
0001
0100
0010
0100
0001
,
1000
0010
0100
0001
1000
0010
0100
0001
,
1000
0001
1000
0100
0010
0001
1000
0100
,
1000
0100
0010
0001
1000
0100
0010
0100
,
1000
0010
0100
0001
0M00
0001
1000
0100
,
0010
M001
0M10
M001
0M10
M001
0100
001M
,
1M00
001M
1M00
001M
1000
0100
M010
0M01
,
M010
0M01
M010
0001
0100
001M
1000
01M0
,
0001
01M0
1000
001M
0100
00M1
0100
M001
,
0100
001M
1000
0M10
1000
01MM
1000
01MM
,
1000
0M10
0001
MM10
0001
0M10
1000
010M
,
0010
0M01
0010
010M
1000
001M
M100
00M1
,
M100
001M
1M00
001M
1M00
00M1
M100
0001
,
M010
010M
1000
0M1M
1000
00M1
0100
M01M
,
0100
M001
0M10
100M
0M10
M001
0M10
100M
,
0M10
M001
0100
001M
1M00
001M
M100
00M1
,
1000
010M
M010
010M
1000
001M
M100
00M1
,
M100
0001
MM10
MM01
M010
010M
10MM
01MM
,
100M
0M1M
1M0M
0M1M
1000
00M1
M100
001M
,
1M00
00M1
M100
001M
1M00
0001
M010
010M
,
10M0
0M01
M010
010M
10M0
0M01
M010
010M
,
1000
0M1M
1000
010M
M010
0001
M100
001M
,
M100
M001
M010
M10M
M010
M001
M1M0
M0M1
,
M1M0
0001
MM10
0001
MM10
0001
1MM0
0001
,
1MM0
0001
M010
010M
1000
001M
M100
0001
,
M010
010M
1000
0M1M
1000
01M0
0001
MM10
,
0001
01M0
1000
0MM1
1000
010M
0010
M001
,
0100
001M
1000
010M
M010
010M
1000
001M
,
M100
001M
1M00
00M1
M100
001M
M100
0001
,
M010
010M
M010
0M01
1000
0M1M
1M00
0001
,
0M10
M001
01M0
M001
0010
010M
1000
001M
,
M100
0001
MM10
0001
M100
0010
100M
01M0
,
M001
01M0
100M
0010
M100
00M1
M100
00M1
,
M100
0001
MM10
0001
M010
0100
10M0
0M01
,
M010
010M
10M0
0001
M100
001M
1M00
00M1
,
M100
001M
1M00
0001
M010
010M
1000
001M
,
M100
00M1
1000
010M
M010
0001
0100
0010
,
0100
0001
0100
0010
1000
1000
0100
0010
,
0100
1000
0100
0010
0001
0001
0100
0010
,
1000
0001
0100
0010
1000
0001
0100
0010
,
0100
0002
0000
0000
0000
2003
0000
3020
,
0000
0230
0000
0300
0M00
0M00
0M00
0M00
,
0M00
0M00
0M00
0000
0000
0200
0000
2300
,
0000
3200
0000
0320
0000
0000
0000
0000
,
0000
0000
0000
0000
0000
0030
0000
0002
,
0000
0203
0000
0000
0000
0000
0000
0000
,
0000
0000
0000
0300
0000
0002
0000
0203
,
0000
0320
0000
2030
0000
0000
0000
0000
,
0000
0000
0000
0000
0000
3001
0000
1000
,
0000
0001
0000
1000
0100
0000
0100
0000
,
0100
0000
1000
0000
0000
0000
M010
0100
M001
0100
M01M
0000
0000
0000
0010
0000
,
0000
1000
0000
1000
0100
0000
0100
0000
,
0100
0000
0010
0000
0000
0000
0M10
0001
0M10
1000
0M1M
0000
0000
0000
0010
0000
,
0000
0001
0000
0001
0100
0000
0100
0000
,
0100
0000
0010
0000
0000
0000
010M
0010
100M
0010
M10M
0000
0000
0000
0100
0000
,
0000
0001
0000
0001
1000
0000
1000
0000
,
1000
0000
0100
0000
0000
0000
M100
0010
M001
0100
10MM
0000
0000
0000
1000
0000
,
0000
0100
0000
0100
0010
0000
0010
0000
,
0010
0000
0001
0000
0000
0000
00M1
0100
00M1
1000
0MM1
0000
0000
0000
0001
0000
,
0000
0100
0000
0100
0010
0000
0010
0000
,
0010
0000
1000
0000
0000
0000
1MM0
0001
1MM0
0001
1MM0
0000
0000
0000
1000
0000
,
0000
0100
0000
0100
0010
0000
0010
0000
,
0010
0000
0001
0000
0000
0000
M001
0100
M010
0100
M0M1
0000
0000
0000
1000
0000
,
0000
0100
0000
0100
0010
0000
0010
0000
,
0010
0000
0000
0000
0000
0000
0000
0000
0001
0000
0000
0000
0000
0000
0000
0000
0010
0000
0000
0000
0000
0000
0000
0000
M001
0000
0000
0000
0100
0000
0000
0000
M0M1
0000
0000
0000
0100
0000
0000
0000
0001
MMMM
0000
0000
0000
0000
0000
0000
0000
0000
0000
0000
0000
0000
0000
0000
0000
0000
0000
0000
0000
0000
0000
0000
;

//---------------dance-single - Copied from ABUSIVE----------------
#NOTES:
     dance-single:
     Copied from ABUSIVE:
     Challenge:
     13:
     0.792,0.987,0.000,0.034,0.255,800.000,0.000,5.000,332.000,0.000:
0000
0000
0000
0000
,
0000
0000
0000
0000
,
0000
0000
0000
0000
,
0000
0000
0000
0000
,
0000
0000
0000
0000
,
0000
0000
0000
0000
,
0000
0000
0000
0000
,
0000
0000
0000
0000
,
0000
0000
0000
0000
0000
1000
0000
0010
,
0000
0100
0000
0001
0000
0100
0000
0010
,
0000
1000
0000
0010
0100
0001
0000
0010
,
0000
0100
0000
1000
0000
0100
0000
0010
,
0000
0001
0000
0100
1000
0001
1000
0100
,
0000
0010
0000
1000
0000
0100
0000
0010
,
0000
0001
0100
0010
0000
0100
0000
0001
,
0000
0010
0000
0100
0000
1000
0000
0010
,
0000
0001
1000
M1MM
0010
0001
0000
0000
,
0000
0000
0000
0000
0000
MMM0
M00M
M00M
,
M00M
MMM0
M00M
M00M
M00M
MMM0
0000
0000
,
0000
MMM0
M00M
M00M
M00M
MMM0
M00M
M00M
,
M00M
M00M
0000
0000
0000
MMMM
M000
M000
,
M000
MMM0
M000
M000
M000
MMMM
0000
0000
,
0000
0MM0
M00M
M00M
M00M
MMMM
M00M
M00M
,
M00M
M00M
0000
0000
0000
M00M
M00M
M0M0
,
M0M0
MM00
M0M0
M0M0
M00M
M00M
0000
0000
,
0000
MMM0
M00M
M00M
M00M
MMM0
M00M
M00M
,
M00M
MMM0
0000
0000
0000
MMM0
M00M
M00M
,
M00M
MMM0
M00M
M00M
M00M
M00M
0000
0000
,
0000
MMMM
M000
M000
M000
MMM0
M000
M000
,
M000
MMMM
0000
0000
0000
0MM0
M00M
M00M
,
M00M
MMMM
M00M
M00M
M00M
M00M
0000
0000
,
0000
M00M
M00M
M0M0
M0M0
MM00
M0M0
M0M0
,
M00M
M00M
0000
0000
0000
1000
0100
0010
,
0100
1000
0001
0100
0010
1000
0100
1000
,
0010
0000
1000
0000
0100
0000
0010
0001
0010
0001
0010
0000
1000
0000
0100
0000
,
0010
0001
0100
0010
1000
0100
0010
1000
,
0010
0100
0010
1000
0100
0010
0100
1000
,
0001
0100
0010
1000
0100
0010
0100
1000
,
0100
0000
0001
0000
0100
0000
1000
0100
0010
0001
0100
0000
0010
0000
1000
0000
,
0100
0010
0100
1000
0010
0100
0010
0001
,
0010
1000
0010
0100
0001
0100
0010
1000
,
0100
0001
0100
1000
0010
0100
0010
1000
,
0100
0000
0010
0000
0001
0000
0100
0001
0010
0100
1000
0000
0010
0000
0100
0000
,
0001
0100
0010
1000
0100
0010
0100
1000
,
0010
0100
0001
0100
0010
1000
0100
0001
,
0100
0010
1000
0010
1000
0010
1000
0100
,
0010
0001
0010
0001
0010
0001
0100
0010
,
1000
0010
1000
0010
1000
0001
1000
0100
,
0010
0100
1000
0001
0010
0001
1000
0100
,
1000
0001
0010
1000
0100
0001
1000
0001
,
0100
0000
0001
0000
1000
0000
0100
0010
0100
0010
0100
0000
0001
0000
1000
0000
,
0100
0010
1000
0100
0001
1000
0100
0001
,
0100
1000
0100
0001
1000
0100
1000
0001
,
0010
1000
0100
0001
1000
0100
1000
0001
,
1000
0000
0010
0000
1000
0000
0001
1000
0100
0010
1000
0000
0100
0000
0001
0000
,
1000
0100
1000
0001
0100
1000
0100
0010
,
0100
0001
0100
1000
0010
1000
0100
0001
,
1000
0010
1000
0001
0100
1000
0100
0001
,
1000
0000
0100
0000
0010
0000
1000
0010
0100
1000
0001
0000
0100
0000
1000
0000
,
0010
1000
0100
0001
1000
0100
1000
0001
,
0100
1000
0010
1000
0100
0001
1000
0010
,
1000
0100
0001
0100
0001
0100
0001
1000
,
0100
0010
0100
0010
0100
0010
1000
0100
,
0001
0100
0001
0100
0001
1000
0100
0010
,
0100
0000
1000
0000
0001
0000
0010
0000
0001
0000
1000
0100
1000
0000
0010
0000
,
0100
0000
0001
0100
0001
0000
0010
0000
0100
0000
1000
0001
1000
0000
0100
0000
,
0010
0000
1000
0010
1000
0000
0100
0000
0010
0000
0001
0100
0001
0000
0010
0000
,
0100
0000
1000
0010
1000
0000
0100
0000
0010
0000
0100
1000
0100
0000
0010
0000
,
0001
0000
0100
0001
0100
0000
0010
0000
1000
0000
0100
1000
0010
0000
0100
0000
,
0001
0000
0010
0100
1000
0000
0010
0000
0100
0000
0001
0010
0100
0000
1000
0000
,
0100
0000
0010
0001
0100
0000
0010
0000
0100
0000
0001
0100
0010
0000
1000
0000
,
0100
0000
0010
0001
0100
0000
0010
0000
1000
0000
0100
0010
0001
0000
0100
0010
,
1000
0000
0100
0010
0100
0000
1000
0100
0010
0100
1000
0000
0001
0000
0001
0010
,
0001
0000
0100
0000
0010
0000
1000
0010
1000
0000
0100
0000
0010
0000
0001
1000
,
0001
0000
0010
0000
0100
0000
0001
0100
0001
0000
0010
0000
0100
0000
1000
0010
,
1000
0000
0100
0000
0010
0000
0001
0100
0001
0000
0010
0000
0100
0000
0010
0001
,
0010
0000
0100
0000
1000
0000
0010
1000
0010
0000
0100
0000
0001
0000
0010
0001
,
0100
0000
0010
0000
1000
0000
0100
0010
0001
0000
0100
0000
0010
0000
1000
0100
,
0010
0000
0001
0000
0010
0000
0100
1000
0010
0000
0100
0000
0010
0000
1000
0010
,
0100
0000
0001
0000
0010
0000
0100
1000
0010
0000
0100
0000
0001
0000
0010
0100
,
1000
0000
0010
0100
0010
0000
0001
0010
0100
0010
0001
0000
1000
0000
0100
0000
,
1000
0001
0010
1000
0100
0001
1000
0001
,
0100
0000
0001
0000
1000
0000
0100
0010
0100
0010
0100
0000
0001
0000
1000
0000
,
0100
0010
1000
0100
0001
1000
0100
0001
,
0100
1000
0100
0001
1000
0100
1000
0001
,
0010
1000
0100
0001
1000
0100
1000
0001
,
1000
0000
0010
0000
1000
0000
0001
1000
0100
0010
1000
0000
0100
0000
0001
0000
,
1000
0100
1000
0001
0100
1000
0100
0010
,
0100
0001
0100
1000
0010
1000
0100
0001
,
1000
0010
1000
0001
0100
1000
0100
0001
,
1000
0000
0100
0000
0010
0000
1000
0010
0100
1000
0001
0000
0100
0000
1000
0000
,
0010
1000
0100
0001
1000
0100
1000
0001
,
0100
1000
0010
1000
0100
0001
1000
0010
,
1000
0100
0001
0010
0001
0100
0001
1000
,
0100
0010
1000
0010
0100
0010
1000
0100
,
0001
1000
0001
0100
0001
0010
0001
1000
,
0100
1000
0001
0100
0010
2000
0000
0000
,
0000
0000
0000
0000
0000
0200
0000
0000
,
0000
0000
0000
0000
0000
0000
0000
0000
0300
0000
0000
0000
3000
0000
0000
0000
0001
0010
0100
2000
0002
0000
0000
0000
0000
0000
0000
0000
0000
0000
0000
0000
,
0000
0000
0000
0000
3003
0100
0010
1000
,
0100
0002
0000
0000
0000
1003
0000
0010
,
0000
0100
0000
0001
0000
0100
0000
0010
,
0000
1000
0000
0100
0000
0010
0000
0001
,
0000
0100
0000
0010
0000
1000
0000
0001
,
0000
1000
0000
0001
0000
0100
0000
0010
,
0000
1000
0000
0100
0000
0010
0000
0001
,
0000
0100
0000
0001
0000
0010
0000
0100
,
0000
1000
0000
0010
1000
0100
0010
0001
,
0010
0100
0010
1000
0100
0001
01M0
1000
,
01M0
00M1
01M0
10M0
0100
00M1
0100
10M0
,
0100
M0M1
0100
10MM
01M0
0001
MM10
0001
,
M1M0
0001
MM10
0001
M1M0
0001
MM10
0001
,
M1M0
0001
0M1M
MM01
M1MM
1000
0M1M
1000
,
01MM
1000
0M1M
1000
01MM
1000
0M1M
1000
,
01MM
1000
0M1M
10MM
0100
0010
MM01
0010
,
1M0M
0010
MM01
0010
1M00
001M
MMM1
0010
,
1M0M
0000
0010
0000
MMM1
0000
0010
0000
100M
0000
0100
0001
M010
0000
0100
0000
,
10MM
0000
0100
0010
M001
0000
M100
0000
M010
0000
010M
0010
1000
0000
010M
0000
,
001M
0000
M100
0010
0001
0000
M100
0000
M0M1
0000
M1M0
0001
M1M0
0000
M0M1
0000
,
M1M0
0000
M0M1
0100
M0M1
0000
M1M0
0000
M0M1
0000
M1M0
0001
M1M0
0000
M0M1
0000
,
M1M0
0000
M0M1
0100
M0M1
0000
M1M0
0000
M0M1
0000
0100
1000
01MM
0000
10M0
0000
,
010M
0000
10M0
0100
10MM
0000
010M
0000
10M0
0000
010M
1000
01M0
0000
10MM
0000
,
01M0
0000
100M
0000
0100
0000
M010
0100
M001
0000
0100
0000
001M
1000
010M
0000
,
M010
0000
0001
0100
M010
0000
0100
0000
M001
0000
0010
0100
1000
0000
001M
0000
,
0100
0000
001M
1000
0100
0000
001M
0000
0100
0000
1MMM
0000
0000
0000
0000
0000
;
