#TITLE:The Call;
#SUBTITLE:Sexuality Violation;
#ARTIST:Backstreet Boys;
#TITLETRANSLIT:;
#SUBTITLETRANSLIT:;
#ARTISTTRANSLIT:;
#CREDIT:;
#BANNER:The Call - bn.png;
#BACKGROUND:The Call - bg.png;
#LYRICSPATH:;
#CDTITLE:;
#MUSIC:The Call.ogg;
#OFFSET:0.009;
#SAMPLESTART:46.294;
#SAMPLELENGTH:12.000;
#SELECTABLE:YES;
#DISPLAYBPM:104.360;
#BPMS:0.000=104.360,6.000=104.430,14.000=104.400,34.000=104.360,81.000=104.365,114.000=104.362,149.000=104.370,182.000=104.320,190.000=104.420,198.000=104.280,206.000=104.650,209.000=103.500,210.000=104.378,278.000=104.360,310.000=104.375,327.000=104.350,342.000=104.320,346.000=104.300;
#STOPS:;
#BGCHANGES:;
// cache tags:
#FIRSTBEAT:1.667;
#LASTBEAT:351.000;
#SONGFILENAME:Songs/Sexuality Violation 2/The Call - [Aoreo]/The Call.sm;
#HASMUSIC:1;
#HASBANNER:1;
#MUSICLENGTH:204.309;
// end cache tags

//---------------dance-single - J. Nero----------------
#NOTES:
     dance-single:
     J. Nero:
     Challenge:
     12:
     0.897,0.923,0.431,0.127,1.000,1158.000,88.000,26.000,1.000,9.000:
0000
0000
0000
0000
0000
0000
0000
0000
0000
0000
1000
0010
0200
0000
0000
0000
0000
0000
0000
0000
0000
0000
0000
0000
,
0000
0000
0000
0000
0000
0000
0000
0000
0000
0000
0000
0000
0000
0000
0000
0000
0000
0000
0000
0000
0000
0000
0000
0000
0000
0000
0000
0000
0000
0000
0000
0000
0000
0000
0000
0000
0000
0000
0000
0000
0000
0000
0000
0000
0000
0000
0000
0000
0000
0000
0000
0000
0000
0000
0000
0000
0000
0000
0000
0000
0000
0000
0000
0000
0300
0000
0000
0000
0000
0000
0000
0000
0000
0000
0000
0000
0000
0000
0000
0000
0000
0000
0000
0000
0000
0000
0000
0000
0000
0000
0000
0000
0000
0000
0000
0000
0001
0000
0000
0000
0000
0000
0000
0000
0000
0000
0000
0000
0000
0000
0000
0000
0000
0000
0000
0000
0000
0000
0000
0000
1000
0000
0000
0000
0000
0000
0000
0000
0000
0000
0000
0000
0000
0000
0000
0000
0000
0000
0000
0000
0000
0000
0000
0000
0001
0000
0000
0000
0000
0000
0000
0000
0000
0000
0000
0000
0000
0000
0000
0000
1000
0000
0000
0000
0000
0000
0000
0000
0000
0000
0000
0000
0000
0000
0000
0000
0100
0000
0000
0000
0000
0000
0000
0000
0000
0000
0000
0000
0000
1000
0000
0000
,
0000
0000
0000
0000
0000
0000
0000
0000
0000
0001
0000
0000
0000
0000
0000
0000
0000
0000
0000
0000
0000
0000
0000
0000
0010
0000
0000
0000
0000
0000
0000
0000
0100
0000
0000
0000
0000
0000
0000
0000
1000
0000
0000
0000
0000
0000
0000
0000
0001
0000
0000
0000
0000
0000
0000
0000
0100
0000
0000
0000
0000
0000
0000
0000
0010
0000
0000
0000
0000
0000
0000
0000
0100
0000
0000
0000
0000
0000
0000
0000
0001
0000
0000
0000
0000
0000
0000
0000
1000
0000
0000
0000
0000
0000
0000
0000
0200
0000
0000
0000
0000
0000
0000
0000
0000
0000
0000
0000
0000
0000
0000
0000
0000
0000
0000
0000
0000
0000
0000
0000
0000
0000
0000
0000
0000
0000
0000
0000
0000
0000
0000
0000
0300
0000
0000
0000
0000
0000
0000
0000
0000
0000
0000
0000
1000
0000
0000
0000
0001
0000
0000
0000
0100
0000
0000
0000
0000
0000
0000
0000
0000
0000
0000
0000
0000
0000
0000
0000
0000
0000
0000
0000
0000
0000
0000
0000
0000
0000
0000
0000
0000
0000
0000
0000
0000
0000
0000
0000
0000
0000
0000
0000
,
0000
0000
1001
0101
,
0110
0000
0000
0000
0000
0000
0000
0000
1010
0000
0000
0000
1000
0001
0010
0100
1000
0000
0000
0000
0000
0000
0000
0000
1100
0000
0000
0000
0000
0000
0000
0000
,
0110
0000
0000
0000
0010
0001
0010
0100
1000
0001
0000
0100
0010
0000
0100
0000
,
0101
0000
0000
0000
0001
1000
0001
0010
0100
0000
0000
0000
1000
0100
1000
0100
0010
0000
0000
0000
0001
0000
0100
0000
0010
0000
0000
0000
1000
0000
0000
0000
,
1010
0000
0000
0000
0000
0000
0000
0000
0110
0000
0000
0000
0100
0001
1000
0001
0010
0000
0100
0000
0000
0000
1000
0000
0001
0000
0000
0000
0100
0000
0000
0000
,
0101
0000
1001
1000
0101
0110
0101
0000
,
1001
0000
1100
0000
1001
0000
1100
0000
1001
0001
0100
0001
0010
0100
1000
0001
,
0000
0001
0000
0010
0000
0100
0000
1000
0001
0100
0000
0010
0000
0010
0000
1000
,
0000
0000
1000
0000
0000
0000
0001
0000
1000
0000
0000
0000
0001
0010
0100
1000
0001
0000
0100
0000
0000
0000
0001
0000
0010
0000
0100
0000
1000
0000
0001
0000
,
0000
0001
0000
0200
0000
0000
0300
0000
1001
0000
0001
0100
1001
0000
1000
0100
,
0010
0100
1000
0010
0000
0010
0100
0001
1001
0000
1000
0100
0010
0100
1000
0010
,
0000
0100
0000
0001
0000
1000
0000
0001
1000
0100
0000
1000
0000
0001
0000
0100
,
0000
0000
0001
0000
0000
0000
0001
0000
0000
0000
0010
0000
0100
1000
0001
1000
0010
0000
0000
0000
0100
0000
0001
0000
0100
0000
0000
0000
0001
0000
1000
0000
,
0100
0000
0000
0000
1000
0100
0010
0001
0100
0000
0000
0000
0010
0000
1000
0000
0100
0000
0010
0000
0100
0000
1000
0000
0010
0000
0000
0000
0100
0000
0000
0000
,
1001
0000
0010
0000
1001
0000
1000
0100
0010
0100
0000
1000
0001
0000
0100
0000
,
0001
0000
0010
0000
0100
0000
1000
0000
0001
0000
0100
0000
0010
0000
0100
0000
0001
0000
1000
0000
0100
0000
0010
0000
0001
0000
0000
0100
0000
0000
0000
0000
0000
0001
0000
0000
0010
0000
0000
0000
0000
0000
0100
0000
0000
0000
0000
0000
,
0100
0000
0000
0000
1000
0000
0000
0000
1001
0000
0000
0000
0001
1000
0100
0010
0001
0000
1000
0000
0000
0000
0001
0000
0100
0000
0000
0000
0001
0000
0000
0000
,
1001
0000
1000
0000
1001
0101
1010
0110
0101
0000
0000
0000
0111
0000
0000
0000
,
1101
0000
0000
0000
2111
0000
0000
0000
3001
0000
1000
0100
0010
0100
1000
0001
,
0100
0000
0010
0000
1000
0000
0001
0000
0100
0000
0001
0000
1000
0100
0010
0001
1000
0000
0100
0000
0010
0000
0100
0000
1000
0000
0010
0000
0100
0000
0001
0000
,
1000
0000
0001
0000
0010
0000
0100
0000
1000
0000
0001
0000
1000
0010
0100
0001
0010
0000
0000
0000
0100
0000
1000
0000
0001
0000
0100
0000
0010
0000
0100
0000
,
0001
0000
0010
0000
0100
0000
1000
0000
0001
0000
0100
0000
0010
1000
0010
0100
0001
0000
1000
0000
0100
0000
1000
0001
1000
0000
0001
0000
0010
0000
0100
1000
,
0001
0000
0100
0000
0010
0000
1000
0001
0100
0000
0001
0000
1000
0001
0010
0100
2000
0000
0000
0000
3001
0000
0100
0000
0010
0000
0100
0000
0001
0000
1000
0000
,
0100
0000
0000
0010
0000
0000
0001
0000
0000
1000
0000
0000
0010
0000
0000
0100
0000
0000
0001
0000
0000
1000
0000
0000
0100
0000
0010
0000
0100
0000
1000
0000
0010
0000
0100
0000
0001
0000
0010
0000
0100
0000
1000
0000
0001
0000
0100
0000
,
0010
0000
0100
0000
0001
0000
1000
0000
0100
0000
0010
0000
0001
1000
0100
0010
0001
0000
0100
0000
0000
0000
0001
0000
1000
0000
0010
0000
0100
0000
0010
0000
,
0100
0001
0000
1000
0100
0000
0000
1000
0010
0100
0010
1000
0001
0000
0010
0100
,
1000
0010
0100
0001
1000
0000
0001
0100
0002
0000
0000
0000
0100
0000
0000
0000
,
0100
0010
0100
0000
0010
0000
0100
0013
1101
0000
0000
0000
0000
0000
0000
0000
,
0000
0000
1001
0000
1001
0000
0000
0000
0110
0000
0000
0000
0100
0001
0010
0100
1000
0000
0100
0000
0000
0000
1000
0000
0010
0000
0000
0000
0100
0000
0000
0000
,
0001
0000
0000
0000
0010
0000
0000
0000
0100
0000
0000
0000
1000
0100
0010
0001
1000
0000
0000
0000
0001
0000
0100
0000
0010
0000
0100
0000
0001
0000
1000
0000
,
0000
0100
0000
1000
0000
0000
0001
0000
1001
0000
1000
0010
0110
0000
0100
0001
,
0011
0000
0010
0000
0100
0000
1000
0000
0001
0000
0100
0000
0010
1000
0010
0100
0001
0000
0000
0000
1000
0000
0100
0000
0010
0000
0000
0000
0100
0000
1000
0000
,
0001
0000
0100
0001
0000
0001
0000
0010
0100
1000
0000
0001
0100
0000
0010
0000
,
1000
0000
0000
0000
0000
0000
0001
0000
0000
0010
0000
0000
0000
0000
0000
0010
0000
0000
0000
0000
0000
0200
0000
0000
0000
0000
0000
0000
0000
0000
0000
0000
0000
0000
0000
0000
0000
0000
0000
1300
0000
0001
0000
0010
0000
0100
0000
1000
,
0000
0000
0000
0000
0101
1001
1010
0110
0101
0000
0000
0000
0111
0000
0000
0000
,
1101
0000
0000
0000
0002
0000
2000
3003
1111
0000
0001
0100
0010
1000
0001
1000
,
0100
0000
0010
0000
0100
0000
1000
0000
0001
0000
0100
0000
0001
1000
0100
0010
0001
0000
1000
0000
0100
0000
0010
0000
0100
0000
1000
0000
0010
0000
0100
0000
,
0001
0000
0010
0000
0100
0000
1000
0000
0010
0000
0100
0000
0001
1000
0001
0010
0200
0000
0300
0000
1000
0000
0010
0000
0100
0000
0010
0000
1000
0000
0001
0000
,
0100
0000
0001
0000
0010
0000
0100
0000
1000
0000
0001
0000
0100
0001
0010
0100
1000
0000
0001
0000
0100
0000
0001
1000
0001
0000
1000
0000
0100
0000
0010
0001
,
1000
0000
0001
0000
0100
0000
0010
1000
0010
0000
0100
0000
0001
0010
0100
1000
0001
0000
0100
0000
0010
0000
1000
0000
0100
0000
0010
0000
0001
0000
1000
0000
,
0001
0000
0000
0100
0000
0000
0010
0000
0000
0100
0000
0000
0001
0000
0000
0010
0000
0000
0100
0000
0000
1000
0000
0000
0001
0000
0010
0000
0100
0000
1000
0000
0001
0000
0100
0000
0010
0000
0100
0000
0001
0000
0010
0000
0100
0000
1000
0000
,
0001
0100
0001
1000
0100
0010
0001
1000
0001
0100
0010
0100
0001
1000
0100
0010
0001
0000
0100
0000
0000
0000
0001
0000
0010
0000
0100
0000
1000
0000
0001
0000
,
1000
0010
0000
0100
0001
0000
0000
1000
0100
0010
0100
1000
0001
0000
0100
0010
,
0100
0001
0010
0100
1000
0000
0001
0100
0101
0000
1000
0100
1100
0000
0010
0100
,
0101
0000
0000
0000
0001
0000
1000
0000
1001
0000
0000
0000
1000
0100
0010
0001
1000
0000
0000
0000
0001
0000
0100
0000
0101
0000
0000
0000
0100
0000
0010
0000
,
1010
0000
1000
0000
0001
0000
0010
0000
0100
0000
1000
0000
0001
0000
1000
0000
0001
0100
0001
1000
0100
0010
0001
1000
0001
0000
0100
0000
0001
0000
0010
0000
,
0100
0000
1000
0000
0001
0000
0100
0000
0010
0000
1000
0000
0100
0010
0001
1000
0001
0000
1000
0000
0100
0000
1000
0000
0010
0000
0100
0000
0001
0000
0010
0000
,
0100
0000
1000
0000
0001
0000
0100
0000
0010
0000
0100
0000
0001
1000
0100
0010
0001
1000
0100
1000
0001
0100
0010
0100
0001
0000
1000
0000
0010
0000
0100
0000
,
0010
0000
1000
0000
0001
0000
0010
0000
0100
0000
1000
0000
0001
0100
0001
1000
0100
0000
0010
0000
0100
0000
1000
0000
0010
0000
0100
0000
0001
0000
1000
0000
,
0001
0000
0100
0000
0001
0000
0010
0000
0100
0000
1000
0000
0001
0100
0001
1000
0020
0000
0000
0000
0000
0000
0000
0000
0000
0000
0000
0000
0100
0000
0000
0000
,
0001
0000
0230
0000
0302
0000
0000
0010
,
0100
1000
0020
0003
0230
0000
0000
1000
,
0010
0000
1000
0010
0002
0300
0203
2300
,
3020
0000
0000
0000
0230
0000
0000
0300
0102
0000
0000
0000
0000
0000
1000
0000
,
0100
0000
1000
0000
0200
0003
0000
0010
,
0001
0000
0010
1000
0002
0300
2000
0000
,
0000
0000
0000
3003
1001
0101
1001
0000
,
1100
1010
1100
1010
0110
0101
0110
0000
,
0101
0011
0101
0011
0000
0000
0000
0000
,
0000
0000
0000
0000
0000
0000
0000
0000
1101
0000
1000
0100
0010
0100
1000
0010
,
0100
0000
0001
0000
1000
0000
0001
0000
0010
0000
0100
0000
1000
0001
0100
0001
0100
0000
0010
0000
0100
0000
0001
0000
1000
0000
0100
0000
0010
0000
0001
0000
,
1000
0000
0100
0000
1000
0000
0010
0000
0100
0000
0001
0000
1000
0001
0010
0100
1000
0000
0001
0000
0100
0000
0010
0000
0100
0000
0001
0000
0010
0000
0100
0000
,
1000
0000
0001
0000
0100
0000
0010
0000
0100
0000
0001
0000
1000
0000
0000
0000
0001
0000
0100
0001
1000
0000
0010
0000
0100
0000
0001
1000
0001
0000
1000
0000
,
0001
0100
0001
1000
0100
0010
0001
1000
0010
0100
0010
1000
0001
0010
0100
1000
0001
0000
0100
0000
0010
0000
0100
0000
0001
0000
1000
0000
0100
0000
0010
0000
,
0100
0000
1000
0000
0010
0000
0100
0000
0001
0000
1000
0000
0001
1000
0100
0010
0100
0000
1000
0000
0001
0000
0100
0000
0010
0000
0100
0000
0001
0000
0010
0000
,
0100
0000
1000
0000
0001
0000
0100
0000
0010
0000
0100
0000
0001
1000
0100
0010
0001
0000
0000
0000
1000
0100
1000
0001
1000
0000
0000
0000
0001
0000
0010
0000
,
0100
0000
0000
0000
1000
0100
1000
0010
0100
0000
0000
0000
0001
0000
0010
0000
0100
0000
1000
0000
0010
0000
0100
0000
0001
0000
0000
0000
1001
0000
0000
0000
,
1101
0000
0000
0000
0000
0000
0001
0010
0200
0000
0000
0000
0000
0000
0000
0000
,
0000
0000
0300
0000
1001
0000
1000
0000
0110
0000
0001
1000
0100
0010
0100
1000
,
0010
0000
0100
0000
0001
0000
0010
0000
0100
0000
1000
0000
0001
0100
0001
1000
0100
0000
0010
0000
0100
0000
1000
0000
0010
0000
0100
0000
0001
0000
1000
0000
,
0100
0000
0010
0000
0001
0000
1000
0000
0010
0000
0100
0000
0001
0000
1000
0100
1000
0000
0001
0000
0010
0000
0100
1000
0001
0000
0100
0000
0010
0000
1000
0001
,
0100
0000
0001
0000
1000
0100
0010
0001
1000
0100
1000
0001
0100
0010
0100
0001
1000
0000
0001
0000
0000
0000
0100
0000
0001
0000
0100
0000
0010
0000
1000
0000
,
0001
0000
0000
0000
0000
0000
0000
0000
0010
0000
0000
0000
0000
0000
0000
0000
0100
0000
0000
0000
0000
0000
0000
0000
1000
0000
0000
0000
0000
0000
0000
0000
0010
0000
0000
0000
0000
0000
0000
0000
0100
0000
0000
0000
0000
0000
0000
0000
0001
0000
0000
0000
0000
0000
0000
0000
1000
0000
0000
0000
0000
0000
0000
0000
0001
0000
0000
0000
0000
0000
0000
0000
0010
0000
0000
0000
0000
0000
0100
0000
0000
0000
0000
0000
1000
0000
0000
0000
0000
0000
0001
0000
0000
0000
0000
0000
1000
0000
0000
0000
0000
0000
0000
0000
0000
0000
0000
0000
0100
0000
0000
0000
0000
0000
0000
0000
0000
0000
0000
0000
0010
0000
0000
0000
0000
0000
0000
0000
0000
0000
0000
0000
0100
0000
0000
0000
0000
0000
0000
0000
0000
0000
0000
0000
1000
0000
0000
0000
0000
0000
0000
0000
0000
0000
0000
0000
0010
0000
0000
0000
0000
0000
0000
0000
0000
0000
0000
0000
0100
0000
0000
0000
0000
0000
0000
0000
0000
0000
0000
0000
0001
0000
0000
0000
0000
0000
0000
0000
0000
0000
0000
0000
,
1000
0100
1000
0001
0100
0010
0100
0001
1000
0001
0010
0100
1000
0001
0100
0001
1000
0000
0100
0000
0000
0000
1000
0000
0001
0000
0010
0000
0100
0000
0010
0000
,
0100
1000
0000
0001
0100
0000
0010
1000
0100
0010
0100
1000
0010
0000
0100
0000
,
0001
0000
0001
0000
0010
0000
0000
0000
0110
0000
0000
0000
0100
0000
1000
0000
0010
0000
0100
0000
0001
0010
0100
1000
0001
0000
1000
0000
0010
0100
0010
1000
,
0001
0000
1000
0000
0100
0000
0010
0000
0100
0000
1000
0000
0001
1000
0100
0010
0001
0000
0100
0000
0001
0000
1000
0000
0100
0000
0010
0000
0100
0000
1000
0000
,
0010
0000
0100
0000
0001
1000
0001
0010
0100
0000
1000
0000
0001
0100
0001
1000
0100
0000
0010
0000
0000
0000
0100
0000
1000
0000
0000
0000
1010
0000
0000
0000
,
0110
0000
0000
0000
0100
0000
0001
0000
0010
0000
0000
0000
0100
0000
1000
0100
1000
0000
0001
0000
0100
0000
0010
1000
0010
0000
0100
0000
0001
0000
1000
0100
,
0010
0000
0001
0000
1000
0000
0001
0010
0100
0000
1000
0000
0001
0100
0010
0100
0001
0000
1000
0000
0001
0000
0100
0001
0100
0000
0001
0000
0010
0100
1000
0001
,
1000
0000
0010
0000
0100
0000
0001
0000
1000
0000
0001
0000
0100
0001
0010
0100
1000
0000
0001
0000
0100
0000
0010
0000
0100
0000
0001
0000
1000
0000
0100
0000
,
1000
0001
0100
0001
1000
0100
0010
0001
1000
0001
0100
0010
0100
0001
1000
0100
0010
0000
0100
0000
1000
0000
0010
0000
0100
0000
0000
0000
0001
0000
1000
0000
,
0001
0000
0000
0000
1000
0100
0010
0001
1000
0000
0000
0000
0001
0000
0000
0000
0101
0000
0000
0000
0110
0000
0000
0000
0101
0000
0000
0000
0000
0000
0000
0000
,
1010
0000
1100
0000
1010
0000
1100
0000
1001
0000
0011
0000
0110
0000
0100
1000
,
0001
0100
0010
1000
0100
0000
1000
0001
0200
0000
0000
0000
03M0
0000
0000
0000
;

//---------------dance-single - J. Nero----------------
#NOTES:
     dance-single:
     J. Nero:
     Hard:
     9:
     0.692,0.687,0.323,0.416,0.768,837.000,66.000,85.000,1.000,0.000:
0000
0000
0000
0000
0000
0000
0000
0000
0000
0000
1000
0010
0200
0000
0000
0000
0000
0000
0000
0000
0000
0000
0000
0000
,
0000
0000
0000
0000
0000
0000
0000
0000
0000
0000
0000
0000
0000
0000
0000
0000
0000
0000
0000
0000
0000
0000
0000
0000
0000
0000
0000
0000
0000
0000
0000
0000
0000
0000
0000
0000
0000
0000
0000
0000
0000
0000
0000
0000
0000
0000
0000
0000
0000
0000
0000
0000
0000
0000
0000
0000
0000
0000
0000
0000
0000
0000
0000
0000
0300
0000
0000
0000
0000
0000
0000
0000
0000
0000
0000
0000
0000
0000
0000
0000
0000
0000
0000
0000
0000
0000
0000
0000
0000
0000
0000
0000
0000
0000
0000
0000
0001
0000
0000
0000
0000
0000
0000
0000
0000
0000
0000
0000
0000
0000
0000
0000
0000
0000
0000
0000
0000
0000
0000
0000
1000
0000
0000
0000
0000
0000
0000
0000
0000
0000
0000
0000
0000
0000
0000
0000
0000
0000
0000
0000
0000
0000
0000
0000
0001
0000
0000
0000
0000
0000
0000
0000
0000
0000
0000
0000
0000
0000
0000
0000
1000
0000
0000
0000
0000
0000
0000
0000
0000
0000
0000
0000
0000
0000
0000
0000
0100
0000
0000
0000
0000
0000
0000
0000
0000
0000
0000
0000
0000
1000
0000
0000
,
0000
0000
0000
0000
0000
0000
0000
0000
0000
0001
0000
0000
0000
0000
0000
0000
0000
0000
0000
0000
0000
0000
0000
0000
0010
0000
0000
0000
0000
0000
0000
0000
0100
0000
0000
0000
0000
0000
0000
0000
1000
0000
0000
0000
0000
0000
0000
0000
0001
0000
0000
0000
0000
0000
0000
0000
0100
0000
0000
0000
0000
0000
0000
0000
0010
0000
0000
0000
0000
0000
0000
0000
0100
0000
0000
0000
0000
0000
0000
0000
0001
0000
0000
0000
0000
0000
0000
0000
1000
0000
0000
0000
0000
0000
0000
0000
0200
0000
0000
0000
0000
0000
0000
0000
0000
0000
0000
0000
0000
0000
0000
0000
0000
0000
0000
0000
0000
0000
0000
0000
0000
0000
0000
0000
0000
0000
0000
0000
0000
0000
0000
0000
0300
0000
0000
0000
0000
0000
0000
0000
0000
0000
0000
0000
2000
0000
0000
0000
0000
0000
0000
0000
0000
0000
0000
0000
0000
0000
0000
0000
0000
0000
0000
0000
0000
0000
0000
0000
0000
0000
0000
0000
0000
0000
0000
0000
0000
0000
0000
0000
0000
0000
0000
0000
0000
0000
0000
0000
0000
0000
0000
0000
,
0000
3000
1001
0101
,
0110
0000
1010
0100
0101
0000
1001
0000
,
1100
0000
0000
0000
1000
0001
0010
0100
1000
0001
0000
0100
0010
0000
0100
0000
,
0101
0000
0000
0000
0001
0000
0100
0010
0100
0000
0000
0000
0001
0000
0000
0000
0010
0000
0100
0000
0010
0000
0100
0000
1000
0000
0000
0000
0001
0000
0000
0000
,
1001
0000
0000
0000
1100
0000
0100
0000
1000
0010
0000
0100
0010
0000
0100
0000
,
0101
0000
1001
1000
0101
0110
0101
0000
,
1001
0000
1100
0000
1001
0000
1100
0000
1001
0001
0100
0001
0010
0100
1000
0001
,
0000
0001
0000
0010
0000
0100
0000
1000
0001
0100
0000
0010
0000
0010
0000
1000
,
0000
1000
0000
0001
1000
0000
0001
0000
0100
0001
0000
0001
0010
0100
1000
0001
,
0000
0001
0000
0200
0000
0000
0300
0000
0202
0303
0000
0000
2002
3003
0000
0000
,
1000
0100
1000
0001
0000
0001
0200
0000
0310
0000
1000
0100
0010
0100
1000
0010
,
0000
0100
0000
0001
0000
1000
0000
0001
1000
0100
0000
1000
0000
0001
0000
0100
,
0000
0000
0001
0000
0000
0000
0001
0000
0000
0000
0010
0000
0100
0000
1000
0001
1000
0000
0000
0000
0001
0000
0100
0000
0001
0000
0000
0000
1000
0000
0100
0000
,
0010
0000
0000
0000
0001
1000
0001
1000
0001
0000
0000
0000
1000
0000
0000
0000
0100
0000
0010
0000
0100
0000
1000
0000
0010
0000
0000
0000
0100
0000
0000
0000
,
1001
0000
0100
0000
1001
0000
1000
0100
0010
0100
0000
1000
0001
0000
0100
0000
,
0001
0000
0010
0000
0110
0000
0100
0000
1000
0100
0000
1000
0001
0000
0100
0000
,
0010
0000
0000
0000
1000
0000
0000
0000
1001
0000
0000
0000
0001
0000
1000
0100
1000
0000
0001
0000
0000
0000
0100
0000
0001
0000
0000
0000
0010
0000
0000
0000
,
0200
0000
0300
0000
1000
1000
0010
0010
0200
0300
0000
0000
0202
0303
0000
0000
,
2002
3003
0000
0000
2002
0000
0000
3003
1001
0000
1000
0100
0010
0100
1000
0001
,
0100
0000
0010
0000
0100
0000
0001
0000
1000
0100
1000
0001
0100
0010
0100
0000
,
0001
0000
0000
0000
0010
0000
0000
0000
0100
0000
0000
0000
1000
0000
0001
0100
0001
0000
0000
0000
2000
0000
0000
0000
3200
0000
0000
0000
0320
0000
0000
0000
,
0032
0000
0000
2003
0000
0000
3020
0000
0130
0001
1000
0001
0010
0100
1000
0001
,
0100
0010
0100
0001
1000
0100
0010
0001
1000
0100
0000
1000
0001
0000
1000
0100
,
0020
0000
0100
0000
0032
0000
1003
0000
0010
0100
0001
1000
0001
0000
1000
0000
,
0200
0000
0320
0000
0230
0000
1300
0010
0100
0001
0000
0100
0001
0010
0100
1000
,
0001
0000
0000
0000
1001
0000
0000
1000
0010
0100
0010
1000
0001
0000
0010
0100
,
1000
0010
0100
0001
1000
0000
0001
0100
0002
0000
0000
0000
0100
0000
0000
0000
,
1003
0100
0010
0000
0001
0000
1000
0001
1001
0000
0000
0000
0000
0000
0000
0000
,
0000
1000
0001
0000
0110
0000
0100
0001
0010
0100
0000
1000
0010
0000
0100
0000
,
0001
0000
0010
0000
0100
0000
1000
0000
1001
0000
0001
0100
0010
0100
0001
1000
,
0000
0100
0000
1000
0000
0000
0001
0000
0202
0303
0000
0000
0220
0000
0330
0000
,
0010
1000
0100
0010
0001
1000
0100
1000
0001
0000
1000
0100
0010
0000
0100
1000
,
0001
0000
0100
0001
0000
0001
0000
0010
0100
1000
0000
0001
0100
0000
0010
0000
,
1000
0000
0001
0010
0000
0010
0000
0400
0000
0000
0000
0000
0000
0000
0000
0000
,
0000
0000
0300
0000
1000
0100
1000
0010
0200
0300
0000
0000
0202
0303
0000
0000
,
2002
3003
0000
0000
0002
0000
2000
3003
2001
3000
0001
0100
0010
1000
0001
1000
,
0200
0000
0010
0000
2300
0000
3001
0000
0100
0001
1000
0100
0010
0100
1000
0000
,
0020
0000
0100
0000
0032
0000
1000
0003
0100
1000
0001
0100
0001
0000
0010
0000
,
0100
0000
1000
0001
0000
1000
0010
0000
0100
0001
1000
0001
0010
0100
1000
0010
,
1000
0001
0100
0010
0100
0001
1000
0001
1000
0100
0000
1000
0100
0010
0001
1000
,
0001
0000
0100
0000
0010
0000
1000
0000
0001
0100
0001
0010
0100
0000
1000
0000
,
0002
0000
0023
0000
0230
0000
1300
0001
0100
0010
0000
0100
0010
1000
0100
0010
,
0001
0000
0000
0000
1001
0000
0000
1000
0100
0010
0100
1000
0001
0000
0100
0010
,
0100
0001
0010
0100
1000
0000
0001
0100
0002
0000
0003
0000
0101
0000
0000
0000
,
0110
0000
1010
1000
0101
0000
1001
0000
,
1000
0100
1000
0000
0001
0100
0010
0100
0004
0000
1003
0100
1000
0100
0010
0000
,
0001
0000
0000
0000
0100
0000
0000
0000
0010
0000
0000
0000
1000
0000
0001
0100
0001
0000
0100
0000
0001
0000
1000
0000
0100
0000
0010
0000
0001
0000
1000
0000
,
0001
0000
0000
0000
0100
0000
0000
0000
0010
0000
0000
0000
0100
0000
0001
1000
0001
0000
1000
0000
0100
0000
0010
0000
0001
0000
1000
0000
0001
0000
0100
0000
,
0010
1000
0100
0010
0001
1000
0001
0100
,
0001
0010
0100
0000
1000
0000
0010
0100
0020
0000
0000
0000
0000
0000
0100
0000
,
1000
0000
0230
0000
0302
0000
0000
0010
,
0100
1000
0020
0003
0230
0000
0000
1000
,
0010
0000
1000
0010
2000
0300
3200
2300
,
3020
0000
0000
0000
0230
0000
0000
0300
0102
0000
0000
0000
0000
0000
1000
0000
,
0100
0000
1000
0000
0200
0003
0000
0010
,
0001
0000
0010
0001
0020
0300
2000
0000
,
0000
0000
0000
3030
1010
0110
1010
0000
,
1100
1010
1100
1010
0110
0101
0110
0000
,
0101
0011
0101
0011
0000
0000
0000
0000
,
0000
0000
0000
0000
0000
0000
0000
0000
1001
0000
1000
0100
0010
0100
1000
0010
,
0100
0001
0000
0100
0001
0000
1000
0000
0100
0010
0000
0100
0010
0000
0001
1000
,
0000
0100
0000
1000
0000
2000
0000
0000
3001
0100
0000
0001
0010
0100
1000
0001
,
0100
0000
0010
0000
1000
0000
0001
0000
0100
0001
1000
0001
0010
0100
1000
0010
,
0100
0001
1000
0100
1000
0010
0100
0001
2000
3000
0001
0010
0100
1000
0010
0100
,
0000
0001
0000
0100
0000
0001
0000
0001
0010
0100
0000
1000
0001
0000
0100
0000
,
0010
1000
0100
0010
0002
0003
1000
0100
,
1000
0000
0000
0000
0001
0000
1000
0100
0010
0000
0000
0000
0001
0000
0000
0000
1000
0000
0100
0000
0010
0000
0100
0000
1000
0000
0000
0000
0001
0000
0000
0000
,
2002
0000
3003
0000
0000
0000
1000
0001
0200
0000
0000
0000
0000
0000
0000
0000
,
0000
0000
0300
0000
1001
0000
1000
0000
0110
0000
0001
1000
0100
0010
0100
1000
,
0010
0100
0000
0010
0100
0000
0001
1000
0100
1000
0000
0001
0100
0000
0010
0000
,
1000
0000
0001
0100
0000
0001
0010
0000
0100
1000
0001
0100
0010
0100
0001
0010
,
0100
1000
0010
0100
0001
1000
0100
0010
0001
1000
0000
0001
1000
0010
0100
0001
,
0200
0000
0010
0000
0302
0000
0013
0000
0100
1000
0000
0100
1000
0000
0001
0000
,
2000
0000
3200
0000
0320
0000
0031
1000
0010
0100
0000
0010
0100
0001
1000
0100
,
0010
0000
0001
0000
1000
0000
0010
1000
0100
0010
0100
1000
0010
0000
0100
0000
,
0001
0000
0010
0000
0100
0000
0000
0000
1100
0000
0000
0000
1000
0000
0010
0000
0100
0000
0000
0000
0001
0000
1000
0001
1000
0000
0001
0000
0010
0000
0100
0000
,
2000
0000
0000
0000
0010
0000
0000
0000
3002
0000
0000
0000
1003
0000
0001
0100
0001
0000
0100
0000
0001
0000
0010
0000
0100
0000
1000
0000
0001
0000
0100
0000
,
0020
0000
0000
0000
0100
0000
0000
0000
2030
0000
0000
0000
3001
0000
0100
0010
0100
0000
0010
0000
0000
0000
0100
0000
0001
0000
0000
0000
0010
0000
0000
0000
,
0100
0000
1000
0100
0000
1000
0001
0000
1000
0100
0010
0100
1000
0010
0100
0001
,
1000
0001
0100
0010
0100
0001
0010
0100
1000
0001
0000
1000
0001
0100
0010
0100
,
0002
0000
0000
0000
0100
0000
0000
0000
2003
0000
0000
0000
3010
0000
1000
0100
1000
0000
0001
0000
0100
0000
0010
0000
0100
0000
0000
0000
0001
0000
0000
0000
,
2000
0000
3200
0000
0320
0000
0031
0100
0010
1000
0000
0010
1000
0100
0010
0001
,
1000
0000
0000
0000
0001
0000
0100
0001
0100
0000
0000
0000
0000
0000
0001
0000
0100
0000
0010
0000
0100
0000
0001
0000
0010
0000
0000
0000
0100
0000
0000
0000
,
2000
0000
0000
3000
0000
0000
0000
0001
0100
0001
0010
0100
1000
0000
0001
0100
,
0001
0100
0010
1000
0100
0000
0010
0001
0200
0000
0000
0000
03M0
0000
0000
0000
;
