#TITLE:Moleville;
#SUBTITLE:Super Mario RPG;
#ARTIST:Yoko Shimomura;
#TITLETRANSLIT:;
#SUBTITLETRANSLIT:;
#ARTISTTRANSLIT:;
#CREDIT:owenviau1;
#BANNER:../owenviau1 Simfiles 6 (Science X Owen).png;
#BACKGROUND:BG.PNG;
#LYRICSPATH:;
#CDTITLE:;
#MUSIC:Super Mario RPG - Moleville.mp3;
#OFFSET:-0.836;
#SAMPLESTART:20.756;
#SAMPLELENGTH:23.904;
#SELECTABLE:YES;
#BPMS:0.000=120.480;
#STOPS:;
#BGCHANGES:;
// cache tags:
#FIRSTBEAT:0.000;
#LASTBEAT:182.000;
#SONGFILENAME:Songs/owenviau1 Simfiles 6/Moleville - [owenviau1] v1.0.2/Moleville.sm;
#HASMUSIC:1;
#HASBANNER:1;
#MUSICLENGTH:94.080;
// end cache tags

//---------------dance-single - 9+ (owenviau1)----------------
#NOTES:
     dance-single:
     9+ (owenviau1):
     Medium:
     9:
     0.858,0.750,0.553,0.808,0.521,435.000,52.000,76.000,4.000,2.000:
1000
0100
0010
0001
0100
0000
0010
0000
1000
0000
0101
0000
1010
0000
0100
0000
,
0001
0010
0100
1000
0010
0000
0100
0000
0001
0000
1100
0000
0110
0000
0001
0000
,
1000
0010
1000
0001
0100
0000
0010
0000
1000
0000
0101
0000
0110
0000
1000
0000
,
0001
0100
0001
1000
0010
0000
0100
0000
0001
0000
0110
0000
1001
0000
0100
0000
,
0010
1000
0001
0100
0010
0000
1000
0000
0010
0000
0101
0000
1010
0000
0001
0000
,
0100
0010
1000
0001
0100
0000
0010
0000
1000
0000
0110
0000
0011
0000
1000
0010
,
0200
0000
0000
0000
0000
0000
0000
0000
0020
0000
0000
0030
1300
0000
0001
0000
0200
0000
0000
0000
0310
0000
0000
0000
200M
0000
0000
0000
3000
0000
0000
0000
,
0002
0000
0000
0000
0000
0000
0000
0000
0200
0000
0000
0300
0013
0000
1000
0000
0020
0000
0000
0000
0130
0000
0000
0000
M002
0000
0000
0000
0003
0000
0000
0000
,
2000
3000
0000
0000
0200
0300
0000
0000
0020
0030
0000
0000
0002
0003
0000
0000
0200
0300
0000
0000
0020
0030
0000
0000
2000
3000
0000
0000
0002
0003
0000
0000
,
0200
0300
0000
0000
0000
0000
0000
0000
0020
0000
0000
0000
0030
0000
0000
0000
0000
0000
0000
0000
1000
0000
0000
0000
0001
0000
0000
0000
1000
0000
0010
0000
,
0100
0001
1000
0001
0100
0000
0010
0000
1000
0000
0011
0000
0110
0000
1000
0000
,
0001
0100
0010
1000
0001
0000
1000
0000
0010
0000
0101
0000
1010
0000
0001
0000
,
0100
0010
1000
0001
0010
0000
0100
0000
1000
0000
0101
0000
1001
0000
0010
0000
,
1000
0100
0010
0001
0100
0000
0010
0000
1000
0000
0101
0000
0110
0000
1000
0000
,
0002
0000
0000
0000
1003
0100
0010
0001
0200
0300
0002
0003
2000
0000
0000
3000
,
0020
0000
0000
0000
1030
0100
0010
0001
2000
3000
0020
0030
0200
0000
0000
0300
,
0002
0000
2000
3000
0023
0000
0200
0300
2030
0000
0002
0003
3020
0000
0200
0300
,
1030
0000
0001
0000
0100
0000
0010
0000
1000
0000
0100
0000
1000
0000
0001
0000
0400
0040
0000
0000
0330
0000
0000
0000
0002
0000
0000
0000
0000
0000
0003
0000
,
0100
0010
1000
0001
0100
0000
0010
0000
1000
0000
0110
0000
0101
0000
0001
0000
,
1000
0100
0010
0001
1000
0000
0010
0000
0100
0000
1001
0000
0101
0000
0010
0000
,
1000
0100
0010
0001
0100
0010
1000
0001
0010
0001
1000
0100
0010
0001
0100
0010
,
1000
0001
0100
0010
2000
0000
0020
0000
3230
0000
0301
0000
1000
0000
0100
0010
,
0001
0100
0010
1000
0001
0000
0100
0000
0010
0000
1001
0000
1010
0000
0100
0000
,
0001
0010
0100
1000
0010
0000
0100
0000
0001
0000
1100
0000
0110
0000
0001
0000
,
1000
0010
1000
0001
0100
0000
0010
0000
1000
0000
0101
0000
0110
0000
1000
0000
,
0001
0100
0001
1000
0010
0000
0100
0000
0001
0000
0110
0000
1001
0000
1000
0010
,
0200
0000
0000
0000
0000
0000
0000
0000
0020
0000
0000
0030
1300
0000
0001
0000
0200
0000
0000
0000
0310
0000
0000
0000
200M
0000
0000
0000
3000
0000
0000
0000
,
0002
0000
0000
0000
0000
0000
0000
0000
0200
0000
0000
0300
0013
0000
1000
0000
0002
0000
0000
0000
0103
0000
0000
0000
M020
0000
0000
0000
0030
0000
0000
0000
,
2000
3000
0000
0000
0020
0030
0000
0000
0200
0300
0000
0000
0002
0003
0000
0000
2000
3000
0000
0000
0020
0030
0000
0000
2000
3000
0000
0000
0002
0003
0000
0000
,
0200
0300
0000
0000
0000
0000
0000
0000
0020
0000
0000
0000
0030
0000
0000
0000
0000
0000
0000
0000
0100
0000
0000
0000
0001
0000
0000
0000
1000
0000
0010
0000
,
0100
0001
1000
0001
0100
0000
0010
0000
1000
0000
0011
0000
0110
0000
1000
0000
,
0001
0100
0010
1000
0001
0000
1000
0000
0010
0000
0101
0000
1010
0000
0001
0000
,
0100
0010
1000
0001
0010
0000
0100
0000
1000
0000
0101
0000
1001
0000
0010
0000
,
1000
0100
0010
0001
0100
0000
0010
0000
1000
0000
0101
0000
0110
0000
1000
0000
,
0002
0000
0000
0000
1003
0010
1000
0001
0200
0300
0002
0003
2000
0000
0000
3000
,
0020
0000
0000
0000
0130
0001
0010
0100
2000
3000
0020
0030
0200
0000
0000
0300
,
0002
0000
2000
3000
0023
0000
0200
0300
2030
0000
0002
0003
3020
0000
0200
0300
,
1030
0000
0001
0000
0010
0000
0001
0000
0100
0000
0010
0000
1000
0000
0001
0000
0400
0040
0000
0000
0330
0000
0000
0000
0002
0000
0000
0000
0000
0000
0003
0000
,
0100
0010
1000
0001
0100
0000
0010
0000
1000
0000
0110
0000
0101
0000
0001
0000
,
1000
0100
0010
0001
1000
0000
0010
0000
0100
0000
1001
0000
0101
0000
0010
0000
,
1000
0100
0010
0001
0100
0010
1000
0010
0100
0001
1000
0100
0010
0001
0100
0010
,
1000
0010
0100
0001
2000
0000
0200
0000
3320
0000
0031
0000
0100
0000
0010
1000
,
0100
0010
0001
0100
0010
0000
1000
0000
0100
0000
1001
0000
0110
0000
1000
0000
,
0001
0010
0100
1000
0010
0000
0100
0000
0001
0000
1100
0000
0110
0000
0001
0000
,
1000
0010
1000
0001
0100
0000
0010
0000
1000
0000
0101
0000
0110
0000
1000
0000
,
0001
0100
0001
1000
0010
0000
0100
0000
0001
0000
0000
0000
0000
0000
0000
0000
,
0000
0000
0000
0000
;

//---------------dance-single - 15 (owenviau1)----------------
#NOTES:
     dance-single:
     15 (owenviau1):
     Hard:
     15:
     0.958,1.000,0.531,0.808,0.872,505.000,50.000,76.000,4.000,2.000:
1000
0100
0010
0001
0100
0000
0010
0000
1000
0000
0101
0000
1010
0000
0100
0000
,
0001
0010
0100
1000
0010
0000
0100
0000
0001
0000
1100
0000
0110
0000
0001
0000
,
1000
0010
1000
0001
0100
0000
0010
0000
1000
0000
0101
0000
0110
0000
1000
0000
,
0001
0100
0001
1000
0010
0000
0100
0000
0001
0000
0110
0000
1001
0000
0100
0000
,
0010
1000
0001
0100
0010
0000
1000
0000
0010
0000
0101
0000
1010
0000
0001
0000
,
0100
0010
1000
0001
0100
0000
0010
0000
1000
0000
0110
0000
0011
0000
1000
0010
,
0200
0000
0000
0000
0000
0000
0000
0000
0020
0000
0000
0030
1300
0000
0001
0000
0200
0000
0000
0000
0310
0000
0000
0000
200M
0000
0000
0000
3000
0000
0000
0000
,
0002
0000
0000
0000
0000
0000
0000
0000
0200
0000
0000
0300
0013
0000
1000
0000
0020
0000
0000
0000
0130
0000
0000
0000
M002
0000
0000
0000
0003
0000
0000
0000
,
2000
3000
0000
0000
0200
0300
0000
0000
0020
0030
0000
0000
0002
0003
0000
0000
0200
0300
0000
0000
0020
0030
0000
0000
2000
3000
0000
0000
0002
0003
0000
0000
,
0200
0300
0000
0000
0000
0000
0000
0000
0020
0000
0000
0000
0030
0000
0000
0000
0000
0000
0000
0000
1000
0000
0000
0000
0001
0000
0000
0000
1000
0000
0010
0000
,
0100
0001
1000
0001
0100
0000
0010
0000
1000
0000
0011
0000
0110
0000
1000
0000
,
0001
0100
0010
1000
0001
0000
1000
0000
0010
0000
0101
0000
1010
0000
0001
0000
,
0100
0010
1000
0001
0010
0000
0100
0000
1000
0000
0101
0000
1001
0000
0010
0000
,
1000
0100
0010
0001
0100
0000
0010
0000
1000
0000
0101
0000
0110
0000
1000
0000
,
0002
0000
0000
0000
0000
0000
0000
0000
1003
0100
0010
0001
0100
0010
1000
0001
0200
0000
0300
0000
0002
0000
0003
0000
2000
0000
0000
0000
0000
0000
3000
0000
,
0020
0000
0000
0000
0000
0000
0000
0000
1030
0100
0010
0001
0100
0010
1000
0001
0200
0000
0300
0000
0020
0000
0030
0000
0200
0000
0000
0000
0000
0000
0300
0000
,
0002
0000
2000
3000
0023
0000
0200
0300
2030
0000
0002
0003
3020
0000
0200
0300
,
1030
0001
0100
0000
0010
1000
0001
0000
1000
0100
1000
0000
0001
0100
0010
0000
1000
0001
0100
0010
1000
0000
0000
0000
0002
0000
0000
0000
0000
0000
0003
0000
,
0100
0010
1000
0001
0100
0000
0010
0000
1000
0000
0110
0000
0101
0000
0001
0000
,
1000
0100
0010
0001
1000
0000
0010
0000
0100
0000
1001
0000
0101
0000
0010
0000
,
1000
0100
0010
0001
0100
0010
1000
0001
0010
0001
1000
0100
0010
0001
0100
0010
1000
0010
0100
0001
1000
0100
1000
0010
0100
0001
1000
0100
0010
0001
0100
0010
,
1000
0001
0100
0010
2000
0000
0020
0000
3230
0000
0301
0000
1000
0000
0100
0010
,
0001
0100
0010
1000
0001
0000
0100
0000
0010
0000
1001
0000
1010
0000
0100
0000
,
0001
0010
0100
1000
0010
0000
0100
0000
0001
0000
1100
0000
0110
0000
0001
0000
,
1000
0010
1000
0001
0100
0000
0010
0000
1000
0000
0101
0000
0110
0000
1000
0000
,
0001
0100
0001
1000
0010
0000
0100
0000
0001
0000
0110
0000
1001
0000
1000
0010
,
0200
0000
0000
0000
0000
0000
0000
0000
0020
0000
0000
0030
1300
0000
0001
0000
0200
0000
0000
0000
0310
0000
0000
0000
200M
0000
0000
0000
3000
0000
0000
0000
,
0002
0000
0000
0000
0000
0000
0000
0000
0200
0000
0000
0300
0013
0000
1000
0000
0002
0000
0000
0000
0103
0000
0000
0000
M020
0000
0000
0000
0030
0000
0000
0000
,
2000
3000
0000
0000
0020
0030
0000
0000
0200
0300
0000
0000
0002
0003
0000
0000
2000
3000
0000
0000
0020
0030
0000
0000
2000
3000
0000
0000
0002
0003
0000
0000
,
0200
0300
0000
0000
0000
0000
0000
0000
0020
0000
0000
0000
0030
0000
0000
0000
0000
0000
0000
0000
0100
0000
0000
0000
0001
0000
0000
0000
1000
0000
0010
0000
,
0100
0001
1000
0001
0100
0000
0010
0000
1000
0000
0011
0000
0110
0000
1000
0000
,
0001
0100
0010
1000
0001
0000
1000
0000
0010
0000
0101
0000
1010
0000
0001
0000
,
0100
0010
1000
0001
0010
0000
0100
0000
1000
0000
0101
0000
1001
0000
0010
0000
,
1000
0100
0010
0001
0100
0000
0010
0000
1000
0000
0101
0000
0110
0000
1000
0000
,
0002
0000
0000
0000
0000
0000
0000
0000
1003
0010
0100
0001
1000
0100
0010
0001
0200
0000
0300
0000
0002
0000
0003
0000
2000
0000
0000
0000
0000
0000
3000
0000
,
0020
0000
0000
0000
0000
0000
0000
0000
0130
0001
1000
0100
0010
0001
0100
0010
2000
0000
3000
0000
0020
0000
0030
0000
0200
0000
0000
0000
0000
0000
0300
0000
,
0002
0000
2000
3000
0023
0000
0200
0300
2030
0000
0002
0003
3020
0000
0200
0300
,
1030
0001
0100
0010
1000
0100
0010
0001
0100
0010
1000
0001
0010
0001
0100
0010
1000
0001
0100
0010
1000
0000
0000
0000
0002
0000
0000
0000
0000
0000
0003
0000
,
0100
0010
1000
0001
0100
0000
0010
0000
1000
0000
0110
0000
0101
0000
0001
0000
,
1000
0100
0010
0001
1000
0000
0010
0000
0100
0000
1001
0000
0101
0000
0010
0000
,
1000
0010
0100
0001
1000
0100
1000
0010
0100
0001
1000
0100
0010
0001
0100
0010
1000
0001
0100
0001
1000
0010
1000
0001
0010
0100
1000
0100
0010
0001
0100
0010
,
1000
0010
0100
0001
2000
0000
0200
0000
3320
0000
0031
0000
0100
0000
0010
1000
,
0100
0010
0001
0100
0010
0000
1000
0000
0100
0000
1001
0000
0110
0000
1000
0000
,
0001
0010
0100
1000
0010
0000
0100
0000
0001
0000
1100
0000
0110
0000
0001
0000
,
1000
0010
1000
0001
0100
0000
0010
0000
1000
0000
0101
0000
0110
0000
1000
0000
,
0001
0100
0001
1000
0010
0000
0100
0000
0001
0000
0000
0000
0000
0000
0000
0000
,
0000
0000
0000
0000
;

//---------------dance-single - 21 (owenviau1)----------------
#NOTES:
     dance-single:
     21 (owenviau1):
     Challenge:
     21:
     1.000,1.000,0.531,0.808,1.000,551.000,50.000,76.000,4.000,2.000:
1000
0100
0010
0001
0100
0000
0010
0000
1000
0000
0101
0000
1010
0000
0100
0000
,
0001
0010
0100
1000
0010
0000
0100
0000
0001
0000
1100
0000
0110
0000
0001
0000
,
1000
0010
1000
0001
0100
0000
0010
0000
1000
0000
0101
0000
0110
0000
1000
0000
,
0001
0100
0001
1000
0010
0000
0100
0000
0001
0000
0110
0000
1001
0000
0100
0000
,
0010
1000
0001
0100
0010
0000
1000
0000
0010
0000
0101
0000
1010
0000
0001
0000
,
0100
0010
1000
0001
0100
0000
0010
0000
1000
0000
0110
0000
0011
0000
1000
0010
,
0200
0000
0000
0000
0000
0000
0000
0000
0020
0000
0000
0030
1300
0000
0001
0000
0200
0000
0000
0000
0310
0000
0000
0000
200M
0000
0000
0000
3000
0000
0000
0000
,
0002
0000
0000
0000
0000
0000
0000
0000
0200
0000
0000
0300
0013
0000
1000
0000
0020
0000
0000
0000
0130
0000
0000
0000
M002
0000
0000
0000
0003
0000
0000
0000
,
2000
3000
0000
0000
0200
0300
0000
0000
0020
0030
0000
0000
0002
0003
0000
0000
0200
0300
0000
0000
0020
0030
0000
0000
2000
3000
0000
0000
0002
0003
0000
0000
,
0200
0300
0000
0000
0000
0000
0000
0000
0020
0000
0000
0000
0030
0000
0000
0000
0000
0000
0000
0000
1000
0000
0000
0000
0001
0000
0000
0000
1000
0000
0010
0000
,
0100
0001
1000
0001
0100
0000
0010
0000
1000
0000
0011
0000
0110
0000
1000
0000
,
0001
0100
0010
1000
0001
0000
1000
0000
0010
0000
0101
0000
1010
0000
0001
0000
,
0100
0010
1000
0001
0010
0000
0100
0000
1000
0000
0101
0000
1001
0000
0010
0000
,
1000
0100
0010
0001
0100
0000
0010
0000
1000
0000
0101
0000
0110
0000
1000
0000
,
0002
0000
0000
0000
0000
0000
0000
0000
0000
0000
0000
0000
1003
0100
0010
0001
0100
0010
1000
0100
0010
0001
1000
0010
0200
0000
0000
0300
0000
0000
0002
0000
0000
0003
0000
0000
2000
0000
0000
0000
0000
0000
0000
0000
0000
3000
0000
0000
,
0020
0000
0000
0000
0000
0000
0000
0000
0000
0000
0000
0000
1030
0001
0100
0010
1000
0001
0010
0100
1000
0100
0010
0001
2000
0000
0000
3000
0000
0000
0020
0000
0000
0030
0000
0000
0200
0000
0000
0000
0000
0000
0000
0000
0000
0300
0000
0000
,
0002
0000
2000
3000
0023
0000
0200
0300
2030
0000
0002
0003
3020
0000
0200
0300
,
1030
0000
0001
0000
0100
0000
0010
0000
1000
0000
0000
0000
0001
0000
0010
0000
0100
0000
1000
0000
0001
0000
0000
0000
0100
0000
0010
0000
1000
0000
0001
0000
0100
0000
0000
0000
0010
0000
1000
0000
0001
0000
0010
0000
0100
0000
0000
0000
1000
0000
0000
0001
0000
0000
0100
0000
0000
0010
0000
0000
1000
0000
0000
0000
0000
0000
0000
0000
0000
0000
0000
0000
0002
0000
0000
0000
0000
0000
0000
0000
0000
0000
0000
0000
0000
0000
0000
0000
0000
0000
0003
0000
0000
0000
0000
0000
,
0100
0010
1000
0001
0100
0000
0010
0000
1000
0000
0110
0000
0101
0000
0001
0000
,
1000
0100
0010
0001
1000
0000
0010
0000
0100
0000
1001
0000
0101
0000
0010
0000
,
1000
0100
0010
0001
1000
0000
0010
0100
0001
1000
0010
0000
0100
0001
1000
0100
0010
0000
0001
0010
0100
1000
0001
0000
0100
0010
1000
0001
0100
0000
0010
1000
0100
0010
0001
0000
0100
0010
1000
0001
0100
0000
0010
1000
0001
0010
0100
1000
,
0001
0100
0010
1000
0002
0000
0200
0000
0323
0000
1030
0000
0001
0000
0010
0100
,
1000
0100
0010
0001
0100
0000
0010
0000
1000
0000
0101
0000
1010
0000
0100
0000
,
0001
0010
0100
1000
0010
0000
0100
0000
0001
0000
1100
0000
0110
0000
0001
0000
,
1000
0010
1000
0001
0100
0000
0010
0000
1000
0000
0101
0000
0110
0000
1000
0000
,
0001
0100
0001
1000
0010
0000
0100
0000
0001
0000
0110
0000
1001
0000
1000
0010
,
0200
0000
0000
0000
0000
0000
0000
0000
0020
0000
0000
0030
1300
0000
0001
0000
0200
0000
0000
0000
0310
0000
0000
0000
200M
0000
0000
0000
3000
0000
0000
0000
,
0002
0000
0000
0000
0000
0000
0000
0000
0200
0000
0000
0300
0013
0000
1000
0000
0002
0000
0000
0000
0103
0000
0000
0000
M020
0000
0000
0000
0030
0000
0000
0000
,
2000
3000
0000
0000
0020
0030
0000
0000
0200
0300
0000
0000
0002
0003
0000
0000
2000
3000
0000
0000
0020
0030
0000
0000
2000
3000
0000
0000
0002
0003
0000
0000
,
0200
0300
0000
0000
0000
0000
0000
0000
0020
0000
0000
0000
0030
0000
0000
0000
0000
0000
0000
0000
0100
0000
0000
0000
0001
0000
0000
0000
1000
0000
0010
0000
,
0100
0001
1000
0001
0100
0000
0010
0000
1000
0000
0011
0000
0110
0000
1000
0000
,
0001
0100
0010
1000
0001
0000
1000
0000
0010
0000
0101
0000
1010
0000
0001
0000
,
0100
0010
1000
0001
0010
0000
0100
0000
1000
0000
0101
0000
1001
0000
0010
0000
,
1000
0100
0010
0001
0100
0000
0010
0000
1000
0000
0101
0000
0110
0000
1000
0000
,
0002
0000
0000
0000
0000
0000
0000
0000
0000
0000
0000
0000
1003
0100
0010
0001
0100
0010
1000
0100
0010
0001
1000
0010
0200
0000
0000
0300
0000
0000
0002
0000
0000
0003
0000
0000
2000
0000
0000
0000
0000
0000
0000
0000
0000
3000
0000
0000
,
0020
0000
0000
0000
0000
0000
0000
0000
0000
0000
0000
0000
1030
0001
0100
0010
1000
0001
0010
0100
1000
0100
0010
0001
2000
0000
0000
3000
0000
0000
0020
0000
0000
0030
0000
0000
0200
0000
0000
0000
0000
0000
0000
0000
0000
0300
0000
0000
,
0002
0000
2000
3000
0023
0000
0200
0300
2030
0000
0002
0003
3020
0000
0200
0300
,
1030
0000
0001
0000
0100
0000
0010
0000
1000
0000
0000
0000
0001
0000
0010
0000
0100
0000
1000
0000
0001
0000
0000
0000
0100
0000
0010
0000
1000
0000
0001
0000
0100
0000
0000
0000
0010
0000
1000
0000
0001
0000
0010
0000
0100
0000
0000
0000
1000
0000
0000
0001
0000
0000
0100
0000
0000
0010
0000
0000
1000
0000
0000
0000
0000
0000
0000
0000
0000
0000
0000
0000
0002
0000
0000
0000
0000
0000
0000
0000
0000
0000
0000
0000
0000
0000
0000
0000
0000
0000
0003
0000
0000
0000
0000
0000
,
0100
0010
1000
0001
0100
0000
0010
0000
1000
0000
0110
0000
0101
0000
0001
0000
,
1000
0100
0010
0001
1000
0000
0010
0000
0100
0000
1001
0000
0101
0000
0010
0000
,
1000
0100
0010
0001
1000
0000
0010
0100
0001
1000
0010
0000
0100
0001
1000
0100
0010
0000
0001
0010
0100
1000
0001
0000
0100
0010
1000
0001
0100
0000
0010
1000
0100
0010
0001
0000
0100
0010
1000
0001
0100
0000
0010
1000
0001
0010
0100
1000
,
0001
0100
0010
1000
0002
0000
0200
0000
0323
0000
1030
0000
0001
0000
0010
0100
,
1000
0001
0100
0001
1000
0000
0010
0000
0100
0000
1001
0000
0110
0000
1000
0000
,
0001
0010
0100
1000
0010
0000
0100
0000
0001
0000
1100
0000
0110
0000
0001
0000
,
1000
0010
1000
0001
0100
0000
0010
0000
1000
0000
0101
0000
0110
0000
1000
0000
,
0001
0100
0001
1000
0010
0000
0100
0000
0001
0000
0000
0000
0000
0000
0000
0000
,
0000
0000
0000
0000
;
