#TITLE:TRiGGER;
#SUBTITLE:(Zekk Remix);
#ARTIST:Dustvoxx;
#TITLETRANSLIT:;
#SUBTITLETRANSLIT:;
#ARTISTTRANSLIT:;
#CREDIT:Owem;
#BANNER:;
#BACKGROUND:;
#LYRICSPATH:;
#CDTITLE:;
#MUSIC:Dustvoxx - TRiGGER ( Zekk Remix ).ogg;
#OFFSET:-0.128;
#SAMPLESTART:30.128;
#SAMPLELENGTH:12.000;
#SELECTABLE:YES;
#BPMS:0.000=200.000;
#STOPS:;
#BGCHANGES:;
// cache tags:
#FIRSTBEAT:0.000;
#LASTBEAT:833.500;
#SONGFILENAME:Songs/Owem's Simfiles 08 - 1.2/TRiGGER - [Owem] v1.0.0/TRiGGER.sm;
#HASMUSIC:1;
#HASBANNER:0;
#MUSICLENGTH:252.473;
// end cache tags

//---------------dance-single - 16- (Owem)----------------
#NOTES:
     dance-single:
     16- (Owem):
     Challenge:
     16:
     1.000,1.000,0.087,0.424,1.000,2053.000,22.000,107.000,29.000,0.000:
1000
0000
0100
0010
0001
0000
1000
0001
1000
0000
0010
0100
0001
0000
1000
0000
,
0100
0000
0010
0001
1000
0000
0001
0100
0010
1000
0000
0001
0100
0000
0010
0000
,
1000
0000
0001
0010
0100
0000
2000
3010
0100
0000
0002
1003
0010
0000
0100
0000
,
0002
0003
1000
0100
0010
0000
0001
1000
0040
0000
0230
0000
0302
0003
0002
0003
,
1000
0000
0100
0010
0001
0000
1000
0010
0100
0000
0001
1000
0001
0000
0010
0000
,
0100
0000
1000
0001
0100
0000
0010
1000
0010
0100
0000
0001
1000
0000
0100
0000
,
0020
0030
0001
1000
0001
0000
0100
0010
1000
0001
1000
0001
0020
0000
0130
0000
,
2000
0000
3002
0000
0103
0010
0100
0010
1000
0000
0001
0000
0010
0000
0100
1000
,
0001
0000
0100
0000
0010
0000
2000
3001
1000
0000
0200
0310
0001
0000
1000
0000
,
0020
0000
0130
0001
1000
0001
0100
0010
1000
0001
1000
0100
0010
0000
0001
1000
,
0010
0000
0100
0001
0100
0000
0010
1000
0001
1000
0100
0010
0001
1000
0010
0100
,
0001
0000
1000
0100
0010
0000
0001
0100
0020
0000
0130
0001
2000
3000
2000
3000
,
0100
0000
0010
0000
0001
0000
1000
0010
0100
0000
0001
1000
0001
0000
0010
0100
,
1000
0000
0010
0100
0001
0000
1000
0001
0100
0010
0100
0001
1000
0000
0100
0000
,
0010
0001
1000
0001
0100
0010
1000
0001
0100
0001
1000
0100
0010
0001
0100
0001
,
1000
0010
0100
0000
0001
0000
1000
0000
0100
0000
0020
0000
0032
0000
2003
0000
,
3010
0000
0100
0000
0001
1000
0100
1000
0010
0100
0001
1000
0010
1000
0001
0100
,
0010
0100
0001
1000
0100
0010
0100
1000
0001
0010
0001
1000
0002
0103
0010
1000
,
0001
0100
0001
0010
0100
1000
0001
1000
0010
0100
0001
1000
0010
1000
0001
0100
,
0010
0100
0001
1000
0100
1000
0010
0100
0001
0000
1000
0010
0100
0000
0001
0000
,
1000
0100
0010
0001
1000
0001
0100
0010
1000
0001
0100
0001
0010
0100
1000
0001
,
0010
0001
1000
0001
0100
0010
0100
0001
1000
0100
1000
0010
1000
0001
0100
0010
,
0100
0001
1000
0100
0010
0001
1000
0001
0100
0010
1000
0001
0010
0100
1000
0001
,
0200
0000
0000
0000
0310
0000
1000
0000
0002
0000
0000
0000
1003
0100
1000
0100
,
0010
0000
0010
0000
0001
1000
0001
0100
0010
1000
0001
0100
0001
1000
0100
0010
,
0100
1000
0001
0100
0010
1000
0001
0010
0001
0100
0010
1000
0001
0010
0100
1000
,
0100
0010
0001
1000
0100
1000
0010
1000
0001
0100
0010
1000
0001
0100
0001
1000
,
0010
0100
0001
0100
0010
1000
0100
1000
0001
0000
0100
0010
2000
0000
3002
0000
,
2003
0000
3100
0010
0011
0000
0001
1000
,
0100
0010
0001
0000
1000
0010
1000
0001
0100
0000
0010
1000
0001
0000
0100
0000
,
0110
0000
0000
0000
0000
0000
0000
0000
0000
0000
0000
0000
0000
0000
0000
0000
0000
0000
0000
0000
0000
0000
0000
0000
0010
0000
0000
0000
0000
0000
0000
0000
0000
0000
0000
0000
2000
0000
0000
0000
0000
0000
0000
0000
0000
0000
0000
0000
0000
0000
0000
0000
0000
0000
0000
0000
0000
0000
0000
0000
3001
0000
0000
0000
0000
0000
0000
0000
0000
0000
0000
0000
0200
0000
0000
0000
0000
0000
0000
0000
0000
0000
0000
0000
0000
0000
0000
0000
0000
0000
0000
0000
0000
0000
0000
0000
0310
0000
0000
0000
0000
0000
0000
0000
0000
0000
1000
0000
0000
0000
0000
0000
0000
0000
0000
0001
0000
0000
0000
0000
0000
0000
0000
0000
0000
1000
0000
0000
0000
0000
0000
0000
0000
0000
0010
0000
0000
0000
0000
0000
0000
0000
0000
0000
0200
0000
0000
0000
0000
0000
0000
0000
0000
0000
0000
0000
0000
0000
0000
0000
0000
0000
0000
0000
0000
0000
0000
0000
0301
0000
0000
0000
0000
0000
0000
0000
0000
0000
0000
0000
1000
0000
0000
0000
0000
0000
0000
0000
0000
0000
0000
0000
,
0002
0013
0200
0300
2100
0000
0000
0000
,
3001
0000
0000
0000
,
0000
0000
0000
0000
,
0000
0000
0000
0000
,
0000
0000
0000
0000
,
0000
0000
0000
0000
,
0000
0000
0000
0000
,
0000
0000
0000
0000
,
0000
0000
0000
0000
,
1MM1
0000
1000
0100
1000
0010
0100
0001
,
1000
0001
0010
0100
1000
0001
0200
0000
,
0310
0000
1000
0001
1000
0100
0010
0000
,
0001
0000
1000
0010
1000
0000
0001
0000
,
0100
0000
0010
1000
0010
0100
0001
1000
,
0001
0010
0100
1000
0001
1000
0010
1000
,
0001
0000
0010
0100
1000
0001
0100
0001
,
1MM1
0000
0000
0000
1000
0000
0000
0000
0010
0100
0001
1000
0001
0000
0010
0100
,
1000
0001
0100
0000
0010
0000
1000
0010
,
0100
0000
0001
0000
0100
0010
1000
0001
,
0010
0100
1000
0001
0100
0100
0001
1000
,
0100
0000
0010
0000
0001
0000
1000
0000
0010
0000
0100
0000
0010
0000
1000
0001
,
0200
0310
1000
0000
0001
0000
1000
0001
,
1000
0000
0010
0000
1000
0010
0100
0001
,
1000
0000
0010
0100
0001
0000
1000
0010
,
0100
0000
0010
0000
1000
0000
0001
0000
1000
0100
0010
0000
0001
0000
1000
0000
,
1010
0000
0010
0000
0100
0000
0001
1000
0001
0010
0100
1000
0010
0000
0100
0000
,
0001
0000
1000
0100
1000
0000
0010
0100
0001
0000
1000
0010
0100
0000
0001
1000
,
0010
0000
0100
0001
1000
0000
0010
0100
0001
0000
1000
0100
1000
0000
0010
0000
,
0100
0000
0001
1000
0001
0000
0010
0100
1000
0000
0010
0100
0002
0000
0000
0000
,
1003
0100
0010
0001
1000
0010
0100
0001
,
1000
0100
1000
0010
0100
0001
1000
0001
0010
0100
1000
0100
0010
0001
1000
0010
,
0200
0000
0300
0000
,
0010
0000
1000
0001
1000
0100
0010
0000
0001
0000
1000
0000
0010
0000
0100
0001
,
2000
0000
3010
0100
00M1
1000
010M
0010
,
0001
1M00
0001
0010
M001
0100
001M
1000
,
0M01
0010
0100
1000
010M
0010
0M01
1000
,
0001
0000
M200
0000
0310
0000
1000
0000
004M
0000
0000
0000
0230
0000
0000
0301
,
2000
3000
0400
0310
MM11
0001
1M00
0010
,
0010
M100
0001
0001
10M0
0100
100M
0010
,
M100
0000
0001
0000
1000
010M
M010
0000
M001
0000
0100
0000
001M
0000
0010
0000
,
4000
0000
0000
3000
0002
0000
0003
0100
0010
1000
0001
1000
0100
0000
0010
0001
,
2000
0000
3010
0000
0100
0000
0002
0003
1000
0000
0010
0000
0100
0000
0001
0000
,
0001
1000
0100
0100
0010
0010
0001
1000
,
0001
0100
0010
0100
0001
1000
0100
0010
,
0001
0000
1000
0000
0010
0000
0100
0000
0004
0000
0000
0000
2003
0000
0000
3100
,
0010
0000
0000
0000
0002
0000
2003
3000
1010
0000
0010
0000
0100
0000
0001
0000
,
0001
0000
0000
0000
0000
0000
0000
0000
0000
0000
0000
0000
0000
0000
0000
0000
0000
0000
0000
0000
0000
0000
0000
0000
1000
0000
0000
0000
0000
0000
0000
0000
0000
0000
0000
0000
0010
0000
0000
0000
0000
0000
0000
0000
0000
0000
0000
0000
1000
0000
0000
0000
0000
0000
0000
0000
0000
0000
0000
0000
0000
0000
0000
0000
0000
0000
0000
0000
0000
0000
0000
0000
0001
0000
0000
0000
0000
0000
0000
0000
0000
0000
0000
0000
0000
0000
0000
0000
0000
0000
0000
0000
0000
0000
0000
0000
0100
0000
0000
0000
0000
0000
0000
0000
0000
0000
0000
0000
0000
0000
0000
0000
0000
0000
0000
0000
0000
0000
0000
0000
0100
0000
0000
0000
0000
0000
0000
0000
0000
0000
0000
0000
0000
0000
0000
0000
0000
0000
0000
0000
0000
0000
0000
0000
0010
0000
0000
0000
0000
0000
0000
0000
0000
0000
1000
0000
0000
0000
0000
0000
0000
0000
0000
0010
0000
0000
0000
0000
0000
0000
0000
0000
0000
1000
0000
0000
0000
0000
0000
0000
0000
0000
0010
0000
0000
0000
0000
0000
0000
0000
0000
0000
,
0100
0000
0000
0000
0000
0000
0000
0000
0000
0000
0000
0000
0000
0000
0000
0000
0000
0000
0000
0000
0000
0000
0000
0000
0001
0000
0000
0000
0000
0000
0000
0000
0000
0000
0000
0000
1000
0000
0000
0000
0000
0000
0000
0000
0000
0000
0000
0000
0000
0000
0000
0000
0000
0000
0000
0000
0000
0000
0000
0000
0010
0000
0000
0000
0000
0000
0000
0000
0000
0000
0000
0000
1000
0000
0000
0000
0000
0000
0000
0000
0000
0000
0000
0000
0000
0000
0000
0000
0000
0000
0000
0000
0000
0000
0000
0000
0001
0000
0000
0000
0000
0000
0000
0000
0000
0000
0100
0000
0000
0000
0000
0000
0000
0000
0000
0001
0000
0000
0000
0000
0000
0000
0000
0000
0000
1000
0000
0000
0000
0000
0000
0000
0000
0000
0010
0000
0000
0000
0000
0000
0000
0000
0000
0000
0100
0000
0000
0000
0000
0000
0000
0000
0000
0000
0000
0000
0000
0000
0000
0000
0000
0000
0000
0000
0000
0000
0000
0000
0001
0000
0000
0000
0000
0000
0000
0000
0000
0000
0000
0000
0000
0000
0000
0000
0000
0000
0000
0000
0000
0000
0000
0000
,
1000
0000
0100
0000
0010
0000
0001
0000
0100
0010
1000
0001
2000
0000
0000
0000
,
3100
0010
0001
1000
0001
0000
0100
0000
0010
1000
0001
0100
0010
0100
0001
1000
,
0100
0010
0100
1000
0001
0010
0001
1000
0001
0100
0010
0100
0001
1000
0100
0010
,
0001
1000
0001
0100
0010
0000
1000
0001
1000
0100
0010
0000
0001
0100
0001
1000
,
0010
0000
0000
0000
0000
0000
0000
0000
0000
0000
0000
0000
0000
0000
0000
0000
0000
0000
0000
0000
0000
0000
0000
0000
0100
0000
0000
0000
0000
0000
0000
0000
0000
0000
0000
0000
0001
0000
0000
0000
0000
0000
0000
0000
0000
0000
0000
0000
0100
0000
0000
0000
0000
0000
0000
0000
0000
0000
0000
0000
0010
0000
0000
0000
0000
0000
0000
0000
0000
0000
0000
0000
1000
0000
0000
0000
0000
0000
0000
0000
0000
0000
0000
0000
0000
0000
0000
0000
0000
0000
0000
0000
0000
0000
0000
0000
0001
0000
0000
0000
0000
0000
0000
0000
0000
0000
0100
0000
0000
0000
0000
0000
0000
0000
0000
0001
0000
0000
0000
0000
0000
0000
0000
0000
0000
0100
0000
0000
0000
0000
0000
0000
0000
0000
0001
0000
0000
0000
0000
0000
0000
0000
0000
0000
0200
0000
0000
0000
0000
0000
0000
0000
0000
0000
0000
0000
0000
0000
0000
0000
0000
0000
0000
0000
0000
0000
0000
0000
0000
0000
0000
0000
0000
0000
0000
0000
0000
0000
0000
0000
0310
0000
0000
0000
0000
0000
0000
0000
0000
0000
0000
0000
,
1000
0001
1000
0100
0010
0001
1000
0001
0100
0010
1000
0001
0100
0010
0100
0001
,
1000
0010
0100
0001
0100
0010
1000
0001
0010
0001
1000
0001
0100
0010
0100
0001
,
1000
0100
1000
0000
0010
0100
0001
1000
0001
0100
0010
0100
0001
1000
0100
0010
,
0002
0000
1003
0010
0100
0000
0001
0000
1000
0000
0100
0000
0010
0000
0001
1000
,
0002
0000
0103
0000
0010
1000
0001
1000
0100
0010
0100
1000
0001
0100
0001
0100
,
0010
1000
0001
0010
0001
1000
0100
0010
0100
1000
0001
1000
0100
0010
0001
1000
,
0001
0100
0010
0100
0001
0000
1000
0100
0010
0001
1000
0000
0010
0100
0001
1000
,
0001
0000
0000
0000
0000
0000
0000
0000
0000
0000
0000
0000
0000
0000
0000
0000
0000
0000
0000
0000
0000
0000
0000
0000
0010
0000
0000
0000
0000
0000
0000
0000
0000
0000
0000
0000
0100
0000
0000
0000
0000
0000
0000
0000
0000
0000
0000
0000
1000
0000
0000
0000
0000
0000
0000
0000
0000
0000
0000
0000
0001
0000
0000
0000
0000
0000
0000
0000
0000
0000
0000
0000
0100
0000
0000
0000
0000
0000
0000
0000
0000
0000
0000
0000
0000
0000
0000
0000
0000
0000
0000
0000
0000
0000
0000
0000
0010
0000
0000
0000
0000
0000
0000
0000
0000
0000
1000
0000
0000
0000
0000
0000
0000
0000
0000
0001
0000
0000
0000
0000
0000
0000
0000
0000
0000
1000
0000
0000
0000
0000
0000
0000
0000
0000
0100
0000
0000
0000
0000
0000
0000
0000
0000
0000
0020
0000
0000
0000
0000
0000
0000
0000
0000
0000
0000
0000
0000
0000
0000
0000
0000
0000
0000
0000
0000
0000
0000
0000
0000
0000
0000
0000
0000
0000
0000
0000
0000
0000
0000
0000
0031
0000
0000
0000
0000
0000
0000
0000
0000
0000
0000
0000
,
1000
0100
0010
0001
1000
0010
0100
0001
0100
0010
1000
0100
1000
0001
0010
0001
,
1000
0001
0100
0010
0100
0001
1000
0100
0010
0001
1000
0001
0010
0100
1000
0001
,
1000
0010
1000
0001
0100
0010
0100
0001
1000
0100
1000
0010
1000
0001
0100
0010
,
0100
0000
0000
0000
0001
0000
1000
0000
0000
0000
0000
0000
0100
0000
0000
0010
0000
0000
0004
0000
0000
0000
0000
0000
,
1003
0010
0100
0010
1000
0001
1000
0001
,
0100
0010
1000
0010
0100
0010
1000
0001
,
0100
0000
0001
0000
1000
0000
0100
0000
0010
0001
0000
1000
0010
0000
0100
0000
,
0001
1000
0000
0100
0010
0000
0001
0000
2000
0000
0000
0000
3020
0000
0000
0130
,
0001
1000
0020
0130
0001
1000
0100
1000
,
0001
1000
0010
0100
0010
1000
0001
0100
,
0001
0000
1000
0000
0001
0100
0010
0000
1000
0001
1000
0100
0010
0000
0001
0000
,
2000
0000
3010
0000
0200
0000
0301
0000
1000
0100
0010
0001
0100
0000
0010
1000
,
0010
0100
0001
1000
1100
0100
0010
0001
,
1000
0001
0100
0010
0100
0001
1000
0100
,
0010
0001
1000
0000
0001
0000
0100
0000
0010
1000
0000
0010
0100
0000
0001
0000
,
1000
0000
0000
0000
0000
0000
0000
0000
0000
0000
0000
0000
0100
0000
0000
0000
0000
0000
0000
0000
0000
0000
0000
0000
0000
0000
0000
0000
0000
0000
0000
0000
0000
0000
0000
0000
0010
0000
0000
0000
0000
0000
0000
0000
0000
0000
0000
0000
0001
0000
0000
0000
0000
0000
0000
0000
0000
0000
0000
0000
0000
0000
0000
0000
0000
0000
0000
0000
0000
0000
0000
0000
2000
0000
0000
0000
0000
0000
0000
0000
0000
0000
0000
0000
0000
0000
0000
0000
0000
0000
0000
0000
0000
0000
0000
0000
3010
0000
0000
0000
0000
0000
0000
0000
0000
0000
0100
0000
0000
0000
0000
0000
0000
0000
0000
0010
0000
0000
0000
0000
0000
0000
0000
0000
0000
0100
0000
0000
0000
0000
0000
0000
0000
0000
0010
0000
0000
0000
0000
0000
0000
0000
0000
0000
0200
0000
0000
0000
0000
0000
0000
0000
0000
0000
0000
0000
0000
0000
0000
0000
0000
0000
0000
0000
0000
0000
0000
0000
0000
0000
0000
0000
0000
0000
0000
0000
0000
0000
0000
0000
0301
0000
0000
0000
0000
0000
0000
0000
0000
0000
0000
0000
,
1000
0100
0040
0031
1000
0010
0100
0010
,
1000
0000
0000
0000
0000
0000
0000
0000
0000
0000
0000
0000
0000
0000
0000
0000
0000
0000
0000
0000
0000
0000
0000
0000
0001
0000
0000
0000
0000
0000
0000
0000
0000
0000
0000
0000
0100
0000
0000
0000
0000
0000
0000
0000
0000
0000
0000
0000
0010
0000
0000
0000
0000
0000
0000
0000
0000
0000
0000
0000
0000
0000
0000
0000
0000
0000
0000
0000
0000
0000
0000
0000
1000
0000
0000
0000
0000
0000
0000
0000
0000
0000
0000
0000
0000
0000
0000
0000
0000
0000
0000
0000
0000
0000
0000
0000
0001
0000
0000
0000
0000
0000
0000
0000
0000
0000
0000
0000
0000
0000
0000
0000
0000
0000
0000
0000
0000
0000
0000
0000
1000
0000
0000
0000
0000
0000
0000
0000
0000
0000
0000
0000
0000
0000
0000
0000
0000
0000
0000
0000
0000
0000
0000
0000
0100
0000
0000
0000
0000
0000
0000
0000
0000
0000
0010
0000
0000
0000
0000
0000
0000
0000
0000
0001
0000
0000
0000
0000
0000
0000
0000
0000
0000
1000
0000
0000
0000
0000
0000
0000
0000
0000
0001
0000
0000
0000
0000
0000
0000
0000
0000
0000
,
0100
0000
0000
0000
0000
0000
0000
0000
0000
0000
0000
0000
0000
0000
0000
0000
0000
0000
0000
0000
0000
0000
0000
0000
0010
0000
0000
0000
0000
0000
0000
0000
0000
0000
0000
0000
1000
0000
0000
0000
0000
0000
0000
0000
0000
0000
0000
0000
0000
0000
0000
0000
0000
0000
0000
0000
0000
0000
0000
0000
0001
0000
0000
0000
0000
0000
0000
0000
0000
0000
0000
0000
1000
0000
0000
0000
0000
0000
0000
0000
0000
0000
0000
0000
0000
0000
0000
0000
0000
0000
0000
0000
0000
0000
0000
0000
0100
0000
0000
0000
0000
0000
0000
0000
0000
0000
0010
0000
0000
0000
0000
0000
0000
0000
0000
0001
0000
0000
0000
0000
0000
0000
0000
0000
0000
1000
0000
0000
0000
0000
0000
0000
0000
0000
0001
0000
0000
0000
0000
0000
0000
0000
0000
0000
1000
0000
0000
0000
0000
0000
0000
0000
0000
0000
0000
0000
0000
0000
0000
0000
0000
0000
0000
0000
0000
0000
0000
0000
0010
0000
0000
0000
0000
0000
0000
0000
0000
0000
0000
0000
0000
0000
0000
0000
0000
0000
0000
0000
0000
0000
0000
0000
,
0100
0000
0000
0001
0000
1000
0100
1000
0010
0000
0000
0000
0100
0001
1000
0000
,
0001
0000
0000
0000
,
0000
0000
0000
0000
,
0000
0000
0000
0000
,
0000
0000
0000
0000
,
0000
0000
0000
0000
,
0000
0000
0000
0000
,
0000
0000
0000
0000
,
0000
0000
0000
0000
,
1M1M
0000
1000
0100
1000
0010
0100
0001
,
1000
0001
0010
0100
1000
0001
0200
0000
,
0310
0000
1000
0001
1000
0100
0010
0000
,
0001
0000
1000
0010
1000
0000
0001
0000
,
0100
0000
0010
1000
0010
0100
0001
1000
,
0001
0010
0100
1000
0001
1000
0010
1000
,
0001
0000
0010
0100
1000
0001
0100
0001
,
1MM1
0000
0000
0000
1000
0000
0000
0000
0010
0100
0001
1000
0001
0000
0010
0100
,
1000
0001
0100
0000
0010
0000
1000
0010
,
0100
0000
0001
0000
0100
0010
1000
0001
,
0010
0100
1000
0001
0100
0100
0001
1000
,
0100
0000
0010
0000
0001
0000
1000
0000
0010
0000
0100
0000
0010
0000
1000
0001
,
0200
0310
1000
0000
0001
0000
1000
0001
,
1000
0000
0010
0000
1000
0010
0100
0001
,
1000
0000
0010
0100
0001
0000
1000
0010
,
0100
0000
0010
0000
1000
0000
0001
0000
1000
0100
0010
0000
0001
0000
1000
0000
,
1010
0000
0010
0000
0100
0000
0001
1000
0001
0010
0100
1000
0010
0000
0100
0000
,
0001
0000
1000
0100
1000
0000
0010
0100
0001
0000
1000
0010
0100
0000
0001
1000
,
0010
0000
0100
0001
1000
0000
0010
0100
0001
0000
1000
0100
1000
0000
0010
0000
,
0100
0000
0001
1000
0001
0000
0010
0100
1000
0000
0010
0100
0002
0000
0000
0000
,
1003
0100
0010
0001
1000
0010
0100
0001
,
1000
0100
1000
0010
0100
0001
1000
0001
0010
0100
1000
0100
0010
0001
1000
0010
,
0200
0000
0300
0000
,
0010
0000
1000
0001
1000
0100
0010
0000
0001
0000
1000
0000
0010
0000
0100
0001
,
1000
0000
0000
0000
0100
0000
0010
0000
0000
0001
1000
0000
0010
0000
0000
0100
0000
0000
0001
0000
0000
1000
0000
0000
,
0100
0000
0010
0000
0001
0000
1000
0000
0010
0100
0001
0000
2000
0000
0000
0000
,
3010
0000
0100
0000
0001
0000
1000
0001
1000
0100
0010
0000
0001
0000
1000
0000
,
0010
0000
0000
0000
0000
0000
0000
0000
0000
0000
0000
0000
0000
0000
0000
0000
0000
0000
0000
0000
0000
0000
0000
0000
0100
0000
0000
0000
0000
0000
0000
0000
0010
0000
0000
0000
0000
0000
0000
0000
0100
0000
0000
0000
0000
0000
0000
0000
0001
0000
0000
0000
0000
0000
0000
0000
0000
0000
0000
0000
0000
0000
0000
0000
0000
0000
0000
0000
0000
0000
0000
0000
1000
0000
0000
0000
0000
0000
0000
0000
0000
0000
0000
0000
0000
0000
0000
0000
0000
0000
0000
0000
0000
0000
0000
0000
0100
0000
0000
0000
0000
0000
0000
0000
0000
0000
0010
0000
0000
0000
0000
0000
0000
0000
0000
0001
0000
0000
0000
0000
0000
0000
0000
0000
0000
1000
0000
0000
0000
0000
0000
0000
0000
0000
0001
0000
0000
0000
0000
0000
0000
0000
0000
0000
2000
0000
0000
0000
0000
0000
0000
0000
0000
0000
0000
0000
0000
0000
0000
0000
0000
0000
0000
0000
0000
0000
0000
0000
0000
0000
0000
0000
0000
0000
0000
0000
0000
0000
0000
0000
3010
0000
0000
0000
0000
0000
0000
0000
0000
0000
0000
0000
,
0200
0000
0300
0000
0020
0000
2030
3000
0001
0000
1000
0000
0100
0000
0010
0000
,
0001
0000
0100
0000
0010
0000
1000
0000
0010
0100
0001
1000
0010
0000
0100
0000
,
0010
1000
0100
0010
0001
1000
0001
0100
,
0010
0000
0000
0000
0000
0000
0000
0000
0000
0000
0000
0000
0000
0000
0000
0000
0000
0000
0000
0000
0000
0000
0000
0000
0100
0000
0000
0000
0000
0000
0000
0000
0001
0000
0000
0000
0000
0000
0000
0000
1000
0000
0000
0000
0000
0000
0000
0000
0001
0000
0000
0000
0000
0000
0000
0000
0000
0000
0000
0000
0000
0000
0000
0000
0000
0000
0000
0000
0000
0000
0000
0000
0100
0000
0000
0000
0000
0000
0000
0000
0000
0000
0000
0000
0000
0000
0000
0000
0000
0000
0000
0000
0000
0000
0000
0000
0010
0000
0000
0000
0000
0000
0000
0000
0000
0000
1000
0000
0000
0000
0000
0000
0000
0000
0000
0010
0000
0000
0000
0000
0000
0000
0000
0000
0000
1000
0000
0000
0000
0000
0000
0000
0000
0000
0010
0000
0000
0000
0000
0000
0000
0000
0000
0000
0100
0000
0000
0000
0000
0000
0000
0000
0000
0000
0000
0000
0000
0000
0000
0000
0000
0000
0000
0000
0000
0000
0000
0000
0000
0000
0000
0000
0000
0000
0000
0000
0001
0000
0000
0000
0000
0000
0000
0000
0000
0000
0000
0000
0000
0000
0000
0000
,
1000
0000
0100
0000
0010
0000
0001
0000
1000
0100
1000
0010
0100
0001
0100
0010
,
1000
0001
1000
0100
0010
0100
1000
0001
0010
0001
1000
0001
0100
0010
1000
0001
,
0010
0001
0100
0010
1000
0001
0100
0001
1000
0100
0010
0001
1000
0001
0100
0010
,
0100
0001
0010
0001
1000
0100
0010
0001
4000
0000
0000
0000
3010
0000
0000
0100
,
0001
0000
1000
0100
0020
0000
0031
0000
1000
0010
0100
0001
0100
0010
1000
0001
,
1000
0100
0010
0100
1000
0001
0010
0001
1000
0001
0100
0010
0100
0001
1000
0100
,
1000
0001
1000
0010
0100
0001
0100
0010
1000
0001
0100
0001
1000
0100
0010
0001
,
2000
0000
0000
3010
0200
0000
0300
0000
0001
0000
1000
0000
0200
0000
0310
0000
,
0001
1000
0001
0000
0010
0000
0010
0000
0001
1000
0001
0100
0010
0100
0001
1000
,
0100
0010
0100
1000
0001
0010
0001
1000
0001
0100
0010
0100
0001
1000
0100
0010
,
0001
1000
0001
0100
0010
0000
1000
0001
1000
0100
0010
0000
0001
0100
0001
1000
,
0010
0000
0000
0000
0000
0000
0000
0000
0000
0000
0000
0000
0000
0000
0000
0000
0000
0000
0000
0000
0000
0000
0000
0000
0100
0000
0000
0000
0000
0000
0000
0000
0000
0000
0000
0000
0001
0000
0000
0000
0000
0000
0000
0000
0000
0000
0000
0000
0100
0000
0000
0000
0000
0000
0000
0000
0000
0000
0000
0000
0010
0000
0000
0000
0000
0000
0000
0000
0000
0000
0000
0000
1000
0000
0000
0000
0000
0000
0000
0000
0000
0000
0000
0000
0000
0000
0000
0000
0000
0000
0000
0000
0000
0000
0000
0000
0001
0000
0000
0000
0000
0000
0000
0000
0000
0000
0100
0000
0000
0000
0000
0000
0000
0000
0000
0001
0000
0000
0000
0000
0000
0000
0000
0000
0000
0100
0000
0000
0000
0000
0000
0000
0000
0000
0001
0000
0000
0000
0000
0000
0000
0000
0000
0000
0200
0000
0000
0000
0000
0000
0000
0000
0000
0000
0000
0000
0000
0000
0000
0000
0000
0000
0000
0000
0000
0000
0000
0000
0000
0000
0000
0000
0000
0000
0000
0000
0000
0000
0000
0000
0310
0000
0000
0000
0000
0000
0000
0000
0000
0000
0000
0000
,
1000
0001
1000
0100
0010
0001
1000
0001
0100
0010
1000
0001
0100
0010
0100
0001
,
1000
0010
0100
0001
0100
0010
1000
0001
0010
0001
1000
0001
0100
0010
0100
0001
,
1000
0100
1000
0000
0010
0100
0001
1000
0001
0100
0010
0100
0001
1000
0100
0010
,
0002
0000
1003
0010
0100
0000
0001
0000
1000
0000
0100
0000
0010
0000
0001
1000
,
0002
0000
0103
0000
0010
1000
0001
1000
0100
0010
0100
1000
0001
0100
0001
0100
,
0010
1000
0001
0010
0001
1000
0100
0010
0100
1000
0001
1000
0100
0010
0001
1000
,
0001
0100
0010
0100
0001
0000
1000
0100
0010
0001
1000
0000
0010
0100
0001
1000
,
0001
0000
0000
0000
0000
0000
0000
0000
0000
0000
0000
0000
0000
0000
0000
0000
0000
0000
0000
0000
0000
0000
0000
0000
0010
0000
0000
0000
0000
0000
0000
0000
0000
0000
0000
0000
0100
0000
0000
0000
0000
0000
0000
0000
0000
0000
0000
0000
1000
0000
0000
0000
0000
0000
0000
0000
0000
0000
0000
0000
0001
0000
0000
0000
0000
0000
0000
0000
0000
0000
0000
0000
0100
0000
0000
0000
0000
0000
0000
0000
0000
0000
0000
0000
0000
0000
0000
0000
0000
0000
0000
0000
0000
0000
0000
0000
0010
0000
0000
0000
0000
0000
0000
0000
0000
0000
1000
0000
0000
0000
0000
0000
0000
0000
0000
0001
0000
0000
0000
0000
0000
0000
0000
0000
0000
1000
0000
0000
0000
0000
0000
0000
0000
0000
0100
0000
0000
0000
0000
0000
0000
0000
0000
0000
0020
0000
0000
0000
0000
0000
0000
0000
0000
0000
0000
0000
0000
0000
0000
0000
0000
0000
0000
0000
0000
0000
0000
0000
0000
0000
0000
0000
0000
0000
0000
0000
0000
0000
0000
0000
0031
0000
0000
0000
0000
0000
0000
0000
0000
0000
0000
0000
,
1000
0100
0010
0001
1000
0010
0100
0001
0100
0010
1000
0100
1000
0001
0010
0001
,
1000
0001
0100
0010
0100
0001
1000
0100
0010
0001
1000
0001
0010
0100
1000
0001
,
0100
0010
1000
0001
0100
0010
0100
0001
1000
0100
1000
0010
0100
0001
1000
0100
,
0010
0000
0000
0000
0001
0000
1000
0000
0000
0000
0000
0000
0100
0000
0000
0010
0000
0000
0004
0000
0000
0000
0000
0000
,
1003
0000
0010
0000
0100
0001
1000
0001
0010
0100
1000
0001
0010
0001
0100
0010
,
1000
0001
0100
0010
0100
0001
1000
0010
1000
0001
0100
0010
0100
0001
1000
0100
,
0010
0100
1000
0001
0010
0001
1000
0001
0100
0010
1000
0001
0010
0001
0100
0010
,
1000
0001
1000
0100
0010
0001
1000
0010
0100
0000
0001
1000
0001
0000
0020
0000
,
0130
1000
0001
1000
0010
0100
0001
1000
0100
1000
0001
0010
0001
1000
0001
0100
,
0010
0100
0001
1000
0100
0010
0100
1000
0001
0010
0001
1000
0100
0010
0100
1000
,
0001
0100
0001
1000
0010
0100
0001
1000
0010
1000
0100
0010
0100
1000
0001
0010
,
0002
0000
0003
0000
0200
0000
0300
0000
0010
0000
1000
0000
0001
0010
0100
1000
,
0001
0000
0001
0000
0100
0010
1000
0001
0100
0010
0100
0001
1000
0010
1000
0001
,
1000
0100
0010
0001
1000
0001
0100
0010
1000
0001
0010
0001
0100
0010
1000
0001
,
0100
0001
1000
0010
0100
0001
1000
0100
1000
0001
0010
0100
1000
0001
1000
0100
,
0010
0001
0100
0001
1000
0010
0100
0001
1000
0000
0010
0100
0001
0000
0100
0000
,
0020
0030
2000
3001
1000
0100
0010
0001
,
1000
0000
0000
0000
0000
0000
0000
0000
0000
0000
0000
0000
0000
0000
0000
0000
0000
0000
0000
0000
0000
0000
0000
0000
0010
0000
0000
0000
0000
0000
0000
0000
0000
0000
0000
0000
0100
0000
0000
0000
0000
0000
0000
0000
0000
0000
0000
0000
0010
0000
0000
0000
0000
0000
0000
0000
0000
0000
0000
0000
0000
0000
0000
0000
0000
0000
0000
0000
0000
0000
0000
0000
1000
0000
0000
0000
0000
0000
0000
0000
0000
0000
0000
0000
0000
0000
0000
0000
0000
0000
0000
0000
0000
0000
0000
0000
0001
0000
0000
0000
0000
0000
0000
0000
0000
0000
0000
0000
0000
0000
0000
0000
0000
0000
0000
0000
0000
0000
0000
0000
0010
0000
0000
0000
0000
0000
0000
0000
0000
0000
0000
0000
0000
0000
0000
0000
0000
0000
0000
0000
0000
0000
0000
0000
0100
0000
0000
0000
0000
0000
0000
0000
0000
0000
1000
0000
0000
0000
0000
0000
0000
0000
0000
0001
0000
0000
0000
0000
0000
0000
0000
0000
0000
1000
0000
0000
0000
0000
0000
0000
0000
0000
0010
0000
0000
0000
0000
0000
0000
0000
0000
0000
,
0100
0000
0001
0100
0000
0010
1000
0000
0001
0000
1000
0100
0010
0000
0001
1000
,
0020
0000
0230
0301
2000
0000
3020
0000
,
1030
0000
0100
0010
0001
0000
1000
0001
1000
0000
0010
0100
0001
0000
1000
0000
,
0100
0000
0010
0001
1000
0000
0001
0100
0010
1000
0000
0001
0100
0000
0010
0000
,
1000
0000
0001
0010
0100
0000
2000
3010
0100
0000
0002
1003
0010
0000
0100
0000
,
0002
0003
1000
0100
0010
0000
0001
1000
0040
0000
0230
0000
0302
0003
0002
0003
,
1000
0000
0100
0010
0001
0000
1000
0010
0100
0000
0001
1000
0001
0000
0010
0000
,
0100
0000
1000
0001
0100
0000
0010
1000
0010
0100
0000
0001
1000
0000
0100
0000
,
0020
0030
0001
1000
0001
0000
0100
0010
1000
0001
1000
0001
0020
0000
0130
0000
,
2000
0000
3002
0000
0103
0010
0100
0010
1000
0000
0001
0000
0010
0000
0100
1000
,
0001
0100
0010
2000
3001
2000
3100
0000
,
0020
0030
0001
2000
3010
0000
0100
0001
,
1000
0100
1000
0020
0130
0002
1003
0000
,
0200
0000
0000
0000
0310
0000
0002
0000
4003
0000
3010
0000
0200
0300
0200
0300
,
0001
0000
1000
0000
0010
0000
2000
0000
3001
0000
0020
0000
0130
0000
0000
1000
,
0010
0100
0001
1000
0001
0010
0100
1000
,
0010
0100
0001
1000
0001
0010
0100
1000
0001
0010
0001
1000
0010
0100
0001
1000
,
0100
0010
0001
0000
1000
0000
0010
0000
0100
0000
0001
0000
2000
0000
0000
0000
,
3020
0000
0000
0030
0000
0000
0000
0000
;
