#TITLE:Mizuhashi's Jealousic Park;
#SUBTITLE:;
#ARTIST:ALiCE'S EMOTiON;
#TITLETRANSLIT:;
#SUBTITLETRANSLIT:;
#ARTISTTRANSLIT:;
#CREDIT:;
#BANNER:Mizuhashi's Jealousic Park.png;
#BACKGROUND:Mizuhashi's Jealousic Park-bg.png;
#LYRICSPATH:;
#CDTITLE:;
#MUSIC:Mizuhashi's Jealousic Park.ogg;
#OFFSET:2.560;
#SAMPLESTART:76.980;
#SAMPLELENGTH:12.000;
#SELECTABLE:YES;
#BPMS:0.000=87.500,36.000=175.000,82.000=87.500,83.000=175.000,95.000=87.500,97.000=175.000,120.000=350.000,125.000=175.000,143.000=87.500,144.000=175.000,156.000=87.500,158.000=175.000,174.000=87.500,178.000=175.000,182.000=87.500,212.000=43.750,213.000=87.500,215.000=350.000,279.000=700.000,339.000=350.000,341.000=87.500,349.000=175.000;
#STOPS:120.000=0.171
,121.000=0.129
,121.750=0.129
,122.500=0.129
,123.250=0.129
,124.000=0.171
;
#BGCHANGES:;
// cache tags:
#FIRSTBEAT:20.000;
#LASTBEAT:365.000;
#SONGFILENAME:Songs/Index Tournament 1/Mizuhashi's Jealousic Park/Mizuhashi's Jealousic Park.sm;
#HASMUSIC:1;
#HASBANNER:1;
#MUSICLENGTH:128.060;
// end cache tags

//---------------dance-single - ----------------
#NOTES:
     dance-single:
     :
     Challenge:
     12:
     0.910,1.000,0.195,0.242,1.000,760.000,25.000,31.000,10.000,2.000:

0000
0000
0000
0000
,
0000
0000
0000
0000
,
0000
0000
0000
0000
,
0000
0000
0000
0000
,
0000
0000
0000
0000
,
1001
0001
0100
0010
1000
0000
0101
0100
0010
1000
0010
1000
0010
0100
0001
0100
,
1001
0000
0000
0000
0000
0000
0000
0000
0000
0000
0000
0000
0000
0000
0000
0000
0000
0000
0000
0000
0000
0000
0000
0000
0001
0000
0000
0000
0000
0000
0000
0000
0000
0000
0000
0000
0010
0000
0000
0000
0000
0000
0000
0000
0000
0000
0000
0000
1100
0000
0000
0000
0000
0000
0000
0000
0000
0000
0000
0000
0000
0000
0000
0000
0000
0000
0000
0000
0000
0000
0000
0000
1001
0000
0000
0000
0000
0000
0000
0000
0000
0000
0000
0000
0100
0000
0000
0000
0000
0000
0000
0000
0000
0000
0000
0000
0012
0000
0000
0000
0000
0000
0000
0000
0000
0000
0000
0000
0000
0000
0000
0000
0000
0000
0000
0000
0000
0000
0000
0000
1003
0000
0000
0000
0000
0000
0000
0000
0100
0000
0000
0000
0000
0000
0000
0000
0010
0000
0000
0000
0000
0000
0000
0000
0001
0000
0000
0000
0000
0000
0000
0000
0000
0000
0000
0000
0000
0000
0000
0000
0000
0000
0000
0000
0000
0000
0000
0000
1000
0000
0000
0000
0000
0000
0100
0000
0000
0000
0000
0000
1000
0000
0000
0000
0000
0000
0100
0000
0000
0000
0000
0000
,
1000
0000
1001
0001
0101
0000
0110
0010
1010
1000
0001
0100
0010
0000
1000
0000
,
1001
0000
0000
0000
0001
0000
1000
0000
1100
0000
0000
0000
1000
0000
0001
0000
0001
0100
0001
0000
1000
0000
0010
0100
0010
0000
2000
0000
0000
0000
0000
0000
,
3001
0000
1000
0100
0000
0010
0001
0000
1000
0010
0000
0100
0001
0000
0100
0001
,
1000
0001
0100
0000
0001
0010
0000
0010
0100
0000
0100
1000
0000
1000
0001
0000
,
0001
0100
0000
0001
0010
0000
0100
1000
0000
0010
0100
0000
0001
1000
0000
0001
,
1000
0000
0001
0100
0000
0010
1000
0000
0001
0100
0000
0001
1000
0000
0001
0100
,
0001
0010
0100
1000
0001
0000
1000
0100
0000
0010
0001
0000
1000
0100
0000
1000
,
0010
0100
0001
0000
1000
0100
0000
1000
0010
0100
0001
0100
0010
1000
0010
0100
,
0001
0100
0010
1000
0010
0100
1000
0100
0001
0010
0100
1000
,
0001
0100
0010
1000
0001
0100
0010
1000
0001
1000
0001
1000
0001
1000
0001
1000
,
0001
0000
1000
0100
0010
0000
0000
0000
0001
0001
0000
0000
0001
0000
0100
0010
,
1000
0000
0000
0000
0000
0000
0001
0000
0000
0010
0000
0000
0100
0000
0000
1000
0000
0000
0100
0000
0000
1000
0000
0000
0100
0000
0000
0000
0010
0000
0000
0000
0001
0000
0000
0000
1000
0000
0000
0000
0000
0000
0000
0000
0000
0000
0000
0000
,
0001
0000
0000
0000
0100
0000
0000
0000
0010
0000
0000
0000
1000
0000
0000
0000
0000
0000
0000
0000
0000
0000
0000
0000
1000
0000
0000
1000
0000
0000
0000
0000
0000
0000
0000
0000
0100
0000
0000
0000
0000
0000
1000
0000
0000
0000
0000
0000
,
0001
0100
0010
1000
0000
0001
0100
0010
1000
1000
0100
0010
0001
0100
0010
1000
,
0001
0000
0000
0000
1000
1000
0000
0000
0001
0100
0010
0000
1000
0000
0010
0000
,
0100
0000
0000
0001
0000
0000
1000
0000
0000
0001
0000
0000
1000
0000
0000
0000
0100
0000
0000
0000
0010
0000
0000
0000
0001
0000
0000
0000
0000
0000
0000
0000
0000
0000
0000
0000
1000
0000
0000
0100
0000
0000
0000
0000
0010
0000
0000
0000
,
0001
0000
0000
0000
0000
0000
0000
0000
0000
0000
0000
0000
0000
0000
0000
0000
0000
0000
0000
0000
0000
0000
0000
0000
0000
0000
0000
0000
0000
0000
0000
0000
1000
0000
0000
0000
0000
0000
0000
0000
0000
0000
0000
0000
0000
0000
0000
0000
0010
0000
0000
0000
0000
0000
0000
0000
0000
0000
0000
0000
0000
0000
0000
0000
0100
0000
0000
0000
0000
0000
0000
0000
0000
0000
0000
0000
0000
0000
0000
0000
0001
0000
0000
0000
0000
0000
0000
0000
0000
0000
0000
0000
0000
0000
0000
0000
0100
0000
0000
0000
0000
0000
0000
0000
0000
0000
0000
0000
0000
0000
0000
0000
1000
0000
0000
0000
0000
0000
0000
0000
0000
0000
0000
0000
0000
0000
0000
0000
0100
0000
0000
0000
0000
0000
0000
0000
0000
0000
0000
0000
0000
0000
0000
0000
0001
0000
0000
0000
0000
0000
0000
0000
0000
0000
0000
0000
0010
0000
0000
0000
0000
0000
0100
0000
0000
0000
0000
0000
1000
0000
0000
0000
0000
0000
0100
0000
0000
0000
0000
0000
0010
0000
0000
0000
0000
0000
0000
0000
0000
0000
0000
0000
,
0001
0000
0000
1000
0000
0000
0010
0000
0000
0000
0100
0000
0000
0000
0000
0000
0001
0000
0000
0000
0010
0000
0000
0000
0100
0000
0000
0000
1000
0000
0000
0000
0001
0000
0000
0000
0000
0000
0000
0000
0000
0000
0000
0000
0000
0000
0000
0000
1000
0000
0000
0000
1000
0000
0000
0000
0000
0000
0000
0000
0000
0000
0000
0000
,
0001
0000
0000
0100
0000
0000
0001
0000
0000
0000
0000
0000
1000
0000
0000
0000
0000
0000
0010
0000
0000
0000
0000
0000
0100
0000
0000
0001
0000
0000
0100
0000
0000
0001
0000
0000
1000
0000
0000
0000
0100
0000
0000
0000
0010
0000
0000
0000
,
0100
0000
0000
0000
1000
0100
1000
0010
0100
0000
0000
0000
0001
0001
0000
0000
,
1000
0000
0001
0000
1000
0100
1000
0000
0001
0000
0100
0000
0010
1000
0010
1000
,
0010
1000
0010
1000
0001
0010
0001
0010
0100
0000
0000
0000
1000
1000
0000
0000
,
0001
0000
0000
0000
0000
0000
0100
0000
0000
0010
0000
0000
1000
0000
0000
0001
0000
0000
1000
0000
0000
0000
0000
0000
0001
0000
0000
0010
0000
0000
0100
0000
0000
0000
0000
0000
1000
0000
0000
0000
0100
0000
0000
0000
1000
0000
0000
0000
,
0001
0000
0000
0000
1100
0000
0000
0110
0000
0000
0011
0000
0000
1001
0000
0000
,
1100
0000
0000
0000
0202
0000
0000
0000
0000
0303
0000
0000
1000
0100
1000
0100
,
0010
0000
0000
0001
0000
0000
0010
0000
0000
0001
0000
0000
1000
0000
0000
0000
0000
0000
0000
0000
0001
0000
0000
0000
0100
0000
0000
0000
0000
0000
0000
0000
0000
0000
0000
0000
0001
0000
0000
0000
0001
0000
0000
0000
0000
0000
0000
0000
,
0010
0000
0100
1000
0000
0001
0100
0000
0010
1000
0001
0100
,
0001
0000
0000
1000
0100
1000
0001
0000
0000
1000
1000
0000
,
0010
0000
0000
0000
0000
0000
0000
0000
0100
0000
0000
0000
0001
0000
0000
0000
0000
0000
0000
0000
1000
0000
0000
0000
0100
0000
0000
0000
0000
0000
0000
0000
0010
0000
0000
0000
0001
0000
0000
0010
0000
0000
0100
0000
0000
1000
0000
0000
,
0001
0000
1000
0001
0000
0000
0010
0010
0000
0100
0000
1000
,
0001
0000
0100
0010
0000
1000
0100
1000
0010
0100
0000
0000
,
0001
0000
1000
0100
0000
1000
0010
0100
0001
0100
1000
0100
,
0002
0000
0000
0000
0000
0000
0000
0000
0000
0000
0000
0000
0000
0000
0000
0000
0000
0000
0000
0000
0000
0000
0000
0000
0000
0000
0000
0000
0000
0000
0000
0000
0000
0000
0000
0000
0000
0000
0000
0000
0000
0000
0000
0000
0000
0000
0000
0000
1003
0000
0000
0000
0000
0000
0100
0000
0000
0000
0000
0000
1000
0000
0000
0000
0000
0000
0100
0000
0000
0000
0000
0000
0010
0000
0000
0000
0000
0000
0001
0000
0000
0000
0000
0000
0010
0000
0000
0000
0000
0000
0001
0000
0000
0000
0000
0000
1000
0000
0000
0000
0000
0000
0000
0000
0000
0000
0000
0000
0000
0000
0000
0000
0001
0000
0000
0000
0000
0000
0000
0000
0000
0000
0000
0000
0000
0000
0000
0000
0100
0000
0000
0000
0000
0000
0000
0000
0000
0000
0000
0000
0000
0000
0000
0000
0001
0000
0000
0000
0000
0000
0000
0000
0000
0000
0000
0000
0000
0000
0000
0000
0000
0000
0000
0000
0000
0000
0000
0000
0000
0000
0000
0000
0000
0000
0000
0000
0000
0000
0000
0000
0000
0000
0000
0000
0000
0000
0000
0000
0000
0000
0000
0000
,
0100
0100
0000
0010
0000
1000
0010
0000
0100
0001
0000
1000
,
0001
0010
0001
1000
0000
0000
0001
0000
0010
0100
0000
0000
,
1000
1000
0000
0010
0000
0100
0001
0000
1000
0001
0000
0010
,
0100
0000
1000
0000
0100
0000
1000
0000
0100
0000
1000
0000
0100
0000
1000
0000
0001
0000
0100
0010
1000
0000
0000
0000
0001
0001
0000
0000
1000
0000
0010
1000
,
0001
0000
0000
0000
0000
0000
0100
0000
0000
0000
0000
0000
0010
0000
0000
0000
0000
0000
1000
0000
0000
0000
0000
0000
0001
0000
0000
0000
0000
0000
0100
0000
0000
0000
0000
0000
0010
0000
0000
0000
0000
0000
0100
0000
0000
0000
0000
0000
0010
0000
0000
0000
0000
0000
0000
0000
1000
0000
0000
0000
0000
0000
0000
0000
0001
0000
0000
0000
0000
0000
0000
0000
0100
0000
0000
0000
0000
0000
0000
0000
0000
0000
0000
0000
0000
0000
0000
0000
0000
0000
0000
0000
0000
0000
0000
0000
0002
0000
0000
0000
0000
0000
0000
0000
0000
0000
0000
0000
0000
0000
0000
0000
0000
0000
0000
0000
0000
0000
0000
0000
0000
0000
0000
0000
0000
0000
0000
0000
1000
0000
0000
0000
0000
0000
0000
0000
0000
0000
0000
0000
0000
0000
0000
0000
1000
0000
0000
0000
0000
0000
0000
0000
0000
0000
0000
0000
0000
0000
0000
0000
0000
0000
0000
0000
0000
0000
0000
0000
0000
0000
0000
0000
0000
0000
0000
0000
1000
0000
0000
0000
0000
0000
0000
0000
0000
0000
0000
0000
0000
0000
0000
0000
,
1003
0000
0000
0000
0000
0000
0000
0000
0000
0000
0000
0000
0000
0000
0000
0000
0100
0000
0000
0000
0000
0000
0000
0000
0000
0000
0000
0000
0000
0000
0000
0000
0010
0000
0000
0000
0000
0000
0000
0000
0000
0000
0000
0000
0000
0000
0000
0000
0001
0000
0000
0000
0000
0000
0000
0000
0000
0000
0000
0000
0000
0000
0000
0000
0100
0000
0000
0000
0000
0000
0000
0000
0000
0000
0000
0000
0000
0000
0000
0000
0010
0000
0000
0000
0000
0000
0000
0000
0000
0000
0000
0000
0000
0000
0000
0000
1000
0000
0000
0000
0000
0000
0000
0000
0010
0000
0000
0000
0000
0000
0000
0000
0000
0000
1000
0000
0000
0000
0000
0000
0000
0000
0000
0000
0000
0000
0001
0000
0000
0000
0000
0000
0100
0000
0000
0000
0000
0000
0000
0000
0000
0000
0000
0000
0001
0000
0000
0000
0000
0000
0000
0000
0000
0000
0000
0000
0010
0000
0000
0000
0000
0000
0000
0000
0000
0000
0000
0000
0100
0000
0000
0000
0000
0000
0000
0000
0000
0000
0000
0000
1000
0000
0000
0000
0000
0000
0000
0000
0000
0000
0000
0000
,
1002
1000
1000
1000
1000
1000
0003
1000
0200
0000
0320
0001
0032
1000
2003
0010
,
3020
0100
0100
0100
0100
0100
0000
1000
2030
0000
0001
0000
3001
0100
0002
0010
,
0023
0100
0100
0100
0100
0100
0100
0100
0230
0000
1000
1000
1000
1000
2300
0010
,
3020
0100
0100
0100
0100
0100
0000
1000
2030
0000
0001
0001
0001
0001
3001
0001
,
1000
0000
0001
0100
0010
0000
1000
0100
1000
0010
0100
0000
0001
0000
0010
0000
0100
0000
1000
0001
0100
0000
0010
1000
0010
0100
0001
0000
1000
0000
0001
0010
,
0001
0000
1000
0000
0010
0000
0100
0001
0100
0010
1000
0000
0001
0100
0001
0000
1000
0000
0100
0010
0001
0000
1000
0000
0001
0100
0010
1000
0001
0000
1000
0100
,
1000
0100
0010
0001
1000
0000
0010
0100
0001
0000
1000
0000
0001
0000
0100
0000
0010
0100
0001
1000
0100
0000
0010
0100
1000
0000
0001
0000
1000
0000
1001
0000
,
2001
0000
0000
0200
0000
0000
0001
0000
3301
0000
0000
0000
1001
0000
0001
1000
0001
0100
0010
0000
0010
0000
0010
0000
1001
0000
0000
0000
0000
0000
0000
0000
,
1000
0001
1000
0001
,
1000
0001
1000
0001
,
0100
0001
0100
0001
,
0100
0000
0001
0100
0001
0000
0010
0000
,
0100
0000
0010
0100
0010
0000
0100
0000
,
0010
0000
0100
0010
0100
0000
0010
0000
,
0001
0010
0001
0010
,
0001
0000
0010
0001
0010
0000
0001
0000
,
1000
0100
0010
0001
,
0100
0010
1000
0001
,
0010
0100
1000
0001
,
0100
0000
0010
1000
0010
0000
0100
0000
,
0001
0000
1000
0100
1000
0000
0010
0000
,
0100
0000
0001
1000
0001
0000
0010
0000
,
0100
1000
0010
0100
,
0001
0000
1000
0100
1000
0000
0001
0000
,
0100
0001
0100
0001
,
0100
0001
0100
0010
,
0100
0010
0100
0010
,
0100
0010
0100
0010
,
1000
0010
1000
0010
,
1000
0010
1000
0001
,
1000
0001
1000
0001
,
1000
0001
1000
0001
,
0100
0001
0100
000M
,
0000
000M
0000
1000
,
0100
1000
0100
M000
,
0000
M000
0000
0010
,
0M00
0001
M000
1000
,
00M0
0001
1000
0M00
,
0000
00M0
0000
0000
0000
000M
0000
0000
0000
1000
0000
0000
,
0001
0000
0000
0000
2002
0000
0000
0000
0000
0000
0003
0000
3200
0000
0000
0302
,
0000
0000
2003
0000
3002
0100
0100
0203
0010
0010
0320
0001
0032
0000
0000
0000
,
2003
0000
0000
3000
1000
0001
0000
1000
0100
0000
0010
0001
0000
1000
0010
0000
,
1000
0000
0001
0000
1000
0010
0000
0100
0001
0000
0100
0010
0000
1000
0001
0000
,
1000
0000
0001
0000
1000
0010
0000
0100
0001
0000
0100
0010
0000
1000
0001
0000
,
0010
0000
0100
0000
1000
0010
0000
0100
0001
0000
1000
0100
1000
0000
0100
0000
,
0010
0001
1001
0000
0000
0000
0000
0000
;
