#TITLE:Sepia;
#SUBTITLE:;
#ARTIST:Shiki/-45;
#TITLETRANSLIT:;
#SUBTITLETRANSLIT:;
#ARTISTTRANSLIT:;
#CREDIT:;
#BANNER:banner.png;
#BACKGROUND:Untitled-1.png;
#LYRICSPATH:;
#CDTITLE:;
#MUSIC:Sepia -Full Version-.mp3;
#OFFSET:-0.500;
#SAMPLESTART:50.000;
#SAMPLELENGTH:12.000;
#SELECTABLE:YES;
#BPMS:0.000=142.000,122.000=142.000,780.000=141.980,780.250=141.780,780.500=141.580,780.750=141.380,781.000=141.180,781.250=140.980,781.500=140.780,781.750=140.580,782.000=140.380,782.250=140.180,782.500=139.980,782.750=139.180,783.000=138.380,783.250=137.580,783.500=136.780,783.750=135.980,784.000=135.180,784.250=135.380,784.500=135.580,784.750=135.780,785.000=135.980,785.250=136.180,785.500=136.380,785.750=136.580,786.000=136.780,786.250=136.980,786.500=137.180,786.750=137.980,787.000=138.780,787.250=139.580,787.500=140.380,787.750=141.180,788.000=141.980,788.250=142.780,788.500=143.580,788.750=144.380,789.000=145.180,789.250=145.980,789.500=146.780,789.750=147.580,790.000=148.380,790.250=149.180,790.500=149.980,790.750=150.780,791.000=151.580,791.250=152.380,791.500=153.180,791.750=153.980,792.000=154.780;
#STOPS:;
#BGCHANGES:;
// cache tags:
#FIRSTBEAT:0.000;
#LASTBEAT:792.000;
#SONGFILENAME:Songs/IzzySM Keyboard Mega Pack/Sepia -Full Version-/sepia.sm;
#HASMUSIC:1;
#HASBANNER:1;
#MUSICLENGTH:335.999;
// end cache tags

//---------------dance-single - SMANIAC----------------
#NOTES:
     dance-single:
     SMANIAC:
     Challenge:
     11:
     1.000,1.000,0.827,0.003,1.000,2086.000,278.000,1.000,0.000,0.000:
1000
0010
0001
0000
0000
0000
0000
0000
0000
0000
0000
0000
0000
0000
0100
0000
,
0000
1000
0000
0000
0000
0000
0100
0000
,
0001
0010
0000
0001
0000
0000
0000
0000
,
0000
0000
0000
0000
,
1000
0010
0001
0000
0000
0000
0000
0000
0000
0000
0000
0000
0000
0000
0100
0000
,
0000
1000
0000
0000
0000
0000
1000
0000
,
0100
0010
0000
0000
0000
0000
0000
0000
,
0000
0000
0000
0000
,
0000
0000
0000
0000
,
1000
0010
0101
0000
0000
0000
0010
0000
0000
0000
0100
0000
0000
0000
0110
0000
,
0000
1100
0000
0010
0000
0100
0100
0010
,
0001
0110
0000
0011
0000
0100
0000
0010
,
0000
0100
0000
0010
0000
0100
0000
0010
,
1000
0010
0101
0000
0000
0000
0010
0000
0000
0000
0100
0000
0000
0000
0110
0000
,
0000
1100
0000
0010
0000
0100
1000
0010
,
0100
0110
0000
0011
0000
0100
0000
0010
,
0000
0100
0000
0010
0000
0100
0000
0010
,
1000
0010
0101
0000
0000
0000
0010
0000
0000
0000
0100
0000
0000
0000
0110
0000
,
0000
1100
0000
0010
0000
0100
0100
0010
,
0001
0110
0000
0011
0000
0100
0000
0010
,
0000
0100
0000
0010
0000
0100
0000
0010
,
1000
0010
0101
0000
0000
0000
0010
0000
0000
0000
0100
0000
0000
0000
0110
0000
,
0000
1100
0000
0010
0000
0100
1000
0010
,
0100
0110
0000
0010
0000
0100
0000
0010
,
0000
0000
0000
0000
0000
0000
1000
0000
0000
0000
0000
0000
1000
0000
0000
0001
0000
0000
1000
0000
0000
0001
0000
0000
1000
0000
0000
0001
0000
0000
1000
0000
0001
0000
1000
0000
0001
0000
0000
1000
0000
0000
0001
0000
1000
0000
0001
0000
,
1000
0001
1001
0000
0000
0000
0000
0000
0000
0000
0000
0000
0000
0000
1000
0000
,
0000
0001
0000
0000
0000
0000
0100
0000
,
0001
0010
0000
0001
0000
0000
0000
0000
,
0000
0000
0000
0000
,
1000
0010
0001
0000
0000
0000
0000
0000
0000
0000
0000
0000
0000
0000
0100
0000
,
0000
1000
0000
0000
0000
0000
1000
0000
,
0100
0010
0000
0001
0000
0000
0000
0000
,
0000
0000
0000
0000
,
0000
0000
1000
0000
0001
0000
0100
0010
0000
0010
0100
0000
1000
0001
0000
0001
,
1000
0000
0100
0010
0001
0000
1000
0000
0001
0100
0000
0100
0001
0000
1000
0010
,
0100
0000
0001
0100
1000
0000
0010
0000
0100
0001
0000
1000
0100
0001
0010
1000
,
0001
0100
0010
1000
0001
0000
0100
0000
0010
0001
0000
0100
0010
1000
0100
0001
,
0010
0100
0010
1000
0010
1000
0010
1000
0010
1000
0010
1000
0010
1000
0010
1000
,
0010
1000
0010
1000
0010
1000
0010
1000
0010
1000
0010
1000
0010
1000
0010
1000
,
0010
1000
0010
1000
0010
1000
0010
1000
0010
1000
0010
1000
0010
1000
0010
1000
,
0010
1000
0101
0000
0101
0000
0000
0000
0101
0000
0000
0000
0101
0000
0000
0000
,
0101
0000
1000
0000
0100
0010
0100
0001
0100
0010
1000
0100
1000
0010
1000
0001
,
1000
0000
0000
0100
0000
0000
0010
0000
0000
1000
0000
0000
0010
0000
0000
0100
0000
0000
0010
0000
0000
0001
0000
0000
0010
0000
0000
1000
0000
0000
0010
0000
0000
0000
0000
0000
0010
0000
0001
0000
0010
0000
1000
0000
0000
0000
0000
0000
,
0001
0000
0000
0000
1000
0000
0100
0000
1000
0000
0100
0000
0010
0000
0100
0000
0010
0000
0001
0000
0010
0000
0000
0000
0001
0010
1000
0000
0000
0000
0000
0000
,
0001
0000
0000
0000
0000
0000
1000
0000
0000
0000
0100
0000
0000
0000
0010
0000
0000
0000
1000
0000
0000
0000
0000
0000
0100
0000
0000
1000
0000
0000
0000
0000
0000
0001
0000
0000
0010
0000
0000
0100
0000
0000
1000
0000
0100
0000
0010
0000
,
0001
0000
0010
0000
0100
0000
1010
0000
0000
0000
0000
0000
1000
0000
0000
0001
0000
0000
1000
0000
0000
0100
0000
0000
1000
0000
0000
0001
0000
0000
0010
0000
0000
1000
0000
0000
0010
0000
0000
0001
0000
0000
0010
0000
0000
0100
0000
0000
,
0010
0000
0000
1000
0000
0000
0001
0000
0000
0010
0000
0000
0001
0000
0000
1000
0000
0000
0001
0000
0000
0100
0000
0000
0001
0000
0000
0010
0000
0000
0001
0000
0000
0000
0000
0000
0001
0000
0100
0000
0001
0000
0010
0000
0000
0000
0000
0000
,
0100
0000
0000
0000
0010
0000
1000
0000
0010
0000
1000
0000
0001
0000
1000
0000
0001
0000
0100
0000
0001
0000
0000
0000
0100
0001
0010
0000
0000
0000
0000
0000
,
0100
0000
0000
0000
0000
0000
0010
0000
0000
0000
1000
0000
0000
0000
0001
0000
0000
0000
0010
0000
0000
0000
0000
0000
1000
0000
0000
0010
0000
0000
0000
0000
0000
0100
0000
0000
0001
0000
0000
1000
0000
0000
0010
0000
1000
0000
0001
0000
,
0100
0000
0001
0000
1000
0000
0011
0000
0000
0000
0000
0000
0010
0000
0000
0100
0000
0000
0010
0000
0000
1000
0000
0000
0010
0000
0000
0100
0000
0000
0001
0000
0000
0010
0000
0000
0001
0000
0000
0100
0000
0000
0001
0000
0000
1000
0000
0000
,
0001
0000
0000
0010
0000
0000
0100
0000
0000
0001
0000
0000
0100
0000
0000
0010
0000
0000
0100
0000
0000
1000
0000
0000
0100
0000
0000
0001
0000
0000
0100
0000
0000
0000
0000
0000
0100
0000
1000
0000
0100
0000
0001
0000
0000
0000
0000
0000
,
1000
0000
0000
0000
0001
0000
0010
0000
0001
0000
0010
0000
0100
0000
0010
0000
0100
0000
1000
0000
0100
0000
0000
0000
1000
0100
0001
0000
0000
0000
0000
0000
,
1000
0000
0000
0000
0000
0000
0001
0000
0000
0000
0010
0000
0000
0000
0100
0000
0000
0000
0001
0000
0000
0000
0000
0000
0010
0000
0000
0001
0000
0000
0000
0000
0000
1000
0000
0000
0100
0000
0000
0010
0000
0000
0001
0000
0010
0000
0100
0000
,
1000
0000
0100
0000
0010
0000
0101
0000
0000
0000
0000
0000
0001
0000
0000
1000
0000
0000
0001
0000
0000
0010
0000
0000
0001
0000
0000
1000
0000
0000
0100
0000
0000
0001
0000
0000
0100
0000
0000
1000
0000
0000
0100
0000
0000
0010
0000
0000
,
0100
0000
0000
0001
0000
0000
1000
0000
0000
0100
0000
0000
1000
0000
0000
0001
0000
0000
1000
0000
0000
0010
0000
0000
1000
0000
0000
0100
0000
0000
1000
0000
0000
0000
0000
0000
1000
0000
0010
0000
1000
0000
0100
0000
0000
0000
0000
0000
,
0010
0000
0000
0000
0100
0000
0001
0000
0100
0000
0001
0000
1000
0000
0001
0000
1000
0000
0010
0000
1000
0000
0000
0000
0010
1000
0100
0000
0000
0000
0000
0000
,
0010
0000
0000
0000
0000
0000
0100
0000
0000
0000
0001
0000
0000
0000
1000
0000
0000
0000
0100
0000
0000
0000
0000
0000
0001
0000
0000
0100
0000
0000
0000
0000
0000
0010
0000
0000
1000
0000
0000
0001
0000
0000
0100
0000
0001
0000
1000
0000
,
0011
0000
1000
0010
0001
0000
0101
0000
0000
0000
0000
0000
0000
0000
0000
0000
0000
0000
0010
0000
0000
0000
0000
0000
0000
0000
0000
0000
0000
0000
0100
0000
0000
0000
0000
0000
0000
0000
0000
0000
0000
0000
0110
0000
0000
0000
0000
0000
,
0000
1100
0000
0010
0000
0100
0100
0010
,
0001
0110
0000
0011
0000
0100
0000
0010
,
0000
0100
0000
0010
0000
0100
0000
0010
,
1000
0010
0101
0000
0000
0000
0010
0000
0000
0000
0100
0000
0000
0000
0110
0000
,
0000
1100
0000
0010
0000
0100
1000
0010
,
0100
0110
0000
0011
0000
0100
0000
0010
,
0000
0000
0000
0000
0000
0000
1100
0000
0000
0000
0000
0000
1000
0000
0000
0001
0000
0000
1000
0000
0000
0001
0000
0000
1000
0000
0000
0001
0000
0000
1000
0000
0001
0000
1000
0000
0001
0000
0000
1000
0000
0000
0001
0000
1000
0000
0001
0000
,
1000
0011
0101
0000
0000
0000
0010
0000
0000
0000
0100
0000
0000
0000
0110
0000
,
0000
1100
0000
0010
0000
0100
0100
0010
,
0001
0110
0000
0011
0000
0100
0000
0010
,
0000
0100
0000
0010
0000
0100
0000
0010
,
1000
0010
0101
0000
0000
0000
0010
0000
0000
0000
0100
0000
0000
0000
0110
0000
,
0000
1100
0000
0010
0000
0100
1000
0010
,
0100
0110
0000
0010
0000
0100
0000
0010
,
0000
0000
0110
0110
0110
0000
0110
0000
0110
0110
0000
0110
0110
0110
0110
0110
,
0110
0110
1001
0000
0100
0010
1100
0001
0100
0010
1001
0100
1000
0010
1100
0001
,
1000
0000
0000
0100
0000
0000
0011
0000
0000
1000
0000
0000
0010
0000
0000
0100
0000
0000
1010
0000
0000
0001
0000
0000
0010
0000
0000
1000
0000
0000
0011
0000
0000
0000
0000
0000
0010
0000
0001
0000
0010
0000
1100
0000
0000
0000
0000
0000
,
0001
0000
0000
0000
1010
0000
0100
0000
1000
0000
0100
0000
0011
0000
0100
0000
0010
0000
0001
0000
1010
0000
0000
0000
0001
0010
1000
0000
0010
0000
0000
0000
,
0001
0000
0000
0000
0000
0000
1010
0000
0000
0000
0100
0000
0000
0000
0010
0000
0000
0000
1001
0000
0000
0000
0000
0000
0100
0000
0000
1000
0000
0000
0010
0000
0000
0001
0000
0000
0010
0000
0000
0100
0000
0000
1001
0000
0100
0000
0010
0000
,
0001
0000
0010
0000
0100
0000
1010
0000
0000
0000
0000
0000
1000
0000
0000
0001
0000
0000
1010
0000
0000
0100
0000
0000
1000
0000
0000
0001
0000
0000
0110
0000
0000
1000
0000
0000
0010
0000
0000
0001
0000
0000
1010
0000
0000
0100
0000
0000
,
0010
0000
0000
1000
0000
0000
0101
0000
0000
0010
0000
0000
0001
0000
0000
1000
0000
0000
0011
0000
0000
0100
0000
0000
0001
0000
0000
0010
0000
0000
1001
0000
0000
0000
0000
0000
0001
0000
0100
0000
0001
0000
1010
0000
0000
0000
0000
0000
,
0100
0000
0000
0000
0011
0000
1000
0000
0010
0000
1000
0000
0101
0000
1000
0000
0001
0000
0100
0000
0011
0000
0000
0000
0100
0001
0010
0000
1000
0000
0000
0000
,
0100
0000
0000
0000
0000
0000
0011
0000
0000
0000
1000
0000
0000
0000
0001
0000
0000
0000
0110
0000
0000
0000
0000
0000
1000
0000
0000
0010
0000
0000
0001
0000
0000
0100
0000
0000
0001
0000
0000
1000
0000
0000
0110
0000
1000
0000
0001
0000
,
0100
0000
0001
0000
1000
0000
0011
0000
0000
0000
0000
0000
0010
0000
0000
0100
0000
0000
0011
0000
0000
1000
0000
0000
0010
0000
0000
0100
0000
0000
1001
0000
0000
0010
0000
0000
0001
0000
0000
0100
0000
0000
0011
0000
0000
1000
0000
0000
,
0001
0000
0000
0010
0000
0000
1100
0000
0000
0001
0000
0000
0100
0000
0000
0010
0000
0000
0101
0000
0000
1000
0000
0000
0100
0000
0000
0001
0000
0000
1100
0000
0000
0000
0000
0000
0100
0000
1000
0000
0100
0000
0011
0000
0000
0000
0000
0000
,
1000
0000
0000
0000
0101
0000
0010
0000
0001
0000
0010
0000
1100
0000
0010
0000
0100
0000
1000
0000
0101
0000
0000
0000
1000
0100
0001
0000
0100
0000
0000
0000
,
1000
0000
0000
0000
0000
0000
0101
0000
0000
0000
0010
0000
0000
0000
0100
0000
0000
0000
1001
0000
0000
0000
0000
0000
0010
0000
0000
0001
0000
0000
0100
0000
0000
1000
0000
0000
0100
0000
0000
0010
0000
0000
1001
0000
0010
0000
0100
0000
,
1000
0000
0100
0000
0010
0000
0101
0000
0000
0000
0000
0000
0001
0000
0000
1000
0000
0000
0101
0000
0000
0010
0000
0000
0001
0000
0000
1000
0000
0000
0110
0000
0000
0001
0000
0000
0100
0000
0000
1000
0000
0000
0101
0000
0000
0010
0000
0000
,
0100
0000
0000
0001
0000
0000
1010
0000
0000
0100
0000
0000
1000
0000
0000
0001
0000
0000
1100
0000
0000
0010
0000
0000
1000
0000
0000
0100
0000
0000
1010
0000
0000
0000
0000
0000
1000
0000
0010
0000
1000
0000
0101
0000
0000
0000
0000
0000
,
0010
0000
0000
0000
1100
0000
0001
0000
0100
0000
0001
0000
1010
0000
0001
0000
1000
0000
0010
0000
1100
0000
0000
0000
0010
1000
0100
0000
0001
0000
0000
0000
,
0010
0000
0000
0000
0000
0000
1100
0000
0000
0000
0001
0000
0000
0000
1000
0000
0000
0000
0110
0000
0000
0000
0000
0000
0001
0000
0000
0100
0000
0000
1000
0000
0000
0010
0000
0000
1000
0000
0000
0001
0000
0000
0110
0000
0001
0000
1000
0000
,
0010
0000
1000
0000
0001
0000
0110
0000
0000
0000
0000
0000
0100
0000
0000
0010
0000
0000
0100
0000
0000
0001
0000
0000
0100
0000
0000
0010
0000
0000
1000
0000
0000
0100
0000
0000
0000
0000
0000
0000
0000
0000
0010
0000
0000
0000
0000
0000
,
0000
0000
0010
1000
0010
0100
0010
0001
0010
0100
1000
0010
0000
0000
0100
0000
,
0000
0000
1000
0100
1000
0100
0010
0100
0010
0001
0010
0100
0010
0001
0100
1000
,
0010
0001
1000
0010
0100
0001
0010
1000
0100
1000
0010
0001
0100
0010
1000
0000
,
0000
0000
0010
0100
1000
0001
1000
0100
1000
0001
0010
1000
0000
0000
0010
0000
,
0000
0000
0001
0010
0001
1000
0001
0100
0001
0010
0100
1000
0000
0000
0010
0000
,
0000
0000
0010
1000
0010
1000
0001
1000
0001
0100
0010
1000
0100
0010
0001
0010
,
0100
1000
0010
0100
0001
1000
0010
0001
1000
0010
1000
0100
0010
0001
0010
0000
,
0000
0000
0110
0000
0100
0010
1100
0001
0100
0010
1001
0100
0000
0000
0110
0000
,
0000
0000
0011
1000
0010
0100
1010
0001
0010
0100
1001
0010
0000
0000
0101
0000
,
0000
0000
1010
0100
1000
0100
0011
0100
0010
0001
1010
0100
0010
0001
1100
0010
,
0100
0010
1001
0010
0100
0001
0110
1000
0100
1000
0110
0001
0000
0000
1010
0000
,
0000
0000
1010
0100
1000
0001
1010
0100
1000
0001
0110
1000
0000
0000
1010
0000
,
0000
0000
1001
0010
0001
1000
0011
0100
0001
0010
0101
1000
0000
0000
1010
0000
,
0000
0000
0110
1000
0010
1000
0011
1000
0001
0100
0011
1000
0010
1000
0101
0010
,
0001
0100
1010
0100
0001
1000
0110
0001
1000
0010
1001
0100
0000
0000
0010
0000
,
0010
1000
0110
0000
0100
0010
0100
0001
0100
0010
1000
0100
0010
0000
0010
1000
,
0000
0000
0011
1000
0010
1100
0010
0001
0010
0100
1000
0010
0001
0000
0100
1000
,
0000
0000
1010
0100
1000
0100
0011
0100
0010
0001
0010
0100
0010
0001
0100
0010
,
0100
0001
1000
0010
0100
0001
0010
1000
0100
1000
0010
0001
0100
0010
1000
0000
,
0100
1000
0011
0100
1000
0101
1000
0100
1010
0001
0100
1000
0000
0000
0010
0000
,
1000
0010
0101
0010
0001
1000
0001
0100
1001
0010
0100
1000
0000
0000
0110
0000
,
0000
0000
0011
1000
0010
1000
0001
1000
0001
0100
0010
1000
0100
0010
0001
0010
,
0100
1000
0010
0100
0001
1000
0010
0001
1000
0010
1000
0100
0000
0000
0010
0000
,
1000
0001
0110
0000
0100
0010
0100
0001
0100
0010
1000
0100
0010
0000
0010
0001
,
0000
0000
0110
1000
0010
0100
0010
0001
0010
0100
1000
0010
0001
0000
0100
1000
,
0000
0000
1010
0100
1000
0100
0011
0100
0010
0001
0010
0100
0010
0001
0100
0010
,
0100
0001
1000
0010
0100
0001
0010
1000
0100
1000
0010
0001
0100
0010
1000
0000
,
0000
0000
0011
0100
1000
0001
1000
0100
1000
0001
0010
1000
0110
0001
0010
0101
,
1000
0100
1001
0010
0001
1000
0001
0100
0001
0010
0100
1000
0110
0001
0010
1100
,
0001
0100
0011
1000
0010
1000
0001
1000
0001
0100
0010
1000
0100
0010
0001
0010
,
0100
1000
0010
0100
0001
1000
0010
0001
1000
0010
1000
0100
0010
0001
0110
0000
,
1000
0100
0010
0001
0010
0100
0010
0001
0010
0100
1000
0100
0010
0100
0010
0001
,
0010
0100
0010
0100
1000
0100
0010
0001
0010
0100
1000
0100
0010
0100
1000
0100
,
0010
0001
0010
0100
0010
0001
0010
0100
1000
0100
0010
0001
0010
0100
0010
0001
,
0010
0100
1000
0100
0010
0001
0010
0100
0010
0001
0010
0100
1000
0100
1000
0100
,
0010
0001
0010
0100
1000
0100
0010
0001
0010
0100
1000
0100
0010
0100
0010
0001
,
0010
0001
0010
0100
0010
0100
1000
0100
1000
0100
0010
0100
0010
0001
0010
0100
,
1000
0100
0010
0100
0010
0001
0010
0100
0010
0100
1000
0100
0010
0100
1000
0100
,
0010
0001
0010
0100
1000
0100
0010
0100
1000
0100
0010
0001
0010
0001
0010
0100
,
0010
0001
0100
0000
1000
0000
0100
0000
1000
0000
0100
0000
0010
0000
0100
0000
0010
0000
0001
0000
0010
0000
0100
0000
0010
0000
0100
0000
1000
0000
0100
0000
,
0010
1000
0001
0000
0010
0000
0100
0000
1000
0000
0100
0000
0010
0000
0100
0000
0010
0000
0001
0000
0010
0000
0001
0000
0010
0000
0001
0000
0010
0000
0001
0000
,
0010
0001
0100
0000
1000
0000
0100
0000
1000
0000
0100
0000
1000
0000
0100
0000
1000
0000
0100
0000
0010
0000
0100
0000
0010
0000
0001
0000
0010
0000
0100
0000
,
1000
0010
0100
0000
0001
0000
0100
0000
1000
0000
0100
0000
0010
0000
0001
0000
0010
0000
0100
0000
1000
0000
0100
0000
1000
0000
0100
0000
0010
0000
0100
0000
,
0010
1000
0001
0000
0010
0000
0100
0000
1000
0000
0100
0000
0010
0000
0001
0000
0010
0000
0100
0000
1000
0000
0100
0000
0010
0000
0001
0000
0010
0000
0100
0000
,
1000
0001
0100
0000
0010
0000
0100
0000
0010
0000
0001
0000
0010
0000
0100
0000
0010
0000
0001
0000
0010
0000
0100
0000
1000
0000
0100
0000
1000
0000
0100
0000
,
0010
1000
0100
0000
0010
0000
0001
0000
0010
0000
0100
0000
1000
0000
0100
0000
0010
0000
0001
0000
0010
0000
0100
0000
1000
0000
0100
0000
0010
0000
0001
0000
,
0010
0001
0100
0000
1000
0000
0100
0000
1000
0000
0100
0000
0010
0000
0100
0000
0001
0000
0010
0000
1000
0000
0010
0000
0100
0000
0001
0000
1000
0000
0010
0000
,
0100
0000
0000
0000
,
1000
0010
0001
0000
0000
0000
0000
0000
0000
0000
0000
0000
0000
0000
0100
0000
,
0000
1000
0000
0000
0000
0000
0100
0000
,
0001
0010
0000
0001
0000
0000
0000
0000
,
0000
0000
0000
0000
,
1000
0010
0001
0000
0000
0000
0000
0000
0000
0000
0000
0000
0000
0000
0100
0000
,
0000
1000
0000
0000
0000
0000
1000
0000
,
0100
0010
0000
0001
0000
0000
0000
0000
,
0000
0000
0100
0000
1000
0001
1000
0001
1000
0001
1000
0001
1000
0001
1000
0001
,
1000
0001
1000
0001
1000
0001
1000
0001
1000
0001
1000
0001
1000
0001
1000
0001
,
1000
0001
1000
0001
1000
0001
1000
0001
1000
0001
1000
0001
1000
0001
1000
0001
,
1100
0010
0101
0000
1000
0000
1000
0010
0000
1000
0001
0000
1000
0010
0100
1000
,
0001
0000
0011
1000
0100
0000
0001
1000
0000
0001
0100
0000
0011
1000
0000
0001
,
0110
0000
1001
0100
0010
0000
1100
0001
0000
1000
0010
0000
1000
0001
0000
1000
,
0001
0000
0100
0001
0010
0000
0100
0001
0000
0100
0010
0000
0100
0001
0010
0100
,
1010
0001
0110
1000
0010
0000
1000
0010
0000
1000
0100
0000
1000
0010
0001
1000
,
0100
0000
0101
1000
0010
0000
1000
0010
0000
0100
1000
0000
0101
0010
0000
0100
,
1010
0000
0011
0100
1000
0000
1001
0100
0000
0001
1000
0000
0001
0100
0010
0001
,
1000
0000
1000
0001
0010
0000
0001
1000
0000
0001
0100
0000
0001
1000
0000
1000
,
0011
1000
0101
0000
1000
0000
1000
0010
0000
1000
0001
0000
1000
0010
0100
1000
,
0001
0000
0011
1000
0100
0000
0001
1000
0000
0001
0100
0000
0011
1000
0000
0001
,
0110
0000
1001
0100
0010
0000
1100
0001
0000
1000
0010
0000
1000
0001
0000
1000
,
0010
0000
0100
0001
0010
0000
0100
0001
0000
0100
0010
0000
0100
0001
0000
0100
,
1010
0100
0011
1000
0010
0000
1000
0010
0000
1000
0100
0000
1000
0010
0001
1000
,
0100
0000
0011
1000
0010
0000
0100
0010
0000
0100
1000
0000
0101
0010
0000
0100
,
1001
0000
1010
0100
1000
0000
0001
0100
0000
0001
1000
0000
0001
0100
0000
0001
,
1000
0000
0100
0010
0001
0000
0010
0100
0000
1000
0001
0000
0010
0100
0000
1000
,
0011
1010
0101
0000
1000
0000
1000
0010
0000
1000
0001
0000
1000
0010
0100
1000
,
0001
0000
0011
1000
0100
0000
0001
1000
0000
0001
0100
0000
0011
1000
0000
0001
,
0110
0000
1001
0100
0010
0000
1010
0001
0000
1000
0010
0000
1000
0001
0000
1000
,
0010
0000
0100
0001
0010
0000
0100
0001
0000
0100
0010
0000
0100
0001
0000
0100
,
1010
0110
0101
1000
0010
0000
1000
0010
0000
1000
0100
0000
1000
0010
0001
1000
,
0100
0000
0101
1000
0010
0000
0100
0010
0000
0100
1000
0000
1100
0010
0000
0100
,
1001
0000
0110
0100
1000
0000
0011
0100
0000
0001
1000
0000
0001
0100
0000
0001
,
1000
0000
0100
0001
0010
0000
0001
1000
0000
0001
0100
0000
0001
1000
0000
1000
,
0011
1010
0101
0000
1000
0000
1000
0010
0000
1000
0001
0000
1000
0010
0100
1000
,
0001
0000
0011
1000
0100
0000
0001
1000
0000
0001
0100
0000
0011
1000
0000
0001
,
0110
0000
1001
0100
0010
0000
1010
0001
0000
1000
0010
0000
1000
0001
0000
1000
,
0010
0000
0100
0001
0010
0000
0100
0001
0000
0100
0010
0000
0100
0001
0000
0100
,
1010
0110
0101
1000
0010
0000
1000
0010
0000
1000
0100
0000
1000
0010
0001
1000
,
0100
0000
0101
1000
0010
0000
0100
0010
0000
0100
1000
0000
0101
0010
0000
0100
,
1010
0000
0011
0100
1000
0000
0001
0100
0000
0001
1000
0000
0001
0100
0000
0001
,
1000
0000
0100
0010
0001
0000
0010
0100
0000
1000
0001
0000
0010
0100
0000
1000
,
0001
0000
0101
0100
1000
0000
1100
0010
0000
1000
0011
0000
1000
0010
0000
1000
,
0001
0000
0101
1000
0100
0000
0011
1000
0000
0001
0110
0000
0001
1000
0100
0001
,
0010
0000
1001
0100
0010
0000
1100
0001
0000
1000
0110
0000
1000
0001
0100
1000
,
0010
0000
1100
0001
0010
0000
0110
0001
0000
0100
1010
0000
0100
0001
1000
0100
,
0010
0000
0101
1000
0010
0000
1001
0010
0000
1000
0101
0000
1000
0010
0001
1000
,
0100
0000
0011
1000
0010
0000
1100
0010
0000
0100
1001
0000
0100
0010
0001
0100
,
1000
0000
0011
0100
1000
0000
1001
0100
0000
0001
1010
0000
0001
0100
0010
0001
,
1000
0000
1100
0001
0010
0000
0101
1000
0000
0001
0110
0000
0001
1000
0010
1000
,
0001
0000
0101
0000
1000
0000
1001
0010
0000
1000
0101
0000
1000
0010
0100
1000
,
0001
0000
0011
1000
0100
0000
0101
1000
0000
0001
0110
0000
0001
1000
0100
0001
,
0010
0000
1001
0100
0010
0000
1100
0001
0000
1000
0110
0000
1000
0001
0010
1000
,
0010
0000
1100
0001
0010
0000
1100
0001
0000
0100
0011
0000
0100
0001
1000
0100
,
0010
0000
0101
1000
0010
0000
1001
0010
0000
1000
0110
0000
1000
0010
0001
1000
,
0100
0000
0101
1000
0010
0000
1100
0010
0000
0100
1001
0000
0100
0010
0001
0100
,
1000
0000
0011
0100
1000
0000
1001
0100
0000
0001
1010
0000
0001
0100
0010
0001
,
2000
0000
0000
0000
,
0000
0000
0000
0000
,
0000
0000
0000
0000
,
3000
0000
0000
0000
;

//---------------dance-single - Copied from SMANIAC----------------
#NOTES:
     dance-single:
     Copied from SMANIAC:
     Edit:
     14:
     1.000,1.000,1.000,0.003,1.000,2250.000,821.000,1.000,0.000,1.000:
1000
0010
0001
0000
0000
0000
0000
0000
0000
0000
0000
0000
0000
0000
0100
0000
,
0000
1000
0000
0000
0000
0000
0100
0000
,
0001
0010
0000
0001
0000
0000
0000
0000
,
0000
0000
0000
0000
,
1000
0010
0001
0000
0000
0000
0000
0000
0000
0000
0000
0000
0000
0000
0100
0000
,
0000
1000
0000
0000
0000
0000
1000
0000
,
0100
0010
0000
0000
0000
0000
0000
0000
,
0000
0000
0000
0000
,
0000
0000
0000
0000
,
1000
0010
0101
0000
1000
0000
0010
0000
0100
0000
0100
0000
1000
0000
0110
0000
,
0100
1100
1000
0010
0100
0100
1100
0010
,
0101
0110
1000
0011
0100
0100
1000
0010
,
0100
0100
1000
0010
0100
0100
1000
0010
,
1100
0010
0101
0000
1000
0000
0010
0000
0100
0000
0100
0000
1000
0000
0110
0000
,
0100
1100
1000
0010
0100
0100
1000
0010
,
0100
0110
1000
0011
0100
0100
1000
0010
,
0100
0100
1000
0010
0100
0100
1000
0010
,
1100
0010
0101
0000
1000
0000
0010
0000
0100
0000
0100
0000
1000
0000
0110
0000
,
0100
1100
1000
0010
0100
0100
1100
0010
,
0101
0110
1000
0011
0100
0100
1000
0010
,
0100
0100
1000
0010
0100
0100
1000
0010
,
1100
0010
0101
0000
1000
0000
0010
0000
0100
0000
0100
0000
1000
0000
0110
0000
,
0100
1100
1000
0010
0100
0100
1000
0010
,
0100
0110
1000
0010
0100
0100
1000
0010
,
0100
0000
0000
0000
0000
0000
1000
0000
0000
0000
0000
0000
1100
0000
0000
0001
0000
0000
1000
0000
0000
0001
0000
0000
1100
0000
0000
0001
0000
0000
1000
0000
0001
0000
1000
0000
0101
0000
0000
1000
0000
0000
0001
0000
1000
0000
0001
0000
,
1100
0001
1001
0000
0000
0000
0000
0000
0000
0000
0000
0000
0000
0000
1000
0000
,
0000
0001
0000
0000
0000
0000
0100
0000
,
0001
0010
0000
0001
0000
0000
0000
0000
,
0000
0000
0000
0000
,
1000
0010
0001
0000
0000
0000
0000
0000
0000
0000
0000
0000
0000
0000
0100
0000
,
0000
1000
0000
0000
0000
0000
1000
0000
,
0100
0010
0000
0001
0000
0000
0000
0000
,
0000
0000
0000
0000
,
0000
0000
1000
0000
0001
0000
0100
0010
0000
0010
0100
0000
1000
0001
0000
0001
,
1000
0000
0100
0010
0001
0000
1000
0000
0001
0100
0000
0100
0001
0000
1000
0010
,
0100
0000
0001
0100
1000
0000
0010
0000
0100
0001
0000
1000
0100
0001
0010
1000
,
0001
0100
0010
1000
0001
0000
0100
0000
0010
0001
0000
0100
0010
1000
0100
0001
,
0010
0100
0010
1000
0010
1000
0010
1000
0010
1000
0010
1000
0010
1000
0010
1000
,
0010
1000
0010
1000
0010
1000
0010
1000
0010
1000
0010
1000
0010
1000
0010
1000
,
0010
1000
0010
1000
0010
1000
0010
1000
0010
1000
0010
1000
0010
1000
0010
1000
,
0010
1000
0101
0000
0101
0000
0000
0000
0101
0000
0000
0000
0101
0000
0000
0000
,
0101
0000
1000
0000
0100
0010
0100
0001
0100
0010
1000
0100
1000
0010
1000
0001
,
1000
0000
0000
0100
0000
0000
0010
0000
0000
1000
0000
0000
0010
0000
0000
0100
0000
0000
0010
0000
0000
0001
0000
0000
0010
0000
0000
1000
0000
0000
0010
0000
0000
0000
0000
0000
0010
0000
0001
0000
0010
0000
1000
0000
0000
0000
0000
0000
,
0001
0000
0000
0000
1000
0000
0100
0000
1000
0000
0100
0000
0010
0000
0100
0000
0010
0000
0001
0000
0010
0000
0000
0000
0001
0010
1000
0000
0000
0000
0000
0000
,
0001
0000
0000
0000
0000
0000
1000
0000
0000
0000
0100
0000
0000
0000
0010
0000
0000
0000
1000
0000
0000
0000
0000
0000
0100
0000
0000
1000
0000
0000
0000
0000
0000
0001
0000
0000
0010
0000
0000
0100
0000
0000
1000
0000
0100
0000
0010
0000
,
0001
0000
0010
0000
0100
0000
1010
0000
0000
0000
0000
0000
1000
0000
0000
0001
0000
0000
1000
0000
0000
0100
0000
0000
1000
0000
0000
0001
0000
0000
0010
0000
0000
1000
0000
0000
0010
0000
0000
0001
0000
0000
0010
0000
0000
0100
0000
0000
,
0010
0000
0000
1000
0000
0000
0001
0000
0000
0010
0000
0000
0001
0000
0000
1000
0000
0000
0001
0000
0000
0100
0000
0000
0001
0000
0000
0010
0000
0000
0001
0000
0000
0000
0000
0000
0001
0000
0100
0000
0001
0000
0010
0000
0000
0000
0000
0000
,
0100
0000
0000
0000
0010
0000
1000
0000
0010
0000
1000
0000
0001
0000
1000
0000
0001
0000
0100
0000
0001
0000
0000
0000
0100
0001
0010
0000
0000
0000
0000
0000
,
0100
0000
0000
0000
0000
0000
0010
0000
0000
0000
1000
0000
0000
0000
0001
0000
0000
0000
0010
0000
0000
0000
0000
0000
1000
0000
0000
0010
0000
0000
0000
0000
0000
0100
0000
0000
0001
0000
0000
1000
0000
0000
0010
0000
1000
0000
0001
0000
,
0100
0000
0001
0000
1000
0000
0011
0000
0000
0000
0000
0000
0011
0000
0000
1100
0000
0000
0011
0000
0000
1010
0000
0000
0011
0000
0000
1100
0000
0000
0011
0000
0000
1010
0000
0000
0011
0000
0000
0110
0000
0000
0101
0000
0000
1100
0000
0000
,
1001
0000
0000
0110
0000
0000
0110
0000
0000
1001
0000
0000
0101
0000
0000
0011
0000
0000
0110
0000
0000
1010
0000
0000
0110
0000
0000
0101
0000
0000
0110
0000
0000
0000
0000
0000
0110
0000
1001
0000
0110
0000
0011
0000
0000
0000
0000
0000
,
1100
0000
0000
0000
0011
0000
0110
0000
0011
0000
0110
0000
1100
0000
0110
0000
1100
0000
1010
0000
0101
0000
0000
0000
1010
0110
0101
0000
0000
0000
0000
0000
,
1100
0000
0000
0000
0000
0000
0011
0000
0000
0000
0110
0000
0000
0000
1100
0000
0000
0000
0101
0000
0000
0000
0000
0000
0110
0000
0000
1001
0000
0000
0000
0000
0000
1100
0000
0000
0110
0000
0000
0011
0000
0000
1001
0000
0011
0000
0110
0000
,
1100
0000
0110
0000
0011
0000
0101
0000
0000
0000
0000
0000
0011
0000
0000
1100
0000
0000
0011
0000
0000
0110
0000
0000
0101
0000
0000
1010
0000
0000
0110
0000
0000
0101
0000
0000
0110
0000
0000
1100
0000
0000
0101
0000
0000
1010
0000
0000
,
0110
0000
0000
0101
0000
0000
1010
0000
0000
0110
0000
0000
1001
0000
0000
0101
0000
0000
1010
0000
0000
0110
0000
0000
1010
0000
0000
0101
0000
0000
1100
0000
0000
0000
0000
0000
1100
0000
0011
0000
1100
0000
0110
0000
0000
0000
0000
0000
,
0110
0000
0000
0000
0110
0000
0011
0000
0110
0000
0011
0000
1100
0000
0101
0000
1100
0000
0110
0000
1100
0000
0000
0000
0011
1100
0110
0000
0000
0000
0000
0000
,
0110
0000
0000
0000
0000
0000
0110
0000
0000
0000
0011
0000
0000
0000
1100
0000
0000
0000
0110
0000
0000
0000
0000
0000
0011
0000
0000
0110
0000
0000
0000
0000
0000
0110
0000
0000
1100
0000
0000
0011
0000
0000
0110
0000
0101
0000
1100
0000
,
0111
0000
1100
0110
1001
0000
0101
0000
0000
0000
0000
0000
1000
0000
0000
0000
0000
0000
0010
0000
0000
0000
0000
0000
0100
0000
0000
0000
0000
0000
0100
0000
0000
0000
0000
0000
1000
0000
0000
0000
0000
0000
0110
0000
0000
0000
0000
0000
,
0100
1100
1000
0010
0100
0100
1100
0010
,
0101
0110
1000
0011
0100
0100
1000
0010
,
0100
0100
1000
0010
0100
0100
1000
0010
,
1100
0010
0101
0000
1000
0000
0010
0000
0100
0000
0100
0000
1000
0000
0110
0000
,
0100
1100
1000
0010
0100
0100
1000
0010
,
0100
0110
1000
0011
0100
0100
1000
0010
,
0100
0000
0000
0000
0000
0000
1100
0000
0000
0000
0000
0000
1100
0000
0000
0001
0000
0000
1000
0000
0000
0001
0000
0000
1100
0000
0000
0001
0000
0000
1000
0000
0001
0000
1000
0000
0101
0000
0000
1000
0000
0000
0001
0000
1000
0000
0001
0000
,
1100
0011
0101
0000
1000
0000
0010
0000
0100
0000
0100
0000
1000
0000
0110
0000
,
0100
1100
1000
0010
0100
0100
1100
0010
,
0101
0110
1000
0011
0100
0100
1000
0010
,
0100
0100
1000
0010
0100
0100
1000
0010
,
1100
0010
0101
0000
1000
0000
0010
0000
0100
0000
0100
0000
1000
0000
0110
0000
,
0100
1100
1000
0010
0100
0100
1000
0010
,
0100
0110
1000
0010
0100
0100
1000
0010
,
0100
0000
0110
0110
0110
0000
0110
0000
0110
0110
0000
0110
0110
0110
0110
0110
,
0110
0110
1001
0000
0110
0010
1100
0001
0110
0010
1001
0100
1010
0010
1100
0001
,
1010
0000
0000
0100
0000
0000
0011
0000
0000
1000
0000
0000
0110
0000
0000
0100
0000
0000
1010
0000
0000
0001
0000
0000
0110
0000
0000
1000
0000
0000
0011
0000
0000
0000
0000
0000
0110
0000
0001
0000
0010
0000
1100
0000
0000
0000
0000
0000
,
0011
0000
0000
0000
1010
0000
0100
0000
1010
0000
0100
0000
0011
0000
0100
0000
0110
0000
0001
0000
1010
0000
0000
0000
0101
0010
1000
0000
0010
0000
0000
0000
,
0101
0000
0000
0000
0000
0000
1010
0000
0000
0000
0100
0000
0001
0000
0010
0000
0000
0000
1001
0000
0000
0000
0000
0000
0110
0000
0000
1000
0000
0000
0010
0000
0000
0001
0000
0000
1010
0000
0000
0100
0000
0000
1001
0000
0100
0000
0010
0000
,
1001
0000
0010
0000
0100
0000
1010
0000
0000
0000
0000
0000
1100
0000
0000
0001
0000
0000
1010
0000
0000
0100
0000
0000
1010
0000
0000
0001
0000
0000
0110
0000
0000
1000
0000
0000
0110
0000
0000
0001
0000
0000
1010
0000
0000
0100
0000
0000
,
0011
0000
0000
1000
0000
0000
0101
0000
0000
0010
0000
0000
0101
0000
0000
1000
0000
0000
0011
0000
0000
0100
0000
0000
1001
0000
0000
0010
0000
0000
1001
0000
0000
0000
0000
0000
0011
0000
0100
0000
0001
0000
1010
0000
0000
0000
0000
0000
,
0110
0000
0000
0000
0011
0000
1000
0000
0110
0000
1000
0000
0101
0000
1000
0000
0011
0000
0100
0000
0011
0000
0000
0000
1100
0001
0010
0000
1000
0000
0000
0000
,
0110
0000
0000
0000
0000
0000
0011
0000
0000
0000
1000
0000
0100
0000
0001
0000
0000
0000
0110
0000
0000
0000
0000
0000
1100
0000
0000
0010
0000
0000
0001
0000
0000
0100
0000
0000
0011
0000
0000
1000
0000
0000
0110
0000
1000
0000
0001
0000
,
0110
0000
0001
0000
1000
0000
0011
0000
0000
0000
0000
0000
1010
0000
0000
0110
0000
0000
0011
0000
0000
1100
0000
0000
0011
0000
0000
0110
0000
0000
1001
0000
0000
0110
0000
0000
0011
0000
0000
1100
0000
0000
0011
0000
0000
1010
0000
0000
,
0101
0000
0000
0011
0000
0000
1100
0000
0000
0011
0000
0000
0110
0000
0000
1010
0000
0000
0101
0000
0000
1010
0000
0000
0110
0000
0000
0011
0000
0000
1100
0000
0000
0000
0000
0000
0110
0000
1100
0000
0101
0000
0011
0000
0000
0000
0000
0000
,
1100
0000
0000
0000
0101
0000
1010
0000
1001
0000
0110
0000
1100
0000
0011
0000
0110
0000
1010
0000
0101
0000
0000
0000
1010
0101
0011
0000
0110
0000
0000
0000
,
1100
0000
0000
0000
0000
0000
0101
0000
0000
0000
0110
0000
0000
0000
1100
0000
0000
0000
1001
0000
0000
0000
0000
0000
0110
0000
0000
0011
0000
0000
0110
0000
0000
1100
0000
0000
0110
0000
0000
0011
0000
0000
1001
0000
0110
0000
1100
0000
,
1001
0000
0110
0000
1010
0000
0101
0000
0000
0000
0000
0000
0011
0000
0000
1100
0000
0000
0101
0000
0000
0110
0000
0000
0011
0000
0000
1100
0000
0000
0110
0000
0000
0011
0000
0000
0110
0000
0000
1100
0000
0000
0101
0000
0000
1010
0000
0000
,
0101
0000
0000
0011
0000
0000
1010
0000
0000
0110
0000
0000
1100
0000
0000
0011
0000
0000
1100
0000
0000
0110
0000
0000
1010
0000
0000
0101
0000
0000
1010
0000
0000
0000
0000
0000
1100
0000
0011
0000
1010
0000
0101
0000
0000
0000
0000
0000
,
0110
0000
0000
0000
1100
0000
0011
0000
0110
0000
0101
0000
1010
0000
0011
0000
1100
0000
0110
0000
1100
0000
0000
0000
0110
1010
0101
0000
1001
0000
0000
0000
,
0110
0000
0000
0000
0000
0000
1100
0000
0000
0000
0011
0000
0000
0000
1100
0000
0000
0000
0110
0000
0000
0000
0000
0000
0011
0000
0000
0110
0000
0000
1100
0000
0000
0110
0000
0000
1100
0000
0000
0011
0000
0000
0110
0000
0101
0000
1010
0000
,
0110
0000
1100
0000
0011
0000
0110
0000
0000
0000
0000
0000
0100
0000
0000
0010
0000
0000
1100
0000
0000
0001
0000
0000
0100
0000
0000
0010
0000
0000
1001
0000
0000
0100
0000
0000
0000
0000
0000
0000
0000
0000
1010
0000
0000
0000
0000
0000
,
0000
0000
0011
1000
0010
0100
1010
0001
0010
0100
1001
0010
0000
0000
1100
0000
,
0000
0000
1001
0100
1000
0100
1010
0100
0010
0001
0011
0100
0010
0001
1100
1000
,
0010
0001
1001
0010
0100
0001
1010
1000
0100
1000
0011
0001
0100
0010
1001
0000
,
0000
0000
0011
0100
1000
0001
1100
0100
1000
0001
0011
1000
0000
0000
0110
0000
,
0000
0000
0011
0010
0001
1000
0101
0100
0001
0010
0110
1000
0000
0000
0110
0000
,
0000
0000
0011
1000
0010
1000
0101
1000
0001
0100
0011
1000
0100
0010
0101
0010
,
0100
1000
0011
0100
0001
1000
0110
0001
1000
0010
1001
0100
0010
0001
0110
0000
,
0000
0000
0110
0000
0101
0010
1100
0001
0110
0010
1001
0100
0010
0000
0110
0000
,
1000
0000
0011
1000
0110
0100
1010
0001
0110
0100
1001
0010
0100
0000
0101
0000
,
0010
0000
1010
0100
1001
0100
0011
0100
0110
0001
1010
0100
0110
0001
1100
0010
,
0101
0010
1001
0010
0110
0001
0110
1000
0110
1000
0110
0001
0100
0000
1010
0000
,
0100
0000
1010
0100
1001
0001
1010
0100
1010
0001
0110
1000
0100
0000
1010
0000
,
0100
0000
1001
0010
0101
1000
0011
0100
0101
0010
0101
1000
0100
0000
1010
0000
,
0100
0000
0110
1000
0110
1000
0011
1000
0101
0100
0011
1000
0110
1000
0101
0010
,
0101
0100
1010
0100
0101
1000
0110
0001
1100
0010
1001
0100
0100
0000
0010
0000
,
0110
1000
0110
0000
1100
0010
0100
0001
1100
0010
1000
0100
0011
0000
0010
1000
,
0100
0000
0011
1000
0110
1100
0010
0001
0110
0100
1000
0010
0101
0000
0100
1000
,
0010
0000
1010
0100
1001
0100
0011
0100
1010
0001
0010
0100
0110
0001
0100
0010
,
1100
0001
1000
0010
0110
0001
0010
1000
0110
1000
0010
0001
0110
0010
1000
0000
,
0110
1000
0011
0100
1010
0101
1000
0100
1010
0001
0100
1000
0010
0000
0010
0000
,
1100
0010
0101
0010
0101
1000
0001
0100
1001
0010
0100
1000
0001
0000
0110
0000
,
0001
0000
0011
1000
0110
1000
0001
1000
0011
0100
0010
1000
0101
0010
0001
0010
,
1100
1000
0010
0100
0011
1000
0010
0001
1100
0010
1000
0100
0001
0000
0010
0000
,
1100
0001
0110
0000
1100
0010
0100
0001
0110
0010
1000
0100
0011
0000
0010
0001
,
0100
0000
0110
1000
0011
0100
0010
0001
1010
0100
1000
0010
0011
0000
0100
1000
,
0010
0000
1010
0100
1001
0100
0011
0100
1010
0001
0010
0100
0110
0001
0100
0010
,
0110
0001
1000
0010
1100
0001
0010
1000
0110
1000
0010
0001
0110
0010
1000
0000
,
0100
0000
0011
0100
1010
0001
1000
0100
1100
0001
0010
1000
0110
0001
0010
0101
,
1010
0100
1001
0010
0101
1000
0001
0100
0011
0010
0100
1000
0110
0001
0010
1100
,
0011
0100
0011
1000
0110
1000
0001
1000
0011
0100
0010
1000
0101
0010
0001
0010
,
0110
1000
0010
0100
0011
1000
0010
0001
1100
0010
1000
0100
1010
0001
0110
0000
,
1010
0100
0010
0001
0110
0100
0010
0001
1010
0100
1000
0100
0011
0100
0010
0001
,
0110
0100
0010
0100
1001
0100
0010
0001
0110
0100
1000
0100
0011
0100
1000
0100
,
1010
0001
0010
0100
0110
0001
0010
0100
1010
0100
0010
0001
0110
0100
0010
0001
,
1010
0100
1000
0100
0110
0001
0010
0100
1010
0001
0010
0100
1010
0100
1000
0100
,
0011
0001
0010
0100
1010
0100
0010
0001
0110
0100
1000
0100
0011
0100
0010
0001
,
0110
0001
0010
0100
0011
0100
1000
0100
1010
0100
0010
0100
0011
0001
0010
0100
,
1010
0100
0010
0100
1010
0001
0010
0100
0011
0100
1000
0100
0011
0100
1000
0100
,
0110
0001
0010
0100
1010
0100
0010
0100
1001
0100
0010
0001
1010
0001
0010
0100
,
1010
0001
0100
0000
1000
0000
0100
0000
1010
0000
0100
0000
0010
0000
0100
0000
1010
0000
0001
0000
0010
0000
0100
0000
1010
0000
0100
0000
1000
0000
0100
0000
,
0110
1000
0001
0000
0010
0000
0100
0000
1010
0000
0100
0000
0010
0000
0100
0000
1010
0000
0001
0000
0010
0000
0001
0000
1010
0000
0001
0000
0010
0000
0001
0000
,
1010
0001
0100
0000
1000
0000
0100
0000
1001
0000
0100
0000
1000
0000
0100
0000
1001
0000
0100
0000
0010
0000
0100
0000
0011
0000
0001
0000
0010
0000
0100
0000
,
1010
0010
0100
0000
0001
0000
0100
0000
1010
0000
0100
0000
0010
0000
0001
0000
1010
0000
0100
0000
1000
0000
0100
0000
1010
0000
0100
0000
0010
0000
0100
0000
,
0011
1000
0001
0000
0010
0000
0100
0000
1010
0000
0100
0000
0010
0000
0001
0000
0110
0000
0100
0000
1000
0000
0100
0000
1010
0000
0001
0000
0010
0000
0100
0000
,
1010
0001
0100
0000
0010
0000
0100
0000
1010
0000
0001
0000
0010
0000
0100
0000
1010
0000
0001
0000
0010
0000
0100
0000
1010
0000
0100
0000
1000
0000
0100
0000
,
0011
1000
0100
0000
0010
0000
0001
0000
0110
0000
0100
0000
1000
0000
0100
0000
1010
0000
0001
0000
0010
0000
0100
0000
1010
0000
0100
0000
0010
0000
0001
0000
,
0110
0001
0100
0000
1000
0000
0100
0000
1010
0000
0100
0000
0010
0000
0100
0000
1001
0000
0010
0000
1000
0000
0010
0000
0110
0000
0001
0000
1000
0000
0010
0000
,
0110
0000
0000
0000
,
1000
0010
0001
0000
0000
0000
0000
0000
0000
0000
0000
0000
0000
0000
0100
0000
,
0000
1000
0000
0000
0000
0000
0100
0000
,
0001
0010
0000
0001
0000
0000
0000
0000
,
0000
0000
0000
0000
,
1000
0010
0001
0000
0000
0000
0000
0000
0000
0000
0000
0000
0000
0000
0100
0000
,
0000
1000
0000
0000
0000
0000
1000
0000
,
0100
0010
0000
0001
0000
0000
0000
0000
,
0000
0000
0100
0000
1100
0001
1000
0001
1100
0001
1000
0001
1100
0001
1000
0001
,
1100
0001
1000
0001
1100
0001
1000
0001
1100
0001
1000
0001
1100
0001
1000
0001
,
1100
0001
1000
0001
1100
0001
1000
0001
1100
0001
1000
0001
1100
0001
1000
0001
,
1100
0010
0101
0000
1100
0000
1000
0010
0100
1000
0001
0000
1100
0010
0100
1000
,
0101
0000
0011
1000
0100
0000
0001
1000
0100
0001
0100
0000
0011
1000
0000
0001
,
0110
0000
1001
0100
0110
0000
1100
0001
0100
1000
0010
0000
1100
0001
0000
1000
,
0101
0000
0100
0001
0110
0000
0100
0001
0100
0100
0010
0000
1100
0001
0010
0100
,
1010
0001
0110
1000
0110
0000
1000
0010
0100
1000
0100
0000
1100
0010
0001
1000
,
0100
0000
0101
1000
0110
0000
1000
0010
0100
0100
1000
0000
0101
0010
0000
0100
,
1010
0000
0011
0100
1100
0000
1001
0100
0100
0001
1000
0000
0101
0100
0010
0001
,
1100
0000
1000
0001
0110
0000
0001
1000
0100
0001
0100
0000
0101
1000
0000
1000
,
0011
1000
0101
0000
1100
0000
1000
0010
0100
1000
0001
0000
1100
0010
0100
1000
,
0101
0000
0011
1000
0100
0000
0001
1000
0100
0001
0100
0000
0011
1000
0000
0001
,
0110
0000
1001
0100
0110
0000
1100
0001
0100
1000
0010
0000
1100
0001
0000
1000
,
0110
0000
0100
0001
1010
0000
0100
0001
1000
0100
0010
0000
1100
0001
0000
0100
,
1010
0100
0011
1000
0110
0000
1000
0010
0100
1000
0100
0000
1100
0010
0001
1000
,
0100
0000
0011
1000
0110
0000
0100
0010
1000
0100
1000
0000
0101
0010
0000
0100
,
1001
0000
1010
0100
1010
0000
0001
0100
0010
0001
1000
0000
0011
0100
0000
0001
,
1010
0000
0100
0010
1001
0000
0010
0100
1000
1000
0001
0000
0110
0100
0000
1000
,
0011
1010
0101
0000
1010
0000
1000
0010
0100
1000
0001
0000
1010
0010
0100
1000
,
0101
0000
0011
1000
0110
0000
0001
1000
0100
0001
0100
0000
0011
1000
0000
0001
,
0110
0000
1001
0100
0110
0000
1010
0001
0010
1000
0010
0000
1100
0001
0000
1000
,
0110
0000
0100
0001
1010
0000
0100
0001
1000
0100
0010
0000
1100
0001
0000
0100
,
1010
0110
0101
1000
0110
0000
1000
0010
0001
1000
0100
0000
1001
0010
0001
1000
,
0101
0000
0101
1000
0011
0000
0100
0010
0001
0100
1000
0000
1100
0010
0000
0100
,
1001
0000
0110
0100
1001
0000
0011
0100
0010
0001
1000
0000
0011
0100
0000
0001
,
1010
0000
0100
0001
0110
0000
0001
1000
0100
0001
0100
0000
0101
1000
0000
1000
,
0011
1010
0101
0000
1100
0000
1000
0010
0100
1000
0001
0000
1100
0010
0100
1000
,
0101
0000
0011
1000
1100
0000
0001
1000
1000
0001
0100
0000
0011
1000
0000
0001
,
0110
0000
1001
0100
1010
0000
1010
0001
0100
1000
0010
0000
1100
0001
0000
1000
,
0110
0000
0100
0001
1010
0000
0100
0001
1000
0100
0010
0000
1100
0001
0000
0100
,
1010
0110
0101
1000
0011
0000
1000
0010
0001
1000
0100
0000
1001
0010
0001
1000
,
0110
0000
0101
1000
0110
0000
0100
0010
0010
0100
1000
0000
0101
0010
0000
0100
,
1010
0000
0011
0100
1010
0000
0001
0100
0100
0001
1000
0000
0101
0100
0000
0001
,
1010
0000
0100
0010
1001
0000
0010
0100
0100
1000
0001
0000
0110
0100
0000
1000
,
0011
0000
0101
0100
1010
0000
1100
0010
0001
1000
0011
0000
1100
0010
0000
1000
,
0011
0000
0101
1000
0110
0000
0011
1000
0100
0001
0110
0000
1001
1000
0100
0001
,
0010
0000
1001
0100
0011
0000
1100
0001
0010
1000
0110
0000
1001
0001
0100
1000
,
0010
0000
1100
0001
0110
0000
0110
0001
1000
0100
1010
0000
0110
0001
1000
0100
,
0011
0000
0101
1000
0110
0000
1001
0010
0100
1000
0101
0000
1010
0010
0001
1000
,
0110
0000
0011
1000
0110
0000
1100
0010
0001
0100
1001
0000
0110
0010
0001
0100
,
1010
0000
0011
0100
1010
0000
1001
0100
0010
0001
1010
0000
0101
0100
0010
0001
,
1100
0000
1100
0001
0110
0000
0101
1000
0010
0001
0110
0000
0101
1000
0010
1000
,
0011
0000
0101
0000
1010
0000
1001
0010
0100
1000
0101
0000
1010
0010
0100
1000
,
0011
0000
0011
1000
0110
0000
0101
1000
0010
0001
0110
0000
1001
1000
0100
0001
,
0110
0000
1001
0100
0011
0000
1100
0001
0010
1000
0110
0000
1100
0001
0010
1000
,
0110
0000
1100
0001
0110
0000
1100
0001
0010
0100
0011
0000
1100
0001
1000
0100
,
0011
0000
0101
1000
0110
0000
1001
0010
0100
1000
0110
0000
1001
0010
0001
1000
,
0110
0000
0101
1000
0011
0000
1100
0010
0010
0100
1001
0000
0110
0010
0001
0100
,
1010
0000
0011
0100
1010
0000
1001
0100
0010
0001
1010
0000
0101
0100
0010
0001
,
2010
0000
0000
0000
,
0000
0000
0000
0000
,
0000
0000
0000
0000
,
3000
0000
0000
0000
;
