#TITLE:Sound of the Underground;
#SUBTITLE:;
#ARTIST:Loffciamcore & odaxelagnia;
#TITLETRANSLIT:;
#SUBTITLETRANSLIT:;
#ARTISTTRANSLIT:;
#CREDIT:B. Abear;
#BANNER:Bn-Underground.png;
#BACKGROUND:Bg-Underground.png;
#LYRICSPATH:;
#CDTITLE:;
#MUSIC:Sound Of The Underground.ogg;
#OFFSET:-0.044;
#SAMPLESTART:38.436;
#SAMPLELENGTH:15.200;
#SELECTABLE:YES;
#DISPLAYBPM:250.000;
#BPMS:0.000=250.000,576.000=125.000,600.000=250.000;
#STOPS:;
#BGCHANGES:;
// cache tags:
#FIRSTBEAT:30.000;
#LASTBEAT:730.000;
#SONGFILENAME:Songs/SPEEEDCOOOORE/Sound of the Underground - [Cosmic Pope]/Sound of the Underground.sm;
#HASMUSIC:1;
#HASBANNER:1;
#MUSICLENGTH:182.099;
// end cache tags

//---------------dance-single - B. Abear----------------
#NOTES:
     dance-single:
     B. Abear:
     Challenge:
     15:
     1.000,1.000,0.379,0.187,0.766,1443.000,69.000,34.000,17.000,0.000:

0000
0000
0000
0000
,
0000
0000
0000
0000
,
0000
0000
0000
0000
,
0000
0000
0000
0000
,
0000
0000
0000
0000
,
0000
0000
0000
0000
,
0000
0000
0000
0000
,
0000
0000
1001
1001
,
0001
1000
0100
1000
0001
0100
0001
0001
,
0010
0100
1000
0001
0010
0001
1000
0000
,
0001
0100
0001
0000
1000
0000
1000
0000
0001
0000
0010
0000
0100
0000
0010
0000
,
0001
0000
0000
0000
0001
1000
0001
1000
0001
0000
0100
0000
0010
0000
0010
0000
,
1000
0000
0100
0000
0010
0000
0001
0000
1000
0000
0001
1000
0000
0001
1000
0000
,
0040
0000
0030
0000
0400
0000
0301
0000
1000
0001
0100
0001
1000
0100
0010
0001
,
1000
0000
0001
0000
1000
0000
0001
0000
0010
0100
0000
1000
0002
0000
0003
0000
,
1000
0000
0000
0000
0000
0000
0000
0000
0000
0000
0000
0000
0000
0000
0000
0000
0000
0000
0000
0000
0000
0000
0000
0000
0010
0000
0000
0000
0000
0000
0000
0000
0000
0000
0000
0000
0000
0000
0000
0000
0000
0000
0000
0000
0000
0000
0000
0000
0100
0000
0000
0000
0000
0000
0000
0000
0000
0000
0000
0000
0000
0000
0000
0000
0000
0000
0000
0000
0000
0000
0000
0000
0000
0000
0000
0000
0001
0000
0000
0000
0000
0000
0000
0000
0000
0000
0000
0000
0000
0000
0000
0000
0000
0000
0000
0000
0000
0000
0000
0000
0000
0000
0000
0000
0000
1000
0000
0000
0000
0000
0000
0000
0000
0000
0000
0000
0000
0000
0000
0000
0000
0000
0000
0000
0000
0000
0000
0000
0000
0000
0000
0000
0000
0010
0000
0000
0000
0000
0000
0000
0000
0000
0000
0000
0000
0000
0000
0000
0000
0000
0000
0000
0000
0000
0000
0000
0000
0000
0000
0000
0000
0000
0000
0000
0000
0000
0000
0000
0000
0000
0000
0000
0000
0000
0000
0000
0000
0000
0000
0000
0000
0000
0000
0000
0000
0000
0000
0000
0000
0000
0000
0000
,
1010
1000
0001
0010
0001
1000
0010
0010
,
0100
0000
0110
0000
0110
0100
0004
0000
,
1003
0000
0000
0000
0000
0000
0100
0000
0000
0000
0000
0000
0010
0000
0000
0000
0000
0000
0001
0000
0000
0000
0000
0000
0100
0000
0000
0000
0000
0000
0010
0000
0000
0000
0000
0000
2000
0000
0000
0000
0000
0000
0000
0000
0000
0000
0000
3000
,
2000
0000
0000
0000
0000
0000
0001
0000
0000
0000
0000
3000
1000
0000
0000
0000
0000
0000
0100
0000
0000
0000
0000
0000
0010
0000
0000
0000
0000
0000
0010
0000
0000
0000
0000
0000
0001
0000
0000
0000
0000
0000
0001
0000
0000
0000
0000
0000
,
1000
0000
0001
0100
0000
0001
0100
0000
0010
0000
0010
0000
1000
0000
1000
0000
,
0004
0000
0010
0000
0000
0000
1003
0000
0010
0000
0100
0000
0010
0000
1000
0001
,
1000
0010
1000
0100
0010
0010
0001
0001
,
1000
0000
0000
0010
0000
0000
0100
0000
0000
0001
0000
0000
1000
0000
0000
0200
0000
0000
0000
0000
0000
0000
0000
0000
0000
0000
0000
00M0
0000
0000
00M0
0000
0000
00M0
0000
0000
00M0
0000
0000
00M0
0000
0000
00M0
0000
0000
00M0
0000
0300
,
1100
1000
0001
0100
0000
0000
0000
0000
,
0110
0000
0010
0000
1000
0000
1000
0000
0001
0000
0010
0000
0100
0000
1000
0001
,
0100
0001
0101
0100
0000
0000
0000
0000
,
0101
0001
1000
1000
0100
0010
0000
0000
,
0011
0001
1000
0100
1000
1000
0001
1000
,
0010
0000
0000
0000
1000
0000
1000
0000
0001
0000
0400
0000
0301
0000
1000
0001
,
0010
0100
1000
0001
0000
0001
0001
0000
,
0100
0010
1000
1000
0010
0000
1000
0000
,
1001
0000
1000
0001
1000
0000
0001
0000
0010
0000
0100
1000
0100
1000
0004
0000
,
0203
0000
0310
0000
0200
0000
0304
0000
0203
0000
0304
0000
0103
0000
0010
1000
,
0004
0000
1003
0100
0010
0000
0110
0000
,
0100
0000
1000
0000
0001
0000
0100
0010
,
1010
1000
0001
0010
0100
1000
0004
0000
,
0103
0000
0010
0000
1000
0000
1000
0000
0001
0000
1000
0001
1000
0000
0000
0000
,
1001
0000
0001
0011
0000
0010
0100
1000
,
0001
0000
1000
0010
0200
0000
0000
0000
0310
0000
1000
0001
0010
0000
0001
0000
,
1000
0000
0100
0000
0010
0000
0001
0000
0100
0000
0010
0000
0100
0000
0001
0100
,
0010
1000
0100
1000
0001
0010
0001
1000
,
0010
0000
0100
0001
1000
0000
0001
0000
1000
0000
0100
0000
1000
0001
1000
0001
,
1000
0010
0100
0010
1000
0001
0010
0010
,
0100
1000
0010
0200
0301
0000
1000
0100
,
1000
0001
1000
0001
0100
0001
0100
0001
1000
0000
0010
0000
0100
0000
0010
0000
,
1000
0100
0010
0001
1000
0010
0100
0001
,
1000
0010
0100
0010
1000
1000
0002
0000
,
1003
0100
1000
0100
1000
0100
1000
0100
1000
0000
0001
0000
0100
0000
0001
0000
,
0100
0001
0100
0001
0100
0001
0100
0001
0100
0000
0001
0000
0010
0000
0001
0000
,
1000
0001
1000
0001
1000
0001
1000
0001
1000
0000
0001
0010
0100
1000
0001
1000
,
0010
2000
3100
2000
3001
0200
0310
1000
,
1001
0001
1000
0001
0010
0100
1000
0001
,
0010
0400
0310
0400
1300
0001
0100
0100
,
0001
1000
0001
1000
0001
0010
0100
1000
0001
0100
0001
0100
0001
1000
0001
1000
,
0100
1000
0100
1000
0100
1000
0020
0230
,
0301
0010
0100
1000
0001
0100
0010
0000
,
0100
0010
1000
0100
0010
0010
0001
0000
,
0100
0001
0100
0001
1000
0100
0010
0001
1000
0001
1000
0001
1000
0001
1000
0001
,
1000
0001
1000
0001
1000
0001
1000
0001
1000
0000
0001
0000
1000
0000
1000
0000
,
0010
0100
0001
1000
0001
0010
0100
1000
,
1001
0000
0000
0000
0001
0000
1000
0000
0010
0000
0100
0000
0001
1000
0001
1000
,
0100
0000
0010
0000
0001
0000
1000
0000
0001
0010
0001
0010
0001
0010
0001
0010
,
0001
0000
1000
0000
0010
0000
0100
0001
1000
0000
0100
0000
1000
0001
1000
0001
,
1000
0010
1000
1000
0001
0040
0130
1000
,
0001
0000
0001
0000
0001
0000
0001
0000
1000
0100
1000
0100
1000
0100
1000
0100
,
1000
0000
0001
0000
1000
0000
0100
0000
0010
0000
0001
1000
0001
1000
0001
0000
,
1000
0000
0100
0000
0010
0000
0001
0000
1000
0000
1000
0000
0001
0100
0010
1000
,
0001
0010
0001
1000
0010
0010
0100
0001
,
1000
0000
1000
0000
0001
0010
0100
0000
1000
0000
0001
0000
0100
0000
0010
0000
,
1000
0001
0010
0100
0010
0100
0010
0100
,
1000
0010
0100
0001
1000
0001
0100
0010
1000
0001
1000
0001
0010
0100
1000
0001
,
1000
0000
0010
0100
0000
0010
0100
0010
,
0100
0000
0001
0010
0100
1000
0001
0010
,
0011
0000
0001
1001
0000
1000
1010
0000
,
0010
0000
0010
0000
1000
0100
0010
0001
,
1000
0000
1000
0000
0001
0000
1000
0000
1000
0000
0001
1000
0001
0000
1000
0000
,
1001
1001
0101
0000
,
0001
0000
0001
0000
0001
0000
4000
0000
3001
0100
0001
0100
0002
0000
0000
0003
,
1001
0000
1000
0100
0010
0000
0000
0000
,
0001
0001
0100
0010
0000
0010
0000
0010
,
1000
0001
1000
0001
0100
0100
0100
0000
,
0001
0000
0001
0000
1000
0000
0010
0000
0100
0001
0100
0001
0100
0001
0100
0001
,
1000
0000
0000
0000
0001
1000
0001
1000
0001
0000
1000
0001
0100
0000
0010
0000
,
1000
0000
0001
0010
0001
0010
0001
0000
1000
0000
0010
1000
0000
0010
1000
0000
,
0004
0000
0103
0010
0100
0010
1000
0100
,
0010
0000
0001
0000
1000
0000
0010
0000
0000
0100
0001
1000
0001
0000
0000
0000
,
0010
0100
1000
0002
0000
1003
0100
0010
,
0001
0001
4000
3001
0000
1000
0001
0000
,
0101
0000
0100
0100
0010
1000
0002
0000
,
1003
0400
0310
0004
1003
0000
1001
0001
,
0100
0000
0010
1000
0001
0010
0001
0010
,
0100
0000
0000
1000
0000
0000
0001
0000
0100
0000
0010
0000
1000
0000
0001
0000
,
1000
1000
1000
0000
0001
0010
0001
1000
,
0100
0000
0010
0000
0001
0000
1000
0001
0010
0000
0100
0000
1000
0000
0001
0000
,
1000
0000
0000
0000
0010
0000
0000
0000
0100
0000
0000
0000
0001
0100
0010
1000
,
0001
0010
0100
0010
0000
0100
1100
0000
,
1000
0010
0100
0100
0001
0001
1000
0100
,
0010
0000
0010
0000
0001
0000
1000
0000
0001
0000
0000
1000
0000
0000
0001
0000
,
0100
0100
0010
0010
1000
0001
0010
0100
,
1000
0010
1000
0010
0100
0100
0001
0001
,
1000
0100
1000
0100
1000
0000
0001
0000
1000
0000
0000
0010
0100
0000
0001
0000
,
1000
1000
0100
0010
0100
0010
0002
0000
,
1003
0010
1000
1000
0001
0010
0100
0010
,
0001
0000
1000
0001
0000
1000
0001
0000
0100
0000
0010
0000
1000
0000
0004
0000
,
1003
0000
0100
0000
0010
0000
0400
0000
1300
0000
0400
0000
1300
0001
1000
0001
,
0100
0001
0010
0001
1000
0100
0010
0000
,
0011
1001
1010
0000
,
1000
0001
1000
1000
0001
1000
0400
0000
,
0310
0000
0010
0000
0001
0000
0001
0000
1000
0000
0001
1000
0001
0000
0000
0000
,
0100
0000
0100
0000
0010
0000
1000
0001
0010
0000
0100
0000
1000
0001
1000
0001
,
2000
0000
0000
0000
3020
0000
0000
0000
0130
0000
0001
1000
0200
0000
0000
0000
,
1300
0001
0010
0100
1000
0010
0100
0010
,
1000
0100
0010
0001
1000
0010
0100
0000
,
0001
0010
0100
0000
1000
0010
0000
1000
,
0100
0000
0010
0000
0001
0000
0100
0000
0001
1000
0001
1000
0001
0000
1000
0000
,
0001
0000
0010
0100
1000
0000
0001
0000
0100
0000
0001
0000
1000
0000
0100
0000
,
0010
0000
0001
0000
1000
0001
1000
0000
0001
1000
0001
0000
0100
0010
0100
0000
,
0001
0010
0100
1000
0001
1000
0001
0000
1000
0100
1000
0001
0100
0001
1000
0001
,
1000
0100
0010
0100
1000
0001
0100
0000
,
0010
0100
0001
0010
0100
1000
0001
0000
,
0100
0010
1000
0001
0100
0001
1000
0100
0010
0001
1000
0001
1000
0000
0000
0000
,
0100
0010
0001
1000
0010
0100
0001
1000
,
0010
0100
0010
0000
0000
0000
0000
0000
0000
0000
0000
0000
0000
0000
0000
0000
,
0100
0000
0000
0000
0001
0000
0000
0000
1000
0000
0000
0000
0001
0000
0000
1000
0000
0000
0001
0000
0000
1000
0000
0000
0100
0000
0000
0000
0000
0000
0010
0000
0000
0000
0000
0000
0001
0000
0000
1000
0000
0000
0000
0000
0000
0010
0000
0000
,
0100
0001
1000
0001
0010
0100
1000
0001
,
0100
0000
0000
0010
0000
0000
1000
0000
0001
0000
0010
0000
0100
0000
0010
0000
,
0001
0000
0100
0000
0010
0000
0100
0000
0001
0000
1000
0000
0010
0000
0100
0001
,
1000
0000
0001
0010
0100
1000
0001
0000
,
0100
0010
1000
0010
0100
0100
0010
1000
,
1100
0000
0000
0000
0100
1000
0400
0000
1300
0000
0400
0000
1300
0000
0001
0000
,
0100
0100
0010
0010
1000
0001
0100
0000
,
0001
0000
0000
1000
0000
0000
0001
0000
0010
0000
0000
0000
0001
1000
0001
1000
,
0001
0000
0000
0000
1000
0000
1000
0000
0100
0000
1000
0000
0001
0000
1000
0010
,
0100
0000
0001
0000
1000
0000
0010
0000
0100
0000
0001
0000
0010
0000
0100
1000
,
0001
0010
0100
1000
0001
0100
0040
0000
,
2030
0000
3001
0001
0010
0000
0100
0000
,
1000
1000
1000
1000
0001
0001
0001
0001
,
0100
0010
1000
0001
0010
0000
0001
1000
,
0100
0010
0100
1000
0001
0001
0001
0001
,
0100
0010
1000
0001
0100
0010
1000
0001
1000
0000
0100
0000
1000
0000
0001
0000
,
0100
0100
0010
0100
0001
0000
1000
0100
,
1100
1001
0101
0110
,
1010
0000
1000
1001
0000
0001
0011
0000
,
1MM1
0000
1000
0010
0100
0000
0000
0001
1000
0100
0010
0000
0001
0000
1000
0000
,
0000
0000
0001
0100
0001
1000
0100
0010
0001
0000
1000
0000
0001
0000
0000
0000
,
0000
0100
0010
0100
0010
0000
0000
0000
1000
0001
0010
0000
0100
0000
1000
0000
,
0000
0000
0001
0100
0010
0100
0001
0000
0000
0000
1000
0100
0010
0100
1000
0000
,
0001
0100
0010
1000
0001
0100
0010
1000
0002
0023
0230
2300
3002
0023
0230
2300
,
3001
0100
0001
0100
0001
0000
1000
0000
0100
1000
0100
1000
0100
0000
1000
0000
00M2
0000
00M0
0000
00M0
0000
00M0
0000
00M0
0000
00M0
0000
00M0
0000
00M0
0000
,
1003
0000
0010
0000
1000
0001
0100
0001
1000
0100
0010
0001
1000
0000
0000
0000
,
0001
0000
0001
0000
1000
0000
0001
0000
0001
0000
1000
0000
0100
0000
0010
0001
,
1000
0000
0001
0100
0010
1000
0001
1000
0100
0010
0001
1000
0001
0000
1000
0001
,
1000
0001
0100
0010
1000
0100
1000
0000
,
0001
0010
0100
1000
0001
0010
0100
1000
,
0001
0100
0001
0000
0000
0000
0000
0000
0000
0000
0000
0000
0100
0000
0000
0100
0000
0000
0040
0000
0000
0000
0000
0000
,
1030
0001
0100
0001
1000
0100
0010
0001
,
1000
0010
0100
0001
1000
0010
0100
0001
1000
0100
0010
0001
1000
0100
0010
0001
,
1000
0000
0100
0000
1000
0000
0010
0000
0100
0000
0001
0000
0100
0001
0100
0001
,
1000
0100
0010
0001
1000
0100
1000
0010
,
0100
0000
0001
0100
0010
0000
1000
0000
0001
0000
0010
0000
0001
0000
1000
0000
,
0100
1000
0001
0400
0310
1000
0001
1000
,
0001
0100
0010
1000
0001
0100
0001
1000
0100
1000
0001
0010
0001
1000
0100
0010
,
0001
1000
0010
0100
0001
1000
0010
1000
0001
1000
0100
0010
0001
1000
0100
1000
,
0001
0100
0001
0100
0001
0100
0001
0100
0001
0100
0001
0100
0001
0000
0000
0000
,
1000
0010
0100
0001
1000
0001
0010
0100
1000
0001
1000
0010
0100
0000
0000
0000
,
0001
0000
0010
0000
0100
0000
1000
0000
0010
0000
0100
0000
0001
1000
0001
0000
,
1000
0100
0010
0100
1000
0010
0100
0001
,
1000
0000
0001
0100
0001
0000
1000
0000
0001
0000
0010
0000
0100
0000
1000
0001
,
0100
0010
0100
0040
1030
0001
0100
0001
,
1000
0100
0010
0001
1000
0001
0100
0001
1000
0100
1000
0001
0100
0010
1000
0001
,
0100
0010
0100
0010
0100
0010
0100
0010
1000
0000
1000
0000
0004
0000
0000
0000
,
1003
0000
1000
0000
0100
0000
0100
0000
1000
0001
1000
0001
0100
0001
0100
0001
,
1000
0000
0000
0000
0100
0000
0000
0000
1000
0100
0010
0001
1000
0000
0001
0000
,
1001
0000
1000
0010
0100
0001
0010
0000
,
0100
1000
0001
0001
0100
0010
1000
1000
,
0001
0000
0010
0000
0100
0000
1000
0001
,
0100
0010
1000
0001
,
1000
0100
0010
0001
0100
0010
0100
0001
,
1000
1000
0001
0010
0100
1000
0001
0000
,
2002
0000
0000
0000
,
0000
0000
0000
0000
,
0000
0000
3003
0000
;
