#TITLE:Yamato Nadesiko Spirits;
#SUBTITLE:-MAXXX400 STYLE-;
#ARTIST:小坂りゆ;
#TITLETRANSLIT:;
#SUBTITLETRANSLIT:;
#ARTISTTRANSLIT:Riyu Kosaka;
#CREDIT:;
#BANNER:Yamatonadeshiko.JPG;
#BACKGROUND:Yamatonadeshiko-bg.JPG;
#LYRICSPATH:;
#CDTITLE:;
#MUSIC:Yamato Nadesiko Spirits -MAXXX400 STYLE-.mp3;
#OFFSET:-0.060;
#SAMPLESTART:68.401;
#SAMPLELENGTH:12.000;
#SELECTABLE:YES;
#BPMS:0.000=400.000,424.000=420.000,428.000=440.000,432.000=459.999,436.000=479.999,440.000=499.999,444.000=519.999,448.000=539.999,452.000=559.998,456.000=579.998,460.000=599.998,483.000=400.001;
#STOPS:;
#BGCHANGES:;
// cache tags:
#FIRSTBEAT:40.000;
#LASTBEAT:695.000;
#SONGFILENAME:Songs/keyboard/YamatoNadeshiko400/Yamatonadeshiko.sm;
#HASMUSIC:1;
#HASBANNER:1;
#MUSICLENGTH:102.750;
// end cache tags

//---------------dance-single - MANIAC----------------
#NOTES:
     dance-single:
     MANIAC:
     Hard:
     9:
     0.712,0.930,0.428,0.117,0.000,456.000,44.000,12.000,0.000,0.000:



0000
0000
0000
0000
,
0000
0000
0000
0000
,
0000
0000
0000
0000
,
0000
0000
0000
0000
,
0000
0000
0000
0000
,
0000
0000
0000
0000
,
0000
0000
0000
0000
,
0000
0000
0000
0000
,
0000
0000
0000
0000
,
0000
0000
0000
0000
,
0001
0000
0100
0010
,
0100
0001
1000
0000
,
0010
1000
0100
0010
,
0100
1000
0001
0000
,
0010
0001
0100
0010
,
0100
0001
1000
0000
,
0010
1000
0100
0010
,
0100
1000
0001
0000
,
1001
0000
0010
1000
,
0010
0100
0001
0000
,
1000
0001
0010
0001
,
0010
0100
1000
0100
,
0010
0000
0000
0000
,
0101
0000
0000
0000
,
0110
0000
1001
0000
,
1100
0000
0110
0000
,
0001
1000
0001
0100
,
0010
1000
0100
0000
,
0010
0100
0010
0001
,
0100
0010
1000
0000
,
0010
1000
0010
0100
,
0001
0010
0100
0000
,
1000
0001
1000
0010
,
0100
0001
0010
0000
,
1000
0100
0010
0001
,
1000
0010
0100
0000
,
0001
1000
0100
0010
,
0001
0100
0010
0000
,
1001
0000
0100
0000
,
0110
0000
1000
0000
,
0110
0000
1001
0000
,
0110
0000
1000
0000
,
0001
0100
0001
0000
0010
0000
0001
0000
,
0100
0010
1000
0000
,
0100
1000
0100
0000
0010
0000
0001
0000
,
1000
0100
0010
0000
,
0001
0100
0001
0000
1000
0000
0100
0000
,
0010
0001
0100
0000
,
0010
1000
0010
0000
1000
0000
0100
0000
,
0010
0001
0100
0000
,
0001
1000
0001
0000
0010
0000
0001
0000
,
0100
0010
1000
0000
,
0010
0100
0010
0000
1000
0000
0001
0000
,
0010
0100
1000
0000
,
0001
0010
0001
0000
1000
0000
0100
0000
,
0010
0001
1000
0010
,
0100
0000
0110
0000
,
1001
0000
0000
0000
,
1000
0001
1000
0000
,
0100
1000
0010
0000
,
0100
0001
0100
0000
,
0010
1000
0001
0000
,
1000
0001
1000
0000
,
0100
1000
0010
0000
,
0001
1000
0001
0100
,
0010
1000
0100
0000
,
0010
0001
0010
0100
,
0010
0010
0001
0001
,
1000
0010
1000
0100
,
1000
1000
0001
0001
,
0100
0100
0010
0010
,
1000
0100
0010
0001
,
1000
1000
0010
0010
,
0100
0100
0001
0001
,
2000
0000
0000
0000
,
0000
0000
0000
0000
,
3020
0000
0000
0000
,
0000
0000
0000
0000
,
0130
0000
0000
0101
,
0000
0000
1001
0000
,
0010
0100
0010
0000
,
1010
0000
0011
0000
,
2002
0000
0000
0000
,
0000
0000
0000
3003
,
1001
0000
0010
0010
,
1000
0100
0010
0000
,
0001
0100
0001
0100
,
0010
0010
1000
0000
,
0001
0100
0001
0000
1000
0000
0001
0000
,
0010
0001
1000
0000
,
0010
1000
0010
0000
1000
0000
0100
0000
,
1000
0001
0100
0000
,
0100
0010
0000
0000
,
0000
0000
0000
0000
,
0010
0100
0000
0000
,
0000
0001
0000
1000
,
0010
0001
0000
0000
,
0000
0000
1001
0000
,
0000
1100
0000
0101
,
0000
1010
0000
1001
,
0100
0001
0100
0000
0001
0000
1000
0000
,
0100
0010
0001
0000
,
1000
0100
1000
0000
0010
0000
0100
0000
,
0001
0010
0001
0000
,
0101
0000
0000
0110
,
0000
0000
1010
0000
,
2002
0000
0000
0000
,
0000
0000
0000
0000
,
0000
0000
0000
0000
,
0000
0000
0000
0000
,
0000
0000
0000
0000
,
0000
0000
0000
0000
,
0000
0000
0000
0000
,
0000
0000
0000
0000
,
0000
0000
0000
0000
,
3003
0000
0000
0000
,
0020
0000
0000
0000
,
0000
0000
0000
0000
,
0030
2000
0000
0000
,
0000
0000
0000
0000
,
0000
0000
3000
0010
,
0000
1000
0001
1000
,
0100
0000
0010
0000
0000
0000
0001
0010
,
0001
1000
0010
0100
,
0010
0000
1000
0000
0000
0000
0100
0010
,
0100
0010
0001
0100
,
0001
0000
1000
0000
0000
0000
0010
0100
,
0010
1000
0100
1000
,
0010
0000
0100
0000
0000
0000
0001
0010
,
0100
1000
0001
0100
,
0001
0000
1000
0000
0000
0000
0010
1000
,
0001
0100
0001
0010
,
0001
0000
1000
0000
0000
0000
0100
1000
,
0001
0010
0001
1000
,
0100
1000
0100
0010
,
0010
0000
1001
0000
,
1100
0000
0000
0000
0110
0000
0001
0010
,
0001
1000
0010
0100
,
0001
0000
1000
0000
0000
0000
0100
1000
,
0100
0010
0001
0100
,
0001
0000
0010
0000
0000
0000
0001
1000
,
0001
1000
0100
0010
,
0001
0000
1000
0000
0000
0000
0010
0100
,
0010
1000
0010
1000
,
0100
0010
0000
1001
,
0100
0010
0001
1000
,
0010
0100
0001
0101
,
1000
0100
0010
0001
,
1000
0001
0100
0110
,
0010
1000
0010
0100
,
0010
1000
0100
0020
,
0000
0000
0000
0032
,
0000
0000
0000
1003
,
0000
0001
0001
0100
,
0010
1000
0000
0010
,
1000
0100
0100
0010
,
0001
1000
0000
1001
,
0010
1000
1000
0100
,
0010
0001
0000
1000
,
0010
0100
0100
0001
,
0100
0010
0000
0110
,
1000
0010
0010
1000
,
0100
0010
0000
0001
,
1000
0001
0001
0100
,
0010
0100
0000
1001
,
0000
0110
0000
1010
,
0000
0011
0000
1100
,
0000
0101
0000
0011
,
0000
2002
0000
0000
,
0000
0000
0000
0000
,
0000
0000
0000
0000
,
0000
0000
0000
0000
,
0000
0000
0000
0000
,
0000
0000
0000
3003;

//---------------dance-single - CHALLENGE----------------
#NOTES:
     dance-single:
     CHALLENGE:
     Challenge:
     10:
     0.818,1.000,0.662,0.146,0.000,505.000,68.000,15.000,0.000,0.000:

0000
0000
0000
0000
,
0000
0000
0000
0000
,
0000
0000
0000
0000
,
0000
0000
0000
0000
,
0000
0000
0000
0000
,
0000
0000
0000
0000
,
0000
0000
0000
0000
,
0000
0000
0000
0000
,
0000
0000
0000
0000
,
0000
0000
0000
0000
,
1001
0000
0100
0010
,
0100
0001
1000
0000
,
0010
1000
0100
0010
,
0100
1000
0001
0000
,
0010
0001
0100
0010
,
0100
0001
1000
0000
,
0010
1000
0100
0010
,
0100
1000
0001
0000
,
1001
0000
0010
1000
0010
0000
1000
0000
,
0010
0100
0001
0000
,
1000
0001
1000
0010
1000
0000
0001
0000
,
0010
0100
1000
0001
,
1001
0000
0000
0000
,
0101
0000
0000
0000
,
0110
0000
1001
0000
,
1100
0000
0110
0000
,
0001
1000
0001
0010
0001
0000
0100
0000
,
0010
1000
0100
0000
,
0010
0100
0010
0001
0010
0000
0001
0000
,
0100
0010
1000
0000
,
0010
1000
0010
0100
0010
0000
0100
0000
,
0001
0010
0100
0000
,
1000
0001
1000
0010
1000
0000
0010
0000
,
0100
0001
0010
0000
,
1000
0100
1000
0010
1000
0000
0001
0000
,
1000
0010
0100
0000
,
0001
0100
0001
0010
0001
0000
0010
0000
,
0001
0100
0010
0000
,
1000
0001
1000
0010
0100
0000
0000
0000
,
1000
0001
1000
0100
0010
0000
0000
0000
,
0110
0000
1001
0000
,
0110
0000
1000
0001
1000
0000
0000
0000
,
0001
0100
0001
0010
0001
0000
0010
0000
,
0100
1000
0001
0000
,
0100
0001
0100
0010
0100
0000
0001
0000
,
1000
0100
0010
0000
,
0001
0100
0001
1000
0001
0000
0100
0000
,
0010
1000
0100
0000
,
0010
0001
0010
0100
0010
0000
0001
0000
,
1000
0001
0100
0000
,
0001
0010
0001
1000
0001
0000
1000
0000
,
0010
0100
0001
0000
,
1000
0010
1000
0001
1000
0000
0001
0000
,
0010
0100
1000
0000
,
0001
0010
0001
1000
0100
0000
0000
0000
,
0001
0100
0001
1000
0010
0000
0000
0000
,
1001
0000
0110
0000
,
1001
0000
0010
0100
0010
0000
0000
0000
,
1000
0001
1000
0010
,
0100
0001
0010
0001
,
0100
1000
0100
0001
,
0010
0001
1000
0100
,
1000
0001
1000
0010
,
0100
0001
0010
0001
,
1000
0001
1000
0100
,
0010
0001
2000
3000
,
0010
1000
0010
0100
,
0010
0010
1000
0100
,
1000
0010
1000
0100
,
1000
1000
0001
0001
,
0100
0100
0010
0010
,
1000
0100
0010
0001
,
1000
1000
0010
0010
,
0100
0100
0001
0001
,
2002
0000
0000
0000
,
0000
0000
0000
0000
0000
3003
0000
0000
,
2200
0000
0000
0000
,
0000
0000
0000
0000
0000
3300
0000
0000
,
0110
0000
0000
0011
,
0000
0000
1001
0000
,
1010
1001
1010
0000
,
1010
0000
0011
0000
,
2002
0000
0000
0000
,
0000
0000
0000
3003
,
1001
0000
0110
0000
,
1000
0100
0010
0000
,
1001
0000
0101
0000
,
0001
0010
0100
0000
,
1010
0000
1100
0000
,
0010
0001
1000
0000
,
1010
0000
1100
0000
,
1000
0001
0100
0000
,
1001
1100
0000
0000
,
0000
0000
0000
0000
,
1010
0110
0000
0000
,
0000
0011
0000
1100
,
0110
0011
0000
0000
,
0000
0000
1001
0000
,
0000
1100
0000
0101
,
0000
1010
0000
1001
,
0100
0001
0100
0000
0001
0000
1000
0000
,
0100
0010
0001
0000
,
1000
0100
1000
0000
0010
0000
0100
0000
,
0001
0010
0001
0000
,
0101
0000
0000
0110
,
0000
0000
1010
0000
,
2002
0000
0000
0000
,
0000
0000
0000
0000
,
0000
0000
0000
0000
,
0000
0000
0000
0000
,
0000
0000
0000
0000
,
0000
0000
0000
0000
,
0000
0000
0000
0000
,
0000
0000
0000
0000
,
0000
0000
0000
0000
,
3003
0000
0000
0000
,
0020
0000
0000
0000
,
0000
0000
0000
0000
,
0030
2000
0000
0000
,
0000
0000
0000
0000
,
0000
0000
3000
0010
,
1000
0010
1000
0000
0001
0000
1000
0000
,
0001
0000
0100
0000
0000
0000
1000
0010
,
1000
0100
1000
0000
0010
0000
0100
0000
,
0001
0000
0010
0000
0000
0000
0100
0010
,
0100
1000
0100
0000
1000
0000
0010
0000
,
0100
0000
0001
0000
0000
0000
0010
0100
,
0010
0001
0010
0000
0100
0000
1000
0000
,
0010
0000
0100
0000
0000
0000
0001
0010
,
0001
1000
0001
0000
0100
0000
0010
0000
,
0100
0000
0001
0000
0000
0000
0100
0001
,
0100
0010
0100
0000
0001
0000
0010
0000
,
0001
0000
0100
0000
0000
0000
0010
1000
,
0010
0100
0010
0000
1000
0000
0001
0000
,
0010
0100
0000
1010
,
1010
0000
1001
0000
,
1100
0000
0000
0000
1001
0000
0010
0001
,
0010
0100
0010
0000
0001
0000
0100
0000
,
0001
0000
1000
0000
0000
0000
0001
0010
,
0001
1000
0001
0000
1000
0000
0100
0000
,
1000
0000
0010
0000
0000
0000
0100
0001
,
0100
0010
0100
0000
0001
0000
0010
0000
,
0001
0000
1000
0000
0000
0000
0001
0010
,
0001
0100
0001
0000
0010
0000
0001
0000
,
0100
0010
0000
1001
,
0100
0010
0001
1000
,
0010
0100
0001
0101
,
1000
0100
0010
0001
,
1000
0001
0100
0110
,
0010
1000
0010
0100
,
0010
1000
0100
0020
,
0000
0000
0000
0032
,
0000
0000
0000
1003
,
0001
1000
0001
0000
0010
0000
0100
0000
,
1000
0010
0000
1000
,
0001
0100
0001
0000
0100
0000
0010
0000
,
1000
0100
0000
1001
,
0010
1000
0010
0000
1000
0000
0100
0000
,
0010
0001
0000
1000
,
0010
0100
0010
0000
0100
0000
0001
0000
,
0100
0010
0000
0110
,
1000
0010
1000
0000
0010
0000
1000
0000
,
0100
0010
0000
0001
,
1000
0001
1000
0000
0001
0000
0100
0000
,
0010
0100
0000
1001
,
0000
0110
0000
1010
,
0000
0011
0000
1100
,
0000
0101
0000
0011
,
0000
2002
0000
0000
,
0000
0000
0000
0000
,
0000
0000
0000
0000
,
0000
0000
0000
0000
,
0000
0000
0000
0000
,
0000
0000
0000
3003;
