#TITLE:Dignity Full Version remix;
#SUBTITLE:;
#ARTIST:Crash;
#TITLETRANSLIT:;
#SUBTITLETRANSLIT:;
#ARTISTTRANSLIT:;
#CREDIT:;
#BANNER:Dignity Full Version remix.png;
#BACKGROUND:Dignity Full Version remix-bg.png;
#LYRICSPATH:;
#CDTITLE:NVLM-cdtitle.png;
#MUSIC:Dignity Full Version remix.mp3;
#OFFSET:-0.089;
#SAMPLESTART:22.206;
#SAMPLELENGTH:12.000;
#SELECTABLE:YES;
#BPMS:0.000=195.000;
#STOPS:440.000=0.360
;
#BGCHANGES:;
// cache tags:
#FIRSTBEAT:4.000;
#LASTBEAT:493.000;
#SONGFILENAME:Songs/toune 8/Dignity Full Version remix/Dignity Full Version remix.sm;
#HASMUSIC:1;
#HASBANNER:1;
#MUSICLENGTH:154.044;
// end cache tags

//---------------dance-single - ----------------
#NOTES:
     dance-single:
     :
     Hard:
     12:
     1.000,1.000,0.636,0.279,0.730,1037.000,98.000,43.000,0.000,37.000:  // measure 1
0000
0000
0000
0000
,  // measure 2
0000
0000
0000
0000
,  // measure 3
0100
0000
0001
0000
1000
0000
0100
0000
0010
0001
1000
0000
0001
0010
0100
0000
,  // measure 4
1000
0000
0001
0000
0100
0000
1000
0000
0010
0100
0001
0000
1000
0100
0010
0000
,  // measure 5
0001
0000
1000
0000
0010
0000
0100
0000
1000
0100
0010
0000
0001
0100
0001
0000
,  // measure 6
1000
0000
0010
0000
0100
0000
0100
0000
0001
0010
0100
0000
1000
0001
1000
0000
,  // measure 7
0010
0000
0001
0000
0010
0000
0100
0000
1000
0001
1000
0000
0100
0010
0001
0000
,  // measure 8
0100
0000
1000
0000
0100
0000
0010
0000
1000
0001
0100
0000
0001
0010
0100
0000
,  // measure 9
1000
0000
0010
0000
0001
0000
0010
0000
0100
1000
0001
0000
0100
0010
1000
0000
,  // measure 10
0001
0000
0010
0000
0100
0000
1000
0000
0001
0000
0100
0010
0100
0010
1000
0000
,  // measure 11
0100
0000
0010
0000
0001
0000
0100
0000
0010
1000
0010
0000
0100
0001
1000
0000
,  // measure 12
0001
0000
0010
0000
0100
0000
0001
0000
1000
0100
0010
0000
0001
0010
0100
0000
,  // measure 13
1000
0000
0001
0000
0100
0000
1000
0000
0010
0001
0100
0000
0001
1000
0100
0000
,  // measure 14
0010
0000
0001
0000
0100
0000
1000
0000
0100
0010
0001
0000
1000
0010
1000
0000
,  // measure 15
0001
0000
0100
0000
1000
0000
0100
0000
0010
1000
0001
0000
0100
0010
1000
0000
,  // measure 16
0001
0000
0100
0000
0010
0000
1000
0000
0100
0010
0001
0000
0001
1000
0100
0000
,  // measure 17
0010
0000
1000
0000
0010
0000
0001
0000
0100
0010
1000
0000
0001
0010
0100
0000
,  // measure 18
1000
0010
1000
0010
0100
0001
0100
0001
0010
0100
0010
0100
1000
0001
1000
0001
,  // measure 19
2202
0000
3303
0111
,  // measure 20
2022
0000
3033
1110
,  // measure 21
0222
0000
0333
1101
,  // measure 22
1001
0000
0000
0000
0010
0100
0010
0100
0001
0010
0001
0010
0100
1000
0100
1000
,  // measure 23
0010
0000
0100
0000
0001
0000
1000
0000
0100
0010
0001
0000
1000
0000
0010
0000
,  // measure 24
0100
0000
1000
0000
0100
0000
0001
0000
1000
0010
0100
0000
0001
0010
0001
0000
,  // measure 25
0001
0000
1000
0000
0010
0000
0100
0000
1000
0100
0001
0000
1000
0000
0010
0000
,  // measure 26
0100
0000
0001
0000
0010
0000
0100
0000
1000
0001
1000
0000
0010
1000
0100
0000
,  // measure 27
0001
0000
1000
0000
0100
0000
0001
0000
0100
0010
0100
0000
1000
0000
0001
0000
,  // measure 28
0010
0000
0100
0000
1000
0000
0001
0000
0100
0010
0100
0010
0001
0000
0010
0000
,  // measure 29
0100
0000
1000
0000
0001
0000
0100
0000
0010
0000
1000
0000
0100
0010
0001
0000
,  // measure 30
1000
0000
0010
0000
1000
0000
0100
0000
0010
0001
0010
0001
0100
0000
1000
0000
,  // measure 31
0100
0000
0001
0000
1000
0000
0100
0000
0010
0000
0001
0000
0100
0010
1000
0000
,  // measure 32
0001
0000
0010
0000
0100
0000
1000
0000
0001
0100
0001
0100
0010
0000
1000
0000
,  // measure 33
0100
0000
0010
0000
0001
0000
0100
0000
0010
1000
0100
0000
0001
0000
1000
0000
,  // measure 34
0100
0000
0010
0000
0001
0000
0100
0000
1000
0010
1000
0000
0001
0000
0100
0000
,  // measure 35
0010
0000
1000
0000
0100
0000
0001
0000
0100
0010
0100
0010
0001
0000
0100
0000
,  // measure 36
0010
0000
1000
0000
0001
0000
0010
0000
0100
1000
0100
0000
1000
0000
0010
0000
,  // measure 37
0100
0000
0001
0000
0100
0000
1000
0000
0010
0100
0010
0100
0001
0000
1000
0000
,  // measure 38
0100
0000
0010
0000
0001
0000
0100
0000
0010
1000
0100
0000
1000
0000
0001
0000
,  // measure 39
0100
0000
0010
0000
0001
0000
0010
0000
1000
0100
1000
0010
0100
0000
0010
0000
,  // measure 40
0001
0000
0001
0000
0100
0000
0010
0000
1000
0100
1000
0000
0001
0000
0010
0000
,  // measure 41
0100
0000
0001
0000
1000
0000
0100
0000
0010
0001
0010
0001
0100
0000
0010
0000
,  // measure 42
1000
0001
1000
0001
0100
0010
0100
0010
0001
0010
0001
0010
1000
0100
1000
0100
,  // measure 43
2220
0000
3330
0111
,  // measure 44
2202
0000
3303
1011
,  // measure 45
0222
0000
0333
1101
,  // measure 46
2220
0000
3330
0000
,  // measure 47
2202
0000
3303
1110
,  // measure 48
0222
0000
0333
1011
,  // measure 49
2220
0000
3330
1101
,  // measure 50
0110
0010
1000
0100
0001
0100
0010
0001
,  // measure 51
1000
0000
0010
0000
0100
0000
1000
0000
0001
0010
0100
0000
1000
0010
1000
0000
,  // measure 52
0001
0000
0100
0000
0010
0000
0001
0000
1000
0100
1000
0000
0001
0100
0010
0000
,  // measure 53
1000
0000
0001
0000
0010
0000
0100
0000
1000
0001
1000
0000
0100
0010
0001
0000
,  // measure 54
0100
0000
1000
0000
0010
0000
0100
0000
0001
1000
0001
0000
0010
0100
1000
0000
,  // measure 55
0110
0101
0000
1001
1100
0000
0110
0222
,  // measure 56
0000
0333
0000
0000
0000
0000
0000
0000
,  // measure 57
0110
1100
0000
1010
0101
0000
0011
0101
,  // measure 58
2001
0010
0100
3001
,  // measure 59
1100
0100
0010
1000
0001
0010
0100
1000
,  // measure 60
1001
0101
0000
0110
1010
0000
1100
1001
,  // measure 61
0100
0000
0010
0000
0001
0000
0100
0000
0010
1000
0010
0000
1000
0000
0100
0000
,  // measure 62
0010
0000
0001
0000
0100
0000
1000
0000
0100
0010
0100
0000
0001
0000
1000
0000
,  // measure 63
0010
0010
0001
0100
0010
1000
0100
0010
,  // measure 64
1001
1010
0000
1100
0101
0000
0011
0110
,  // measure 65
1000
0000
0001
0000
0100
0000
0010
0000
0001
0100
0001
0000
1000
0000
0010
0000
,  // measure 66
0100
0000
0001
0000
0010
0000
0100
0000
1000
0001
1000
0000
0100
0000
0001
0000
,  // measure 67
0010
0100
1000
0001
0100
0010
0001
0010
,  // measure 68
1100
1001
0000
0110
0011
0000
1100
1010
,  // measure 69
0100
0000
0001
0000
0010
0000
0100
0000
1000
0001
0010
0000
0100
0000
0001
0000
,  // measure 70
0100
0000
0010
0000
0001
0000
1000
0000
0010
0100
0001
0000
0100
0000
1000
0000
,  // measure 71
0010
0001
0010
0100
0001
1000
0100
0010
,  // measure 72
1001
1100
0000
0101
0011
0000
1010
0110
,  // measure 73
0001
0000
0100
0000
0010
0000
1000
0000
0100
0001
0100
0000
0010
0000
0001
0000
,  // measure 74
0100
0000
0010
0000
1000
0000
0001
0000
0010
0100
1000
0000
0001
0000
0100
0000
,  // measure 75
1110
0000
0000
0111
0000
0000
1101
0000
,  // measure 76
0000
0000
1110
0000
0000
0000
0000
0000
0001
0100
0001
0100
0010
1000
0010
1000
,  // measure 77
1110
0000
0000
0111
0000
0000
1101
0000
,  // measure 78
0000
0000
1110
0000
0000
0000
0000
0000
0100
0001
0100
0001
1000
0100
1000
0100
,  // measure 79
0111
0000
0000
1101
0000
0000
1110
0000
,  // measure 80
0000
0000
0111
0000
0000
0000
0000
0000
0010
1000
0010
1000
0100
0010
0100
0010
,  // measure 81
1011
0000
0000
1110
0000
0000
0111
0000
,  // measure 82
0000
1101
0000
0000
0100
0010
0100
0010
,  // measure 83
1000
0100
0001
0100
0010
0001
0100
1000
0100
0010
1000
0001
,  // measure 84
0010
0100
1000
0010
0100
0001
1000
0100
0010
0001
0100
1000
,  // measure 85
0100
0010
1000
0001
0010
0100
0001
0100
0010
0001
1000
0100
,  // measure 86
0010
0000
0001
0000
0100
0000
0010
0000
1000
0100
1000
0000
0001
0000
0100
0000
,  // measure 87
0010
0000
1000
0000
0100
0000
0001
0000
0100
0010
0001
0000
1000
0000
0010
0000
,  // measure 88
0100
0000
1000
0000
0100
0000
0001
0000
1000
0010
1000
0000
0100
0000
0001
0000
,  // measure 89
0100
0000
0010
0000
0001
0000
0100
0000
0010
1000
0100
0000
0001
0000
1000
0000
,  // measure 90
0010
0000
0010
0000
0100
0000
0001
0000
1000
0100
0010
0000
0001
0000
0100
0000
,  // measure 91
0010
0000
0010
0000
1000
0000
0001
0000
0010
0100
1000
0000
0001
0000
0100
0000
,  // measure 92
1000
0100
0010
0001
0010
0100
1000
0100
0010
0001
0010
0100
1000
0100
0010
0001
,  // measure 93
0010
0100
1000
0100
0010
0001
0010
0100
1000
0100
0010
0001
0010
0100
1000
0100
,  // measure 94
0010
0001
0010
0001
0010
0001
0010
0001
0100
0001
0100
0001
0100
0001
0100
0001
,  // measure 95
1000
0100
1000
0100
1000
0100
1000
0100
0010
0001
0010
0001
0010
0001
0010
0001
,  // measure 96
0100
0010
0100
0010
0100
0010
0100
0010
1000
0010
1000
0010
1000
0010
1000
0010
,  // measure 97
0100
0001
0100
0001
0100
0001
0100
0001
0010
0001
0010
0001
0010
0001
0010
0001
,  // measure 98
1000
0000
0100
0000
0001
0000
0100
0000
0010
0001
1000
0000
0001
0100
0001
0000
,  // measure 99
0100
0000
0010
0000
1000
0000
0100
0000
0010
0001
1000
0000
0100
1000
0100
0000
,  // measure 100
0010
0000
0001
0000
1000
0000
0100
0000
0010
0001
1000
0000
0001
0100
0010
0000
,  // measure 101
0100
0000
0010
0000
1000
0000
0100
0000
0001
0100
1000
0100
0001
0100
1000
0100
,  // measure 102
0220
0000
0000
0330
,  // measure 103
1001
0000
0000
0000
0100
0010
0100
0010
,  // measure 104
1000
0000
0100
0000
0010
0000
0001
0000
0100
0010
1000
0000
0001
0000
0100
0000
,  // measure 105
0010
0000
1000
0000
0100
0000
0010
0000
0001
0100
0001
0100
0010
0000
1000
0000
,  // measure 106
0100
0000
0001
0000
0100
0000
1000
0000
0010
0100
0001
0000
0100
0000
0010
0000
,  // measure 107
1000
0000
0100
0000
0010
0000
1000
0000
0001
0100
0001
0100
0010
0000
0001
0000
,  // measure 108
0010
0000
1000
0000
0100
0000
0010
0000
0001
1000
0001
1000
0100
0000
0010
0000
,  // measure 109
1000
0000
0010
0000
0001
0000
0100
0000
0010
1000
0100
0000
1000
0000
0001
0000
,  // measure 110
0100
0000
0010
0000
1000
0000
0100
0000
0010
0001
0010
0100
0010
0000
0100
0000
,  // measure 111
2002
3003
0000
0000
0100
0000
0010
0000
0100
0000
0010
0000
1001
0000
0001
0000
,  // measure 112
0010
0000
0100
0000
1000
0001
1000
0000
0001
1000
0001
0000
0100
0000
0010
0000
,  // measure 113
1000
0000
0100
0000
0010
0001
0010
0000
0001
0100
0001
0000
1000
0000
0010
0000
,  // measure 114
0100
0000
1000
0000
0001
0100
0001
0000
0100
0010
0100
0000
1000
0000
0001
0000
,  // measure 115
0100
0000
0010
0000
1000
0100
1000
0000
0001
1000
0001
0000
0100
0000
0010
0000
,  // measure 116
0001
0000
0010
0000
1000
0100
1000
0000
0010
1000
0010
0000
0100
0000
0001
0000
,  // measure 117
1000
0000
0100
0000
0010
0001
0010
0000
0001
1000
0001
0000
0100
0000
0010
0000
,  // measure 118
1000
0000
0100
0000
0010
0001
1000
0000
0001
1000
0001
0000
0100
0000
0010
0000
,  // measure 119
1000
0000
0001
0000
1000
0100
1000
0100
0010
0001
0010
0001
2002
0000
0000
0000
,  // measure 120
0000
0000
0000
0000
3003
0000
1100
1010
,  // measure 121
0000
0110
0101
0000
0011
1001
0000
0110
,  // measure 122
1001
0000
1010
0101
0000
0011
1100
0000
,  // measure 123
1001
0110
0000
1010
1100
0000
0101
2022
,  // measure 124
0000
3033
0000
0000
;

//---------------dance-single - ----------------
#NOTES:
     dance-single:
     :
     Medium:
     10:
     0.919,1.000,0.610,0.493,0.000,821.000,94.000,76.000,0.000,0.000:  // measure 1
0000
0000
0000
0000
,  // measure 2
0000
0000
0000
0000
,  // measure 3
0110
0010
1000
0100
0001
0100
0010
0001
,  // measure 4
0100
1000
0100
0010
1000
0001
0010
0100
,  // measure 5
1000
0001
0100
0010
0001
0010
1000
0100
,  // measure 6
0001
0100
0010
1000
0010
0001
0100
0010
,  // measure 7
1000
0100
0100
0001
0100
0010
1000
0010
,  // measure 8
0001
0001
0100
0010
1000
0100
0001
0100
,  // measure 9
1000
0010
0100
0001
0010
0100
1000
0001
,  // measure 10
0100
1000
0100
0010
0001
0100
1001
0000
,  // measure 11
0100
0010
0100
1000
0001
0100
1000
0100
,  // measure 12
0010
1000
0001
0100
0010
1000
0100
0001
,  // measure 13
0100
0010
1000
0100
0001
0100
0010
0001
,  // measure 14
0100
1000
0100
0010
1000
0001
0010
0100
,  // measure 15
1000
0001
0100
0010
1000
0100
0010
0001
,  // measure 16
0100
1000
0100
0010
1000
0001
1000
0100
,  // measure 17
0010
0001
0100
0010
0001
0010
1000
0100
,  // measure 18
0001
0100
0010
1000
0100
0010
0011
0000
,  // measure 19
0202
0000
0303
0110
,  // measure 20
2020
0000
3030
1100
,  // measure 21
2002
0000
3003
0101
,  // measure 22
1001
0000
0010
0010
0100
0100
1000
1000
,  // measure 23
0010
0100
0010
0001
0100
1000
0100
0010
,  // measure 24
1000
0001
0010
0100
0100
1000
1000
0001
,  // measure 25
0100
0001
1000
0100
0001
0100
0100
0010
,  // measure 26
1000
0010
0001
0100
0100
0010
1000
0010
,  // measure 27
0001
0100
0100
0010
1000
0001
0010
0100
,  // measure 28
0001
0100
0010
0001
0001
1000
0100
0001
,  // measure 29
0100
0010
1000
1000
0001
0010
0100
1000
,  // measure 30
0001
0100
0010
0001
0001
0010
0100
1000
,  // measure 31
0001
0100
0010
1000
0100
1000
0001
0100
,  // measure 32
1000
0100
0010
1000
0001
0010
0100
0001
,  // measure 33
0100
0010
0001
1000
0100
0010
1000
0010
,  // measure 34
0001
0100
1000
0100
0010
1000
1001
0000
,  // measure 35
0100
0010
0001
0100
1000
0100
0010
1000
,  // measure 36
0001
0010
0100
0001
0100
1000
0100
0010
,  // measure 37
0001
1000
0010
1000
0100
0001
0100
0010
,  // measure 38
1000
0010
0001
0100
1000
0100
0010
1000
,  // measure 39
0001
0010
0100
1000
0001
0001
0100
0100
,  // measure 40
0010
0001
0010
1000
0001
0001
0100
0010
,  // measure 41
1000
0100
0010
0001
0100
0010
1000
0001
,  // measure 42
0101
1000
0100
0010
0001
0100
1000
0100
,  // measure 43
2020
0000
3030
0110
,  // measure 44
0202
0000
0303
1001
,  // measure 45
0220
0000
0330
1010
,  // measure 46
2200
0000
3300
0000
,  // measure 47
0202
0000
0303
0110
,  // measure 48
2020
0000
3030
1100
,  // measure 49
0202
0000
0303
1001
,  // measure 50
1010
0010
0100
0001
0010
0100
1000
1000
,  // measure 51
0001
0001
0100
0010
0001
0010
1000
0100
,  // measure 52
0001
0100
1000
0010
0100
0001
0010
1000
,  // measure 53
0010
0100
1000
0100
0001
1000
0100
0010
,  // measure 54
1000
0010
0001
0100
0010
1000
0010
0001
,  // measure 55
0100
0110
0000
1000
1100
0000
0011
0022
,  // measure 56
0000
0033
0000
0000
0000
0000
0000
0000
,  // measure 57
0110
0110
0000
1100
1100
0000
0001
0101
,  // measure 58
2002
0000
0000
3003
,  // measure 59
0110
0010
1000
0100
0001
0100
1000
0010
,  // measure 60
0100
0101
0000
0001
1001
0000
1000
1010
,  // measure 61
0100
0001
0100
0010
0001
0100
1000
0100
,  // measure 62
0010
1000
0001
0010
0100
1000
0001
0100
,  // measure 63
0010
0001
0010
1000
0100
0010
0001
0100
,  // measure 64
0010
1010
0000
1000
1100
0000
0100
0110
,  // measure 65
0001
1000
0100
0010
1000
0010
0001
0100
,  // measure 66
1000
1000
0100
0001
1000
0100
0010
0010
,  // measure 67
0100
1000
0001
0100
0010
1000
0100
0010
,  // measure 68
0001
0101
0000
0100
0110
0000
0010
1010
,  // measure 69
0100
0001
0100
1000
0001
0100
0010
0001
,  // measure 70
0001
0010
0100
1000
0001
0100
0010
1000
,  // measure 71
0100
0001
0100
0100
1000
0010
0100
0001
,  // measure 72
1000
1010
0000
0100
0110
0000
0001
1001
,  // measure 73
0100
0010
0001
0010
0100
1000
0001
0100
,  // measure 74
1000
0100
0010
1000
0001
0010
0100
1000
,  // measure 75
0010
0110
0000
0100
0101
0000
0001
1001
,  // measure 76
0000
1000
1100
0000
0010
0001
0010
0001
,  // measure 77
0100
0110
0000
1000
1100
0000
0001
0101
,  // measure 78
0000
0010
0110
0000
1000
0001
1000
0001
,  // measure 79
0100
0110
0000
1000
1001
0000
0001
0011
,  // measure 80
0000
0010
0110
0000
1000
0010
1000
0010
,  // measure 81
0100
0101
0000
0001
0011
0000
0010
0110
,  // measure 82
0000
0100
1100
0000
1000
0001
0100
0010
,  // measure 83
1002
0023
0230
2300
,  // measure 84
3020
0032
0023
0230
,  // measure 85
2300
3002
0203
0320
,  // measure 86
1030
0100
0001
0100
0010
1000
0010
0001
,  // measure 87
0100
1000
0100
0010
1000
0001
0010
0100
,  // measure 88
1000
0001
0100
0010
0001
0010
1000
0100
,  // measure 89
0001
0100
1000
0010
0100
0100
0001
0001
,  // measure 90
1000
0100
0001
0010
0100
1000
0001
0100
,  // measure 91
1000
0001
0100
0010
0001
0010
0100
1000
,  // measure 92
0010
0100
0001
0001
1000
0100
0001
0001
,  // measure 93
0100
0010
0001
0010
0100
1000
1000
0001
,  // measure 94
0201
0320
2030
3200
0320
0032
0203
2300
,  // measure 95
3200
0320
2030
3002
0023
0230
2300
3020
,  // measure 96
0032
0023
2030
3200
0320
0032
0203
2300
,  // measure 97
3200
0320
2030
3002
0023
0230
2300
3020
,  // measure 98
1030
0100
0001
0100
0010
0001
0100
1000
,  // measure 99
0100
0010
1000
0001
0010
0100
1000
0001
,  // measure 100
0100
0010
1000
0100
0010
0001
0100
1000
,  // measure 101
1001
0100
0010
0001
0101
1000
1100
0010
,  // measure 102
0220
0000
0000
0330
,  // measure 103
2002
3003
0000
0000
0100
0010
0100
0010
,  // measure 104
1001
1000
0010
0100
1000
0100
0001
1000
,  // measure 105
0100
0010
1000
0010
0001
0100
1000
0100
,  // measure 106
0010
1000
0001
0001
0100
0010
1000
0001
,  // measure 107
0010
1000
0100
0010
0001
0100
0100
0010
,  // measure 108
1000
0010
0001
0100
1000
0100
0010
1000
,  // measure 109
0001
0010
0100
1000
0001
0100
0010
1000
,  // measure 110
0100
0010
0001
0100
1000
0100
0010
1000
,  // measure 111
0000
0000
0100
0010
0100
0010
1001
1000
,  // measure 112
0010
0100
1000
0100
0001
1000
0010
0100
,  // measure 113
1000
1000
0100
0001
1000
0010
1000
0100
,  // measure 114
0001
0100
0010
0001
0100
0100
0001
1000
,  // measure 115
0100
0001
0100
0010
1000
0100
0001
0100
,  // measure 116
0010
0010
0001
0100
0001
0010
0100
1000
,  // measure 117
0001
0100
0010
0001
0010
1000
0100
0001
,  // measure 118
0100
1000
0010
0100
0001
0100
1000
0010
,  // measure 119
0100
0001
0010
0100
1100
0010
2002
0000
,  // measure 120
0000
0000
0000
0000
3003
0000
1100
1100
,  // measure 121
0000
0110
0110
0000
0011
0011
0000
1010
,  // measure 122
1010
0000
0110
0110
0000
0101
0101
0000
,  // measure 123
1001
1001
0000
1100
1100
0000
0101
0202
,  // measure 124
0000
0303
0000
0000
;

//---------------dance-double - ----------------
#NOTES:
     dance-double:
     :
     Hard:
     11:
     1.000,1.000,0.773,0.338,0.364,939.000,119.000,52.000,0.000,21.000:  // measure 1
00000000
00000000
00000000
00000000
,  // measure 2
00000000
00000000
00000000
00000000
,  // measure 3
01000000
00000000
00001000
00000000
00010000
00000000
00000010
00000000
00000100
00000001
00000100
00000000
00000001
00000000
00001000
00000000
,  // measure 4
00000100
00000000
00010000
00000000
00001000
00000000
01000000
00000000
00100000
10000000
00100000
00000000
10000000
00000000
01000000
00000000
,  // measure 5
00100000
00000000
00010000
00000000
00001000
00000000
00000100
00000000
00000010
00000001
00001000
00000000
00000001
00000000
00000100
00000000
,  // measure 6
00001000
00000000
00010000
00000000
00100000
00000000
01000000
00000000
10000000
00010000
00100000
00000000
00001000
00000000
00010000
00000000
,  // measure 7
00000100
00000000
00000010
00000000
00000001
00000000
00000100
00000000
00001000
00010000
00100000
00000000
01000000
00000000
10000000
00000000
,  // measure 8
00010000
00000000
01000000
00000000
00001000
00000000
00010000
00000000
00000100
00000010
00000100
00000000
00001000
00000000
00000001
00000000
,  // measure 9
00000100
00000000
00001000
00000000
00010000
00000000
00100000
00000000
01000000
10000000
01000000
00000000
10000000
00000000
00010000
00000000
,  // measure 10
00100000
00000000
00001000
00000000
00010000
00000000
00000100
00000000
00001000
00000000
00000010
00000000
00000100
00000001
00000100
00000000
,  // measure 11
00000001
00000000
00001000
00000000
00000010
00000000
00010000
00000000
00001000
00100000
00001000
00000000
00100000
00000000
01000000
00000000
,  // measure 12
10000000
00000000
00010000
00000000
01000000
00000000
00001000
00000000
00010000
00000100
00000010
00000000
00000001
00000000
00000100
00000000
,  // measure 13
00001000
00000000
00010000
00000000
00100000
00000000
01000000
00000000
10000000
00010000
10000000
00000000
00100000
00000000
01000000
00000000
,  // measure 14
00001000
00000000
00010000
00000000
00000100
00000000
00000010
00000000
00000001
00001000
00000100
00000000
00010000
00000000
00001000
00000000
,  // measure 15
00100000
00000000
00010000
00000000
00100000
00000000
01000000
00000000
10000000
00010000
10000000
00000000
00100000
00000000
00010000
00000000
,  // measure 16
00001000
00000000
00000100
00000000
00000010
00000000
00000001
00000000
00001000
00000100
00010000
00000000
00001000
00000000
00100000
00000000
,  // measure 17
00010000
00000000
01000000
00000000
00100000
00000000
10000000
00000000
01000000
00010000
00001000
00000000
00000100
00000000
00000010
00000000
,  // measure 18
00000001
00000100
00001000
00010000
00100000
01000000
10000000
00010000
,  // measure 19
00222000
00000000
00333000
00011100
,  // measure 20
00220200
00000000
00330300
00111000
,  // measure 21
22020000
00000000
33030000
01011000
,  // measure 22
10010000
00000000
00000000
00000000
00100000
00010000
00100000
00010000
01000000
00001000
01000000
00001000
00010000
00001000
00010000
00001000
,  // measure 23
00010000
00000000
00000100
00000000
00000010
00000000
00000001
00000000
00000100
00001000
00010000
00000000
00100000
00000000
01000000
00000000
,  // measure 24
10000000
00000000
00010000
00000000
00100000
00000000
00001000
00000000
00010000
00000100
00000010
00000000
00000001
00000000
00000100
00000000
,  // measure 25
00001000
00000000
00010000
00000000
00100000
00000000
00010000
00000000
00001000
01000000
00001000
00000000
00100000
00000000
10000000
00000000
,  // measure 26
01000000
00000000
00100000
00000000
00001000
00000000
00010000
00000000
00000010
00001000
00000010
00000000
00000100
00000000
00001000
00000000
,  // measure 27
00010000
00000000
00100000
00000000
01000000
00000000
10000000
00000000
00010000
00100000
00010000
00000000
01000000
00000000
00001000
00000000
,  // measure 28
00010000
00000000
00000100
00000000
00000010
00000000
00000001
00000000
00000100
00001000
00000100
00000000
00000010
00000000
00010000
00000000
,  // measure 29
00001000
00000000
00100000
00000000
01000000
00000000
10000000
00000000
00010000
00100000
00010000
00000000
00001000
00000000
00000100
00000000
,  // measure 30
00000010
00000000
00000001
00000000
00001000
00000000
00000100
00000000
00010000
00001000
00010000
00000000
00001000
00000000
00100000
00000000
,  // measure 31
01000000
00000000
10000000
00000000
01000000
00000000
00100000
00000000
00010000
00001000
00010000
00000000
00000100
00000000
00000010
00000000
,  // measure 32
00000001
00000000
00000100
00000000
00000010
00000000
00010000
00000000
00001000
00100000
00001000
00000000
01000000
00000000
00100000
00000000
,  // measure 33
10000000
00000000
00010000
00000000
00100000
00000000
00001000
00000000
00010000
00000100
00000010
00000000
00000001
00000000
00001000
00000000
,  // measure 34
00000100
00000000
00010000
00000000
00001000
00000000
00100000
00000000
01000000
10000000
00010000
00000000
01000000
00000000
00100000
00000000
,  // measure 35
00010000
00000000
00001000
00000000
00000100
00000000
00000010
00000000
00000001
00000100
00001000
00000000
00010000
00000000
00100000
00000000
,  // measure 36
01000000
00000000
10000000
00000000
00010000
00000000
01000000
00000000
00001000
00010000
00000010
00000000
00000100
00000000
00000001
00000000
,  // measure 37
00000010
00000000
00001000
00000000
00010000
00000000
01000000
00000000
00100000
10000000
01000000
00000000
00010000
00000000
00001000
00000000
,  // measure 38
00000100
00000000
00000010
00000000
00000001
00000000
00001000
00000000
00000100
00010000
00001000
00000000
00100000
00000000
01000000
00000000
,  // measure 39
10000000
00000000
00010000
00000000
01000000
00000000
00001000
00000000
00010000
00000100
00000010
00000000
00000001
00000000
00000100
00000000
,  // measure 40
00000010
00000000
00001000
00000000
00010000
00000000
00100000
00000000
01000000
10000000
00010000
00000000
01000000
00000000
00100000
00000000
,  // measure 41
00010000
00000000
00001000
00000000
00000100
00000000
00000010
00000000
00000001
00000100
00000001
00000000
00001000
00000000
00000100
00000000
,  // measure 42
00000010
00001000
00010000
00100000
01000000
10000000
00010000
00100000
,  // measure 43
02202000
00000000
03303000
00111000
,  // measure 44
00022200
00000000
00033300
01011000
,  // measure 45
22020000
00000000
33030000
00111000
,  // measure 46
00022200
00000000
00033300
00000000
,  // measure 47
00022020
00000000
00033030
00011100
,  // measure 48
00222000
00000000
00333000
01011000
,  // measure 49
22020000
00000000
33030000
00111000
,  // measure 50
01001000
00001000
00010000
00100000
01000000
10000000
00100000
00010000
,  // measure 51
00001000
00000000
00000100
00000000
00000010
00000000
00000001
00000000
00001000
00000100
00001000
00000000
00000100
00000000
00010000
00000000
,  // measure 52
00001000
00000000
00100000
00000000
01000000
00000000
10000000
00000000
00010000
01000000
00010000
00000000
00100000
00000000
00001000
00000000
,  // measure 53
00010000
00000000
00000100
00000000
00000010
00000000
00000001
00000000
00000100
00001000
00010000
00000000
00100000
00000000
01000000
00000000
,  // measure 54
10000000
00000000
00100000
00000000
00010000
00000000
00001000
00000000
00000100
00000010
00000001
00000000
00000100
00000000
00001000
00000000
,  // measure 55
00011000
00110000
00000000
01100000
11000000
00000000
01100000
00222000
,  // measure 56
00000000
00333000
00000000
00000000
00000000
00000000
00000000
00000000
,  // measure 57
00110000
01010000
00000000
01010000
01001000
00000000
00011000
00011000
,  // measure 58
00011000
00110000
01100000
01010000
,  // measure 59
10000000
01000000
00100000
00001000
00010000
00000100
00001000
00000010
,  // measure 60
00000110
00000101
00000000
00001100
00010100
00000000
00011000
00101000
,  // measure 61
00100000
01000000
10000000
00010000
00100000
00001000
00010000
00000100
,  // measure 62
00001000
00000000
00000010
00000000
00000100
00000000
00000001
00000000
00000010
00000100
00001000
00000000
00010000
00000000
00100000
00000000
,  // measure 63
01000000
10000000
00100000
00010000
00001000
00000100
00000010
00000001
,  // measure 64
00001001
00001100
00000000
00010100
00011000
00000000
00101000
00110000
,  // measure 65
00010000
01000000
00100000
00010000
00001000
00000100
00000010
00001000
,  // measure 66
00000010
00000000
00000001
00000000
00000100
00000000
00001000
00000000
00010000
00100000
00010000
00000000
00001000
00000000
00000010
00000000
,  // measure 67
00000001
00000100
00000010
00010000
00001000
00100000
00010000
01000000
,  // measure 68
01100000
10100000
00000000
00110000
00011000
00000000
00001100
00010100
,  // measure 69
00010000
00001000
00100000
01000000
10000000
00100000
00010000
00001000
,  // measure 70
00000100
00000000
00000010
00000000
00000001
00000000
00001000
00000000
00000100
00010000
00000100
00000000
00010000
00000000
00001000
00000000
,  // measure 71
01000000
00100000
10000000
01000000
00100000
00010000
00001000
00000100
,  // measure 72
00000110
00000011
00000000
00000101
00001100
00000000
00011000
00101000
,  // measure 73
00100000
01000000
10000000
00100000
00010000
00001000
00000100
00000010
,  // measure 74
00000001
00000000
00000100
00000000
00000010
00000000
00010000
00000000
00001000
01000000
00001000
00000000
00100000
00000000
01000000
00000000
,  // measure 75
01010000
01010000
00000000
00110000
00110000
00000000
00011000
00011000
,  // measure 76
00000000
00000000
00001100
00000000
00001100
00000000
00000000
00000000
00000010
00001000
00000010
00010000
00001000
00000000
00010000
00000000
,  // measure 77
00011000
00001100
00000000
00010100
00010100
00000000
00101000
00101000
,  // measure 78
00000000
00000000
01100000
00000000
01100000
00000000
00000000
00000000
10000000
00010000
10000000
00010000
00100000
00000000
00001000
00000000
,  // measure 79
00011000
00010100
00000000
00001100
00001100
00000000
00010010
00010010
,  // measure 80
00000000
00000000
00011000
00000000
00011000
00000000
00000000
00000000
00100000
01000000
00100000
01000000
10000000
00000000
00010000
00000000
,  // measure 81
00110000
00101000
00000000
00011000
00011000
00000000
00001010
00001010
,  // measure 82
00000000
00010100
00010100
00000000
00001000
00010000
00001000
00010000
,  // measure 83
00012000
02003000
03200000
20300000
,  // measure 84
32000000
03020000
00032000
00003200
,  // measure 85
00000320
00000032
00000203
00002300
,  // measure 86
00013000
00000000
00100000
00000000
01000000
00000000
10000000
00000000
00100000
01000000
00001000
00000000
00010000
00000000
00000100
00000000
,  // measure 87
00000010
00000000
00000001
00000000
00001000
00000000
00000100
00000000
00010000
00001000
00010000
00000000
00001000
00000000
00100000
00000000
,  // measure 88
01000000
00000000
10000000
00000000
01000000
00000000
00010000
00000000
00001000
00000100
00000010
00000000
00000001
00000000
00001000
00000000
,  // measure 89
00000100
00000000
00010000
00000000
00001000
00000000
01000000
00000000
00100000
10000000
00100000
00000000
10000000
00000000
00010000
00000000
,  // measure 90
01000000
00000000
00001000
00000000
00010000
00000000
00000010
00000000
00000100
00000001
00000100
00000000
00000001
00000000
00001000
00000000
,  // measure 91
00000100
00000000
00010000
00000000
00001000
00000000
00100000
00000000
01000000
10000000
01000000
00000000
00100000
00000000
00010000
00000000
,  // measure 92
00001000
00000100
00000010
00000000
00000001
00000010
00000100
00000000
00001000
00010000
00100000
00000000
01000000
10000000
01000000
00000000
,  // measure 93
00100000
00010000
00001000
00000000
00000100
00000010
00000001
00000000
00000010
00000100
00001000
00000000
00010000
00100000
01000000
00000000
,  // measure 94
10000000
00010000
10000000
00000000
00100000
01000000
00100000
00000000
01000000
00001000
01000000
00000000
00001000
00010000
00001000
00000000
,  // measure 95
00010000
00000010
00010000
00000000
00000010
00000100
00000010
00000000
00000100
00000001
00000100
00000000
00000001
00001000
00000001
00000000
,  // measure 96
00001000
00000100
00001000
00000000
00000100
00010000
00000100
00000000
00010000
00001000
00010000
00000000
00001000
01000000
00001000
00000000
,  // measure 97
01000000
00100000
01000000
00000000
00100000
10000000
00100000
00000000
10000000
00010000
10000000
00000000
00010000
00100000
00001000
00000000
,  // measure 98
01000000
00000000
00100000
00000000
00010000
00000000
00001000
00000000
00000100
00000010
00000001
00000000
00000001
00000000
00000100
00000000
,  // measure 99
00000010
00000000
00010000
00000000
00001000
00000000
01000000
00000000
00100000
10000000
00100000
00000000
10000000
00000000
01000000
00000000
,  // measure 100
00100000
00000000
00010000
00000000
00001000
00000000
00000100
00000000
00000010
00000001
00001000
00000000
00000100
00000000
00001000
00000000
,  // measure 101
00010000
00000000
00100000
00000000
01000000
00000000
10000000
00000000
00010000
01000000
00001000
01000000
00010000
01000000
00001000
01000000
,  // measure 102
02020000
00000000
00000000
03030000
,  // measure 103
10010000
00000000
00000000
00000000
00001000
00010000
00001000
00010000
,  // measure 104
00000010
00000000
00000100
00000000
00000001
00000000
00001000
00000000
00000100
00010000
00000100
00000000
00001000
00000000
00010000
00000000
,  // measure 105
00100000
00000000
01000000
00000000
00010000
00000000
00001000
00000000
00000100
00000010
00000001
00000000
00000001
00000000
00000100
00000000
,  // measure 106
00001000
00000000
00010000
00000000
00100000
00000000
01000000
00000000
10000000
00100000
10000000
00000000
00010000
00000000
01000000
00000000
,  // measure 107
00001000
00000000
00010000
00000000
00000100
00000000
00000010
00000000
00000001
00000100
00001000
00000000
00010000
00000000
00100000
00000000
,  // measure 108
01000000
00000000
10000000
00000000
00100000
00000000
00010000
00000000
00001000
00000100
00000010
00000000
00000001
00000000
00000100
00000000
,  // measure 109
00001000
00000000
00010000
00000000
00100000
00000000
01000000
00000000
00010000
00001000
00000100
00000000
00000010
00000000
00000100
00000000
,  // measure 110
00001000
00000000
01000000
00000000
00100000
00000000
10000000
00000000
01000000
00100000
00010000
00000000
00001000
00000000
00000100
00000000
,  // measure 111
00000000
00000000
00011000
00011000
00011000
00011000
01000000
00100000
,  // measure 112
10000000
00000000
01000000
00000000
00100000
00010000
00001000
00000000
00000100
00000000
00000010
00000000
00000001
00000000
00000100
00000000
,  // measure 113
00000010
00000000
00001000
00000000
00000100
00010000
00000100
00000000
00010000
00001000
00010000
00000000
00001000
00000000
01000000
00000000
,  // measure 114
00100000
00000000
10000000
00000000
01000000
00100000
00010000
00000000
00001000
00000000
00000100
00000000
00000010
00000000
00000001
00000000
,  // measure 115
00001000
00000000
00000100
00000000
00010000
00001000
00010000
00000000
00001000
01000000
00001000
00000000
01000000
00000000
00100000
00000000
,  // measure 116
10000000
00000000
01000000
00000000
00100000
00010000
00001000
00000000
00000100
00000000
00000010
00000000
00000001
00000000
00001000
00000000
,  // measure 117
00000100
00000000
00010000
00000000
00001000
01000000
00001000
00000000
01000000
00100000
01000000
00000000
10000000
00000000
00010000
00000000
,  // measure 118
00100000
00000000
00001000
00000000
00010000
00000100
00000010
00000000
00000001
00000000
00000100
00000000
00001000
00000000
00010000
00000000
,  // measure 119
00100000
00000000
01000000
00000000
10000000
01000000
10000000
01000000
00100000
00010000
00100000
00010000
00022000
00000000
00000000
00000000
,  // measure 120
00000000
00000000
00000000
00000000
00033000
00000000
01100000
00110000
,  // measure 121
00000000
00011000
00001100
00000000
00000110
00001010
00000000
00001100
,  // measure 122
00010100
00000000
00011000
01010000
00000000
01100000
00110000
00000000
,  // measure 123
10010000
01010000
00000000
01001000
00011000
00000000
00001100
00022200
,  // measure 124
00000000
00033300
00000000
00000000
;

//---------------dance-double - ----------------
#NOTES:
     dance-double:
     :
     Challenge:
     13:
     1.000,1.000,0.649,0.286,0.766,1048.000,100.000,44.000,0.000,37.000:  // measure 1
00000000
00000000
00000000
00000000
,  // measure 2
00000000
00000000
00000000
00000000
,  // measure 3
01000000
00000000
00001000
00000000
00100000
00000000
00010000
00000000
00001000
00000100
00000010
00000000
00000001
00001000
00000001
00000000
,  // measure 4
00000100
00000000
00001000
00000000
00010000
00000000
00100000
00000000
01000000
10000000
01000000
00000000
10000000
00010000
00100000
00000000
,  // measure 5
00001000
00000000
00010000
00000000
00000100
00000000
00000010
00000000
00000001
00001000
00000001
00000000
00000100
00001000
00010000
00000000
,  // measure 6
00100000
00000000
01000000
00000000
10000000
00000000
00010000
00000000
01000000
00001000
00010000
00000000
00000100
00001000
00000100
00000000
,  // measure 7
00000010
00000000
00000001
00000000
00000100
00000000
00001000
00000000
00010000
00100000
01000000
00000000
10000000
00010000
10000000
00000000
,  // measure 8
01000000
00000000
00010000
00000000
00001000
00000000
00000100
00000000
00000010
00000001
00000010
00000000
00000001
00000100
00000001
00000000
,  // measure 9
00001000
00000000
00000100
00000000
00010000
00000000
00001000
00000000
01000000
00100000
10000000
00000000
00010000
00100000
01000000
00000000
,  // measure 10
00001000
00000000
00010000
00000000
00000100
00000000
00001000
00000000
00000010
00000100
00000010
00000100
00000001
00000100
00000001
00000000
,  // measure 11
00000100
00000000
00001000
00000000
00010000
00000000
00100000
00000000
01000000
10000000
00010000
00000000
01000000
00100000
01000000
00000000
,  // measure 12
00001000
00000000
00010000
00000000
00000100
00000000
00000010
00000000
00000001
00001000
00000001
00000000
00000100
00001000
00010000
00000000
,  // measure 13
00100000
00000000
01000000
00000000
10000000
00000000
00010000
00000000
00100000
00001000
00010000
00000000
00000100
00001000
00000100
00000000
,  // measure 14
00000010
00000000
00000001
00000000
00000100
00000000
00001000
00000000
00010000
00100000
01000000
00000000
10000000
00100000
10000000
00000000
,  // measure 15
00010000
00000000
01000000
00000000
00100000
00000000
00010000
00000000
00001000
00000100
00000010
00000000
00000001
00001000
00000001
00000000
,  // measure 16
00000100
00000000
00001000
00000000
00010000
00000000
00100000
00000000
01000000
10000000
01000000
00000000
10000000
00010000
00100000
00000000
,  // measure 17
00001000
00000000
00010000
00000000
00000100
00000000
00001000
00000000
00000010
00000100
00000001
00000000
00001000
00000100
00010000
00000000
,  // measure 18
00001000
01000000
00001000
01000000
00001000
00100000
00001000
00100000
00010000
01000000
00010000
01000000
00001000
00100000
00001000
00100000
,  // measure 19
00220200
00000000
00330300
00111000
,  // measure 20
02022000
00000000
03033000
11010000
,  // measure 21
02022000
00000000
03033000
00111000
,  // measure 22
00001100
00000000
00000000
00000000
00000010
00010000
00000010
00010000
00000100
00010000
00000100
00010000
00001000
00100000
00001000
00100000
,  // measure 23
00001000
00000000
01000000
00000000
00100000
00000000
10000000
00000000
01000000
00100000
00010000
00000000
00001000
00000000
00000100
00000000
,  // measure 24
00000010
00000000
00000001
00000000
00001000
00000000
00000100
00000000
00010000
00001000
00010000
00000000
00001000
01000000
00100000
00000000
,  // measure 25
10000000
00000000
01000000
00000000
00010000
00000000
00001000
00000000
00000100
00000010
00000001
00000000
00000001
00000000
00000100
00000000
,  // measure 26
00001000
00000000
00010000
00000000
00100000
00000000
01000000
00000000
10000000
00100000
00010000
00000000
00010000
00001000
00000100
00000000
,  // measure 27
00000010
00000000
00000001
00000000
00001000
00000000
00000100
00000000
00010000
00001000
00010000
00001000
00010000
00000000
00001000
00000000
,  // measure 28
01000000
00000000
00100000
00000000
10000000
00000000
01000000
00000000
00100000
00010000
00001000
00000000
00000100
00000000
00000010
00000000
,  // measure 29
00000001
00000000
00000100
00000000
00001000
00000000
00010000
00000000
00100000
01000000
00100000
01000000
10000000
00000000
00010000
00000000
,  // measure 30
01000000
00000000
00001000
00000000
00010000
00000000
00000010
00000000
00000100
00000001
00000100
00000000
00000001
00000000
00001000
00000000
,  // measure 31
00000100
00000000
00010000
00000000
00001000
00000000
00100000
00000000
01000000
10000000
01000000
10000000
00010000
00000000
01000000
00000000
,  // measure 32
00100000
00000000
00010000
00000000
00001000
00000000
00000100
00000000
00000010
00000001
00001000
00000000
00000001
00000000
00000100
00000000
,  // measure 33
00001000
00000000
00010000
00000000
00100000
00000000
01000000
00000000
10000000
00010000
10000000
00010000
10000000
00000000
00100000
00000000
,  // measure 34
00010000
00000000
00001000
00000000
00000010
00000000
00000001
00000000
00000100
00000010
00001000
00000000
00000100
00000000
00010000
00000000
,  // measure 35
00001000
00000000
01000000
00000000
00100000
00000000
10000000
00000000
00010000
01000000
00010000
01000000
00001000
00000000
00010000
00000000
,  // measure 36
00000100
00000000
00000010
00000000
00000001
00000000
00000100
00000000
00001000
00010000
00100000
00000000
01000000
00000000
10000000
00000000
,  // measure 37
00010000
00000000
00100000
00000000
00001000
00000000
00010000
00000000
00000010
00000100
00000010
00000100
00000010
00000000
00001000
00000000
,  // measure 38
00000001
00000000
00000010
00000000
00000100
00000000
00001000
00000000
00010000
00100000
01000000
00000000
10000000
00000000
00100000
00000000
,  // measure 39
01000000
00000000
00001000
00000000
00010000
00000000
00000100
00000000
00001000
00000010
00001000
00000010
00000100
00000000
00000001
00000000
,  // measure 40
00000010
00000000
00000100
00000000
00001000
00000000
00010000
00000000
00100000
01000000
10000000
00000000
00010000
00000000
01000000
00000000
,  // measure 41
00001000
00000000
00010000
00000000
00000100
00000000
00001000
00000000
00000010
00000100
00000010
00000100
00000001
00000000
00000010
00000000
,  // measure 42
00000100
00010000
00000100
00010000
00001000
00010000
00001000
00010000
00001000
00100000
00001000
00100000
00001000
01000000
00010000
01000000
,  // measure 43
02202000
00000000
03303000
00111000
,  // measure 44
00022200
00000000
00033300
00110100
,  // measure 45
00222000
00000000
00333000
01011000
,  // measure 46
22020000
00000000
33030000
00000000
,  // measure 47
22020000
00000000
33030000
01011000
,  // measure 48
00022200
00000000
00033300
00011010
,  // measure 49
02022000
00000000
03033000
00110100
,  // measure 50
00001100
00000100
00000010
00000001
00000010
00000100
00001000
00010000
,  // measure 51
00100000
00000000
01000000
00000000
10000000
00000000
00010000
00000000
00100000
00001000
00100000
00000000
00001000
00010000
00000100
00000000
,  // measure 52
00000010
00000000
00000001
00000000
00000100
00000000
00001000
00000000
00010000
00100000
01000000
00000000
10000000
00100000
10000000
00000000
,  // measure 53
00010000
00000000
01000000
00000000
00001000
00000000
00010000
00000000
00000100
00000010
00000100
00000000
00001000
00000001
00001000
00000000
,  // measure 54
00000001
00000000
00000100
00000000
00001000
00000000
00010000
00000000
00100000
01000000
10000000
00000000
00010000
01000000
00001000
00000000
,  // measure 55
00001100
00000110
00000000
00000011
00001001
00000000
00001100
00022200
,  // measure 56
00000000
00033300
00000000
00000000
,  // measure 57
00011000
01001000
00000000
01100000
01010000
00000000
00011000
00001100
,  // measure 58
00000120
00001000
00010000
00100030
,  // measure 59
11000000
10000000
00010000
00100000
01000000
00010000
01000000
00100000
,  // measure 60
10010000
01010000
00000000
00110000
00011000
00000000
00001100
00000110
,  // measure 61
00000001
00000000
00001000
00000000
00000100
00000000
00010000
00000000
00001000
00100000
00001000
00000000
01000000
00000000
00100000
00000000
,  // measure 62
10000000
00000000
01000000
00000000
00100000
00000000
00010000
00000000
00001000
00000010
00001000
00000000
00000100
00000000
00000010
00000000
,  // measure 63
00000001
00000100
00000010
00001000
00000100
00000001
00000100
00001000
,  // measure 64
00011000
00110000
00000000
01100000
01010000
00000000
11000000
10010000
,  // measure 65
00010000
00000000
00100000
00000000
00001000
00000000
00010000
00000000
00000100
00000010
00000001
00000000
00000010
00000000
00001000
00000000
,  // measure 66
00010000
00000000
00100000
00000000
01000000
00000000
10000000
00000000
00010000
00100000
00001000
00000000
00010000
00000000
00000100
00000000
,  // measure 67
00000010
00000001
00001000
00000010
00001000
00000001
00000010
00000100
,  // measure 68
00001100
00011000
00000000
00110000
01100000
00000000
11000000
10010000
,  // measure 69
00010000
00000000
01000000
00000000
00001000
00000000
00010000
00000000
00000100
00000010
00000100
00000000
00001000
00000000
00000001
00000000
,  // measure 70
00000100
00000000
00001000
00000000
00010000
00000000
00100000
00000000
01000000
10000000
00010000
00000000
01000000
00000000
00100000
00000000
,  // measure 71
00010000
10000000
01000000
00010000
01000000
00100000
00010000
01000000
,  // measure 72
01001000
00011000
00000000
00010100
00001100
00000000
00001010
00000110
,  // measure 73
00000100
00000000
00000001
00000000
00000010
00000000
00000100
00000000
00001000
00010000
00100000
00000000
01000000
00000000
00010000
00000000
,  // measure 74
00001000
00000000
00000100
00000000
00000010
00000000
00000001
00000000
00000100
00001000
00010000
00000000
00100000
00000000
01000000
00000000
,  // measure 75
11010000
00000000
00000000
00111000
00000000
00000000
00011100
00000000
,  // measure 76
00000000
00000000
00010110
00000000
00000000
00000000
00000000
00000000
00010000
00001000
00010000
00001000
00100000
00000100
00100000
00000100
,  // measure 77
00101100
00000000
00000000
00111000
00000000
00000000
11010000
00000000
,  // measure 78
00000000
00000000
01011000
00000000
00000000
00000000
00000000
00000000
00000100
00010000
00000100
00010000
00001000
00100000
00001000
00100000
,  // measure 79
00111000
00000000
00000000
11010000
00000000
00000000
00111000
00000000
,  // measure 80
00000000
00000000
00011100
00000000
00000000
00000000
00000000
00000000
00001000
00000010
00001000
00000010
00010000
00000100
00010000
00000100
,  // measure 81
00011100
00000000
00000000
00111000
00000000
00000000
11010000
00000000
,  // measure 82
00000000
01011000
00000000
00000000
00010000
00001000
00010000
00001000
,  // measure 83
00000100
00000010
00000001
00000010
00000100
00001000
00000010
00010000
00001000
00010000
00001000
00100000
,  // measure 84
00010000
01000000
00100000
10000000
01000000
10000000
00010000
01000000
00001000
00010000
00001000
00000100
,  // measure 85
00000010
00000001
00001000
00000001
00000010
00000100
00010000
00001000
00010000
00001000
00100000
00010000
,  // measure 86
01000000
00000000
00100000
00000000
10000000
00000000
01000000
00000000
00100000
00010000
00100000
00000000
00001000
00010000
00000100
00000000
,  // measure 87
00000010
00000000
00000001
00000000
00000100
00000000
00000010
00000000
00010000
00001000
00010000
00000000
00001000
01000000
00100000
00000000
,  // measure 88
10000000
00000000
01000000
00000000
00100000
00000000
00010000
00000000
10000000
01000000
10000000
00000000
00010000
00100000
00001000
00000000
,  // measure 89
00010000
00000000
00001000
00000000
00000100
00000000
00000010
00000000
00000001
00000100
00000001
00000000
00000100
00001000
00010000
00000000
,  // measure 90
00100000
00000000
01000000
00000000
10000000
00000000
00100000
00000000
00010000
00001000
00000100
00000000
00000010
00000001
00000010
00000000
,  // measure 91
00000001
00000000
00000100
00000000
00000010
00000000
00010000
00000000
00001000
00100000
00001000
00000000
01000000
00010000
10000000
00000000
,  // measure 92
10000000
01000000
00100000
00010000
00001000
00000100
00000010
00000001
00000010
00000100
00001000
00010000
00100000
01000000
10000000
01000000
,  // measure 93
00100000
00010000
00001000
00000100
00000010
00000001
00000010
00000100
00001000
00010000
00100000
01000000
10000000
01000000
00100000
00010000
,  // measure 94
00001000
01000000
00001000
01000000
00001000
01000000
00001000
01000000
00001000
00010000
00000100
00010000
00000100
00010000
00000100
00010000
,  // measure 95
00000100
00001000
00000001
00001000
00000001
00001000
00000001
00001000
00000001
00001000
00000100
00010000
00000100
00010000
00000100
00010000
,  // measure 96
00000100
00010000
00001000
00100000
00001000
00100000
00001000
00100000
00001000
00100000
00001000
00100000
00010000
10000000
00010000
10000000
,  // measure 97
00010000
10000000
00010000
10000000
00010000
01000000
00001000
01000000
00001000
01000000
00001000
00100000
00001000
00100000
00001000
00100000
,  // measure 98
00001000
00000000
01000000
00000000
00010000
00000000
00001000
00000000
00000100
00000010
00000001
00000000
00000001
00000100
00001000
00000000
,  // measure 99
00010000
00000000
00100000
00000000
01000000
00000000
10000000
00000000
00100000
01000000
00001000
00000000
00010000
00000100
00010000
00000000
,  // measure 100
00000100
00000000
00000010
00000000
00000001
00000000
00001000
00000000
00000100
00010000
00000100
00000000
00001000
00010000
00100000
00000000
,  // measure 101
01100000
00000000
10000000
00000000
00100000
00000000
00010000
00000000
00001000
00010000
01000000
10000000
01000000
00010000
00001000
00000100
,  // measure 102
00000220
00000000
00000000
00000330
,  // measure 103
00011000
00000000
00000000
00000000
00100000
00000100
00100000
00000100
,  // measure 104
00010000
00000000
00000010
00000000
00000100
00000000
00000001
00000000
00000010
00000100
00000010
00000000
00000100
00001000
00010000
00000000
,  // measure 105
00100000
00000000
01000000
00000000
10000000
00000000
00010000
00000000
00100000
00001000
00100000
00001000
00010000
00000000
00000100
00000000
,  // measure 106
00000010
00000000
00000001
00000000
00000100
00000000
00001000
00000000
00010000
00100000
01000000
00000000
10000000
00010000
10000000
00000000
,  // measure 107
01000000
00000000
00010000
00000000
00001000
00000000
00000100
00000000
00000010
00000001
00000010
00000001
00001000
00000000
00000100
00000000
,  // measure 108
00010000
00000000
00001000
00000000
00100000
00000000
01000000
00000000
10000000
00100000
00010000
00000000
00010000
00100000
10000000
00000000
,  // measure 109
01000000
00000000
00100000
00000000
00010000
00000000
00001000
00000000
00000100
00000010
00000100
00000010
00000001
00000000
00001000
00000000
,  // measure 110
00000100
00000000
00010000
00000000
00001000
00000000
00100000
00000000
01000000
10000000
00010000
00000000
01000000
00100000
00010000
00000000
,  // measure 111
00022000
00033000
00000000
00000000
01000000
00000000
00000100
00000000
01000000
00000000
00000100
00000000
00011000
00000000
00010000
00000000
,  // measure 112
00000010
00000000
00000100
00000000
00000001
00000010
00000001
00000000
00000100
00001000
00010000
00000000
01000000
00000000
00100000
00000000
,  // measure 113
10000000
00000000
00010000
00000000
00100000
00001000
00010000
00000000
00000100
00001000
00000100
00000000
00000010
00000000
00000001
00000000
,  // measure 114
00000100
00000000
00001000
00000000
00010000
00100000
01000000
00000000
10000000
00010000
10000000
00000000
01000000
00000000
00100000
00000000
,  // measure 115
00010000
00000000
00001000
00000000
00000100
00000010
00000001
00000000
00000001
00000100
00001000
00000000
00001000
00000000
00010000
00000000
,  // measure 116
00100000
00000000
01000000
00000000
10000000
00010000
01000000
00000000
00001000
00010000
00000100
00000000
00000010
00000000
00000001
00000000
,  // measure 117
00001000
00000000
00000100
00000000
00010000
00001000
00100000
00000000
01000000
10000000
00010000
00000000
10000000
00000000
01000000
00000000
,  // measure 118
00100000
00000000
00010000
00000000
00001000
00000100
00000010
00000000
00000001
00000100
00001000
00000000
00001000
00000000
00010000
00000000
,  // measure 119
00110000
00000000
00100000
00000000
01000000
10000000
01000000
00100000
00010000
00100000
00010000
00001000
00002200
00000000
00000000
00000000
,  // measure 120
00000000
00000000
00000000
00000000
00003300
00000000
00011000
00011000
,  // measure 121
00000000
01010000
01010000
00000000
10010000
10010000
00000000
00011000
,  // measure 122
00011000
00000000
00001001
00001001
00000000
00001100
00001100
00000000
,  // measure 123
00110000
00110000
00000000
00101000
00101000
00000000
00011000
00222200
,  // measure 124
00000000
00333300
00000000
00000000
;

//---------------dance-single - ----------------
#NOTES:
     dance-single:
     :
     Challenge:
     17:
     1.000,1.000,1.000,1.000,1.000,1511.000,488.000,186.000,0.000,149.000:  // measure 1
0000
0000
0000
0000
,  // measure 2
2112
0110
0110
0110
0110
0110
3113
1111
,  // measure 3
0110
0000
1010
0000
0001
0000
0110
0000
1001
0100
0010
0001
0100
1000
0110
0000
,  // measure 4
0001
0000
0101
0000
0010
0000
1100
0000
1001
0100
0010
1000
0001
0010
1100
0000
,  // measure 5
0010
0000
1001
0000
1000
0000
0110
0000
0101
1000
0010
0001
0100
0010
1100
0000
,  // measure 6
0001
0000
0110
0000
1000
0000
0011
0000
1100
0001
0100
1000
0010
0100
1001
0000
,  // measure 7
0100
0000
0011
0000
0010
0000
1100
0000
1001
0100
0010
1000
0001
0010
0110
0000
,  // measure 8
1000
0000
1100
0000
0001
0000
0110
0000
1010
0100
0001
0100
0010
1000
1001
0000
,  // measure 9
0100
0000
0110
0000
0001
0000
1100
0000
1010
0001
0100
0010
1000
0100
0011
0000
,  // measure 10
0100
0000
1001
0000
1000
0000
0110
0000
0011
0100
1000
1100
0010
0001
0011
0100
,  // measure 11
1000
0000
1100
0000
0001
0000
0110
0000
1010
0100
0001
0010
0100
1000
1001
0000
,  // measure 12
0010
0000
0110
0000
1000
0000
1010
0000
0101
1000
0010
0001
0100
1000
0110
0000
,  // measure 13
0001
0000
1001
0000
0100
0000
0011
0000
1010
0100
0001
0010
0100
1000
1001
0000
,  // measure 14
0010
0000
0110
0000
1000
0000
0011
0000
0101
1000
0010
0100
0001
0010
0110
0000
,  // measure 15
1000
0000
1100
0000
0001
0000
0110
0000
1001
0100
0010
1000
0100
0001
1001
0000
,  // measure 16
0010
0000
0101
0000
1000
0000
1100
0000
0110
0001
1000
0010
0001
0100
1001
0000
,  // measure 17
0010
0000
1100
0000
1000
0000
0110
0000
0101
1000
0010
0010
0001
0100
1010
0000
,  // measure 18
0011
1100
0011
1100
0011
1100
0011
1100
1100
0011
1100
0011
1100
0011
1100
0011
,  // measure 19
2202
0000
0010
0000
0010
0000
0010
0000
3313
0000
1000
0000
0111
0222
1333
0000
,  // measure 20
2022
0000
0100
0000
0100
0000
0100
0000
3133
0000
0001
0000
1110
2220
3331
0000
,  // measure 21
0222
0000
1000
0000
1000
0000
1000
0000
1333
0000
0010
0000
1101
2202
3313
0000
,  // measure 22
0110
1001
0110
1001
0110
1001
0110
1001
1100
0011
1100
0011
1100
0011
1100
0011
,  // measure 23
1001
0000
1010
0000
0100
0000
0101
0000
1010
1000
0001
0010
0100
0001
1100
0000
,  // measure 24
0010
0000
1001
0000
0100
0000
1100
0000
0011
0001
0100
1000
0010
0100
1001
0000
,  // measure 25
0100
0000
0110
0000
0001
0000
1100
0000
1010
0010
0001
0100
1000
0100
0011
0000
,  // measure 26
0100
0000
0101
0000
1000
0000
0110
0000
1001
0100
0010
1000
1000
0100
0011
0000
,  // measure 27
1001
0000
1100
0000
0010
0000
1001
0000
1100
0010
0001
0100
1000
1000
0110
0000
,  // measure 28
0001
0000
0101
0000
1000
0000
0110
0000
1001
0010
0100
0001
0100
0010
1001
0000
,  // measure 29
0100
0000
1001
0000
0010
0000
0110
0000
1100
1000
0001
0100
1000
0100
0011
0000
,  // measure 30
0100
0000
1001
0000
0010
0000
0110
0000
1100
1000
0001
0100
1000
0010
1001
0000
,  // measure 31
0100
0000
0110
0000
0001
0000
1100
0000
1010
0001
0001
0100
0010
1000
1100
0000
,  // measure 32
0001
0000
0110
0000
1000
0000
1100
0000
0101
0001
1000
0100
0010
0001
1001
0000
,  // measure 33
0100
0000
0011
0000
0001
0000
0110
0000
1100
1000
0001
0100
1000
0100
0011
0000
,  // measure 34
0100
0000
1010
0000
1000
0000
0110
0000
1001
0100
0010
1000
0001
0010
0100
1000
,  // measure 35
0010
0000
1001
0000
0100
0000
0110
0000
1001
0100
1000
0010
0001
0100
1100
0000
,  // measure 36
0010
0000
1001
0000
1000
0000
0110
0000
0101
1000
0010
0001
0001
0100
1010
0000
,  // measure 37
1000
0000
0110
0000
0001
0000
1001
0000
1010
0100
0100
0001
0010
0100
1001
0000
,  // measure 38
0100
0000
0011
0000
0001
0000
0110
0000
1100
0001
1000
0010
0001
0100
1001
0000
,  // measure 39
0010
0000
1100
0000
1000
0000
0110
0000
0101
1000
0010
0001
0001
0100
1010
0000
,  // measure 40
1000
0000
0101
0000
0001
0000
0011
0000
1100
0001
0100
0010
0001
0100
1010
0000
,  // measure 41
1000
0000
0110
0000
0001
0000
0110
0000
1100
0001
0010
1000
1000
0100
0011
0000
,  // measure 42
1010
0100
0001
1010
0100
0001
1010
0100
0101
1000
0010
0101
1000
0010
0101
1000
,  // measure 43
2220
0000
0001
0000
0001
0000
0001
0000
3331
0000
1000
0000
0111
0222
1333
0000
,  // measure 44
2202
0000
0010
0000
0010
0000
0010
0000
3313
0000
0100
0000
1011
2022
3133
0000
,  // measure 45
0222
0000
1000
0000
1000
0000
1000
0000
1333
0000
0010
0000
1101
2202
3313
0000
,  // measure 46
2220
0000
0001
0000
0001
0000
0001
0000
3331
0000
0100
0000
0111
0222
1333
0000
,  // measure 47
2202
0000
0010
0000
0010
0000
0010
0000
3313
0000
0001
0000
1110
2220
3331
0000
,  // measure 48
0222
0000
1000
0000
1000
0000
1000
0000
1333
0000
0100
0000
1011
2022
3133
0000
,  // measure 49
2220
0000
0001
0000
0001
0000
0001
0000
3331
0000
0010
0000
1101
2202
3313
0000
,  // measure 50
1100
0010
0001
1100
0010
0001
1100
0010
0011
0100
1000
0011
0100
1000
0011
0100
,  // measure 51
1001
0000
1100
0000
0010
0000
1001
0000
1100
0010
1000
0001
0010
0100
1001
0000
,  // measure 52
0010
0000
0110
0000
0001
0000
0101
0000
1100
1000
0010
0001
0010
0100
1001
0000
,  // measure 53
0100
0000
0110
0000
0001
0000
1100
0000
1001
0010
0100
0001
1000
0100
1010
0000
,  // measure 54
0001
0000
0101
0000
1000
0000
1001
0000
0110
0001
0100
1000
0001
0010
1100
0000
,  // measure 55
0110
0001
2200
0000
3300
0000
1001
0010
2200
0000
3300
0000
0111
1000
2222
0000
,  // measure 56
0000
3333
0000
0000
0000
0000
0000
0000
,  // measure 57
1110
0001
2200
0000
3300
0000
1010
0001
0202
0000
0303
0000
0111
1000
1101
0000
,  // measure 58
2112
0110
0110
0110
0110
0110
3113
0110
,  // measure 59
1001
0100
0010
0001
0100
1000
0100
0010
1000
0000
0101
0000
0110
0001
1000
0000
,  // measure 60
0011
1000
0202
0000
0303
0000
0110
0001
2020
0000
3030
0000
1100
0010
2002
0000
,  // measure 61
3103
0010
0100
1000
0001
0100
0010
1000
0100
0010
0001
1000
1100
0010
0100
0001
,  // measure 62
1001
0010
0100
0001
1000
0100
0010
1000
0101
1000
0001
0010
0100
1000
1001
0000
,  // measure 63
0110
1000
0010
0001
0100
1000
0100
0010
1000
0000
0101
0000
0110
1000
0001
0000
,  // measure 64
1001
0100
2020
0000
3030
0000
1100
0010
0202
0000
0303
0000
0011
1000
0220
0000
,  // measure 65
1330
0001
0100
1000
0110
0001
1000
0010
0100
1000
0001
0100
0010
0001
1000
0100
,  // measure 66
1001
0010
0100
0001
1000
0100
0010
1000
0001
0010
0100
1000
0001
0100
0110
0000
,  // measure 67
1001
0100
0010
1000
0100
0001
0100
0010
1000
0000
1100
0000
0110
0001
0010
0000
,  // measure 68
1100
0001
2020
0000
3030
0000
0110
1000
0022
0000
0033
0000
1100
0001
2020
0000
,  // measure 69
3130
0001
0100
1000
0010
0001
0100
0010
1001
0100
1000
0001
0001
0100
0010
0001
,  // measure 70
1001
0100
1000
0010
0100
0001
1000
0100
0001
0100
1000
0010
0100
0001
1001
0000
,  // measure 71
0010
0100
0001
1000
0100
0001
0010
0100
1001
0000
0101
0000
0110
1000
0001
0000
,  // measure 72
1001
0010
0202
0000
0303
0000
0110
1000
0022
0000
0033
0000
1010
0001
0220
0000
,  // measure 73
0331
1000
0100
0001
0100
0010
1000
0100
1001
0010
0100
0001
1000
0100
1000
0010
,  // measure 74
0110
0100
0001
1000
0100
0001
0100
0010
1000
0001
0010
0100
1000
0001
0101
0000
,  // measure 75
1110
0001
2220
0000
3330
0000
0111
1000
0222
0000
0333
0000
1101
0010
2202
0000
,  // measure 76
3303
0000
0000
0000
1110
0000
0001
0000
2202
0000
0000
0000
3303
0000
0000
0000
0001
0010
0001
0010
0001
0000
0100
0000
0010
0000
1000
0000
0100
0000
0010
0000
,  // measure 77
1011
0100
2022
0000
3033
0000
0111
1000
0222
0000
0333
0000
1101
0010
2202
0000
,  // measure 78
3303
0000
0000
0000
1110
0000
0001
0000
2220
0000
0000
0000
3330
0000
0000
0000
0001
1000
0001
1000
0001
0000
0100
0000
0010
0000
1000
0000
0100
0000
0010
0000
,  // measure 79
0111
1000
0222
0000
0333
0000
1101
0010
2202
0000
3303
0000
1110
0001
2220
0000
,  // measure 80
3330
0000
0000
0000
0111
0000
1000
0000
0222
0000
0000
0000
0333
0000
0000
0000
1000
0100
1000
0100
1000
0000
0010
0000
0100
0000
0001
0000
0010
0000
1000
0000
,  // measure 81
1011
0100
2022
0000
3033
0000
1110
0001
2220
0000
3330
0000
0111
1000
0222
0000
,  // measure 82
0333
0000
1101
0010
2202
0000
3303
0000
1100
1100
0011
0000
0011
0011
1100
0000
,  // measure 83
0210
0000
0010
0300
0001
0000
0100
0000
1000
0000
0100
0000
2001
0000
0010
3000
0100
0000
0001
0000
0100
0000
0010
0000
,  // measure 84
1002
0000
0100
0003
0100
0000
1000
0000
0010
0000
0100
0000
0012
0000
1000
0003
0010
0000
0100
0000
0001
0000
1000
0000
,  // measure 85
1001
0000
0000
0100
0010
0000
1000
0000
0001
0100
0000
0000
1010
0000
0000
0100
0001
0000
1000
0000
0010
0100
0000
0000
1001
0000
0000
0100
0010
0000
1000
0000
0001
0100
0000
0000
1010
0000
0000
0100
0001
0000
1000
0000
0010
0100
0000
0000
,  // measure 86
1001
0000
1100
0000
0010
0100
1001
0000
0101
0010
1000
0100
0001
0010
0110
0000
,  // measure 87
1000
0001
1100
0000
0010
1000
0011
0000
0101
1000
0010
0100
0001
0010
0110
0000
,  // measure 88
1000
0001
1100
0000
0010
1000
0110
0000
1001
0100
0010
1000
0010
0001
0101
0000
,  // measure 89
0001
1000
0101
0000
0010
1000
1010
0000
1100
0001
0100
1000
0010
0100
1001
0000
,  // measure 90
1001
0100
0010
0001
0010
0100
1000
0100
0010
0001
0010
0100
1000
0100
0010
0001
,  // measure 91
1001
0010
1000
0100
0001
0010
1000
0100
0001
0010
1000
0100
0001
0010
1000
0100
,  // measure 92
0010
0001
0100
1000
0010
0001
0100
1000
0010
0001
0100
1000
0010
0001
0100
1000
0010
0001
0100
1000
0010
0001
0100
1000
0010
0001
0100
1000
0010
0001
0100
1000
,  // measure 93
0010
0001
0100
1000
0010
0001
0100
1000
0010
0001
0100
1000
0010
0001
0100
1000
0010
0001
0100
1000
0010
0001
0100
1000
0010
0001
0100
1000
0010
0001
0100
1000
,  // measure 94
1000
0100
0010
0001
1000
0100
0010
0001
1000
0100
0010
0001
1000
0100
0010
0001
1000
0100
0010
0001
1000
0100
0010
0001
1000
0100
0010
0001
1000
0100
0010
0001
,  // measure 95
0001
0010
0100
1000
0001
0010
0100
1000
0001
0010
0100
1000
0001
0010
0100
1000
0001
0010
0100
1000
0001
0010
0100
1000
0001
0010
0100
1000
0001
0010
0100
1000
,  // measure 96
1000
0100
0001
0010
1000
0100
0001
0010
1000
0100
0001
0010
1000
0100
0001
0010
1000
0100
0001
0010
1000
0100
0001
0010
1000
0100
0001
0010
1000
0100
0001
0010
,  // measure 97
0010
0001
0100
1000
0010
0001
0100
1000
0010
0001
0100
1000
0010
0001
0100
1000
0010
0001
0100
1000
0010
0001
0100
1000
0010
0001
0100
1000
0010
0001
0100
1000
,  // measure 98
0001
0001
1100
0000
0010
1000
0011
0000
1001
0100
0010
1000
0001
0010
1100
0000
,  // measure 99
0100
0010
1001
0000
0001
0010
1100
0000
1001
0100
0010
1000
0001
0010
0110
0000
,  // measure 100
1000
0100
1010
0000
0001
0100
1100
0000
1010
0001
0100
1000
0100
0010
1001
0000
,  // measure 101
1100
0010
0100
0001
1100
0010
0100
1000
0011
1000
0001
0100
0110
1000
0001
0010
,  // measure 102
2222
0000
0000
3333
,  // measure 103
1111
2222
0000
0000
3333
0000
0000
0000
1010
1010
0101
0000
0101
0101
1010
0000
,  // measure 104
1000
0000
0110
0000
0001
0000
1100
0000
1010
0001
0001
0100
0010
1000
1100
0000
,  // measure 105
0001
0000
0011
0000
0100
0000
1001
0000
0110
0001
0100
1000
0010
0100
0101
0000
,  // measure 106
1000
0000
0110
0000
0001
0000
0101
0000
1100
1000
0010
0100
0001
0010
0101
0000
,  // measure 107
1000
0000
1001
0000
0010
0000
0101
0000
1100
1000
0010
0001
0010
0100
1001
0000
,  // measure 108
0100
0000
0110
0000
0001
0000
1100
0000
1001
0100
0010
1000
1000
0010
0101
0000
,  // measure 109
0001
0000
0110
0000
1000
0000
1100
0000
0101
0010
0010
1000
0100
0010
1001
0000
,  // measure 110
0100
0000
1100
0000
0010
0000
1001
0000
1100
0010
1000
0001
0010
0100
1001
0000
,  // measure 111
2222
3333
1001
0000
0110
0110
1001
0000
1001
1001
0110
0000
1001
0000
0101
0000
,  // measure 112
0010
0000
1100
0000
1001
0100
0010
1000
0001
0010
0100
1000
0010
0000
0011
0000
,  // measure 113
0100
0000
1001
0000
0110
0001
0100
1000
0010
0100
0001
0010
0100
0000
1001
0000
,  // measure 114
1000
0000
0110
0000
0101
1000
0010
0001
0100
0010
1000
0100
0001
0000
0110
0000
,  // measure 115
1000
0000
1100
0000
0110
0001
1000
0010
0010
0001
0100
1000
0100
0000
1001
0000
,  // measure 116
0010
0000
1100
0000
1001
0100
0010
0010
0001
0100
1000
0100
0010
0000
1001
0000
,  // measure 117
0100
0000
0110
0000
1001
0100
1000
0010
0001
0010
0100
0001
1000
0000
1100
0000
,  // measure 118
0010
0000
1001
0000
1100
0010
0001
0010
0110
1000
0001
0110
1000
0001
0110
1000
,  // measure 119
0001
1100
0010
0001
1100
0010
0001
1100
0010
0001
1100
0001
2112
0000
0110
0000
,  // measure 120
0110
0000
0110
0000
0110
0000
0110
0000
3113
0000
1111
0000
1100
0001
2020
0000
,  // measure 121
3030
0000
0110
1000
0202
0000
0303
0000
0011
0100
2002
0000
3003
0000
0110
0001
,  // measure 122
2002
0000
3003
0000
1010
1000
0202
0000
0303
0000
0011
1000
2200
0000
3300
0000
,  // measure 123
1001
0001
0220
0000
0330
0000
1010
0001
2200
0000
3300
0000
0101
0010
2222
0000
,  // measure 124
0000
3333
0000
0000
;

//---------------dance-single - ----------------
#NOTES:
     dance-single:
     :
     Easy:
     9:
     0.819,0.800,0.539,0.299,0.000,754.000,83.000,46.000,0.000,0.000:  // measure 1
0000
0000
0000
0000
,  // measure 2
0000
0000
0000
0000
,  // measure 3
0001
0010
0100
0001
0100
0010
0001
0100
,  // measure 4
1000
0100
0010
1000
0001
0000
1000
0000
,  // measure 5
0100
0010
1000
0100
0001
0100
0010
0001
,  // measure 6
0100
0001
0010
0100
1000
0000
0001
0000
,  // measure 7
0010
0100
1000
0010
0100
0001
1000
0100
,  // measure 8
0010
0001
0100
0010
1000
0000
0001
0000
,  // measure 9
0100
0010
0100
1000
0001
0010
0100
1000
,  // measure 10
0001
0100
0010
1000
0100
0010
0011
0000
,  // measure 11
0001
0100
0010
1000
0100
0001
0100
1000
,  // measure 12
0010
0100
0001
0010
0100
0000
1000
0000
,  // measure 13
0010
0100
0001
0010
0100
1000
0010
0000
,  // measure 14
0100
0001
0100
1000
0001
0010
0100
0000
,  // measure 15
1000
0010
1000
0100
0001
0100
0010
0001
,  // measure 16
0100
0010
1000
0100
1000
0000
0001
0000
,  // measure 17
0010
0100
1000
0010
0001
0010
0100
0001
,  // measure 18
1000
0100
0010
0001
0100
0010
1010
0000
,  // measure 19
2002
0000
3003
0110
,  // measure 20
2200
0000
3300
0110
,  // measure 21
2002
0000
3003
0101
,  // measure 22
0100
0010
1000
0001
0220
0000
0330
0000
,  // measure 23
1000
0100
0010
0001
0100
1000
0100
0001
,  // measure 24
1000
0010
0100
1000
0100
0001
1000
0000
,  // measure 25
0010
0100
0001
0100
0010
1000
0100
1000
,  // measure 26
0001
0100
1000
0100
0001
0010
0100
0000
,  // measure 27
1000
0010
0001
0010
1000
0100
0010
0001
,  // measure 28
0100
1000
0100
0010
1000
0001
0010
0000
,  // measure 29
0100
0001
0100
0010
0001
1000
0100
1000
,  // measure 30
0010
0100
0001
0010
0100
1000
0010
0000
,  // measure 31
1000
0100
1000
0001
0100
0010
0001
0010
,  // measure 32
1000
0100
0001
0100
0010
0001
1000
0000
,  // measure 33
0100
0010
0001
0100
0010
1000
0100
1000
,  // measure 34
0001
0100
1000
0100
0001
0010
0110
0000
,  // measure 35
1000
0010
0100
0001
0010
1000
0010
0100
,  // measure 36
1000
0100
0001
1000
0100
0010
0001
0000
,  // measure 37
0010
0100
1000
0001
0100
0010
0001
0010
,  // measure 38
1000
0100
0001
0100
1000
0010
0100
0000
,  // measure 39
0010
0001
0100
1000
0100
0010
1000
0001
,  // measure 40
0010
0100
0001
0100
0010
0001
1000
0000
,  // measure 41
0010
0100
0001
1000
0100
0001
0100
0010
,  // measure 42
1000
0010
0001
0100
1000
0100
0010
1000
,  // measure 43
2002
0000
3003
0110
,  // measure 44
2200
0000
3300
1001
,  // measure 45
0202
0000
0303
0110
,  // measure 46
2020
0000
3030
0000
,  // measure 47
0202
0000
0303
0110
,  // measure 48
2200
0000
3300
1001
,  // measure 49
0202
0000
0303
1001
,  // measure 50
0101
0110
1010
1100
,  // measure 51
0100
0010
0001
0100
1000
0100
0010
1000
,  // measure 52
0001
0010
0100
1000
0010
0100
0001
0000
,  // measure 53
0100
0010
1000
0100
1000
0001
0010
0100
,  // measure 54
1000
0100
0010
0001
0100
0010
1000
0000
,  // measure 55
0001
0101
0000
1000
1100
0000
0001
0202
,  // measure 56
0000
0303
0000
0000
0000
0000
0000
0000
,  // measure 57
1000
1001
0000
0010
0110
0000
0001
1001
,  // measure 58
2002
0000
0000
3003
,  // measure 59
0100
0010
1000
0100
1000
0001
0100
0010
,  // measure 60
1000
1100
0000
0001
0101
0000
1000
1100
,  // measure 61
0100
0010
0001
0010
0100
1000
0010
0000
,  // measure 62
0100
0001
0100
0010
1000
0100
1000
0000
,  // measure 63
0001
0100
0001
0010
0100
1000
0010
0100
,  // measure 64
0001
1001
0000
1000
1100
0000
0100
0110
,  // measure 65
0010
0001
0100
0010
1000
0100
1000
0000
,  // measure 66
0010
0100
0001
0010
1000
0010
0001
0000
,  // measure 67
0100
0010
1000
0100
1000
0001
0100
0010
,  // measure 68
1000
1100
0000
0100
0110
0000
0010
0011
,  // measure 69
0001
0100
0010
1000
0100
0001
0100
0000
,  // measure 70
0010
1000
0010
0001
0100
0010
1000
0000
,  // measure 71
0001
0001
0010
0100
1000
0010
0100
0001
,  // measure 72
1000
1010
0000
0010
0110
0000
0100
0101
,  // measure 73
0001
1000
0100
0010
0001
0010
0100
0000
,  // measure 74
1000
0100
0001
0100
1000
0010
0010
0000
,  // measure 75
0101
0000
0000
1001
0000
0000
1100
0000
,  // measure 76
0000
0110
0000
0000
0010
0001
0010
0001
,  // measure 77
0101
0000
0000
0110
0000
0000
1010
0000
,  // measure 78
0000
1100
0000
0000
1000
0001
1000
0001
,  // measure 79
0101
0000
0000
0110
0000
0000
1010
0000
,  // measure 80
0000
1100
0000
0000
0100
0010
0100
0010
,  // measure 81
0011
0000
0000
0101
0000
0000
0110
0000
,  // measure 82
0000
1100
0000
0000
1000
0001
1000
0001
,  // measure 83
0201
0320
2030
3200
,  // measure 84
0320
0032
0203
0320
,  // measure 85
2030
3002
0023
0230
,  // measure 86
1300
0100
0001
0100
1000
0010
0100
0001
,  // measure 87
0010
1000
0010
0001
0100
0010
1000
0000
,  // measure 88
0001
0100
0010
1000
0100
1000
0001
0100
,  // measure 89
0010
1000
0100
0001
0100
1000
0010
0000
,  // measure 90
0100
0001
0001
1000
0100
1000
0010
0100
,  // measure 91
0001
0010
0100
1000
0001
0100
0010
0000
,  // measure 92
1000
0100
0010
0001
0001
0010
0100
1000
,  // measure 93
1000
0100
0010
0001
0001
0010
0100
1000
,  // measure 94
1001
0001
0100
0010
1000
0100
0010
0001
,  // measure 95
0101
0100
0010
1000
0100
0010
0001
1000
,  // measure 96
1010
0010
0100
0001
0010
0100
1000
0001
,  // measure 97
0101
0100
0010
1000
0100
0010
0001
0100
,  // measure 98
0110
0010
1000
0100
0001
0100
0010
0001
,  // measure 99
0100
0010
1000
0100
1000
0001
0100
0000
,  // measure 100
0010
1000
0100
0001
0100
0010
0001
0100
,  // measure 101
0010
1000
0100
0001
0100
0010
1000
0010
,  // measure 102
2002
0000
0000
3003
,  // measure 103
0110
0000
0000
0000
1000
0001
1000
0001
,  // measure 104
1001
1000
0100
0010
0001
0100
1000
0100
,  // measure 105
0010
1000
0001
0010
0100
0000
1000
0000
,  // measure 106
0100
0010
0001
1000
0010
1000
0100
0010
,  // measure 107
0001
0100
0010
1000
0100
0000
1000
0000
,  // measure 108
0001
0100
0010
0001
0010
1000
0100
0001
,  // measure 109
0100
1000
0010
0100
0001
0000
1000
0000
,  // measure 110
0010
0100
0001
1000
0100
0010
0001
0100
,  // measure 111
0220
0330
0000
0000
1000
0000
0001
0000
1000
0000
0001
0000
1001
0000
1000
0000
,  // measure 112
0100
0010
0001
0100
1000
0100
0010
1000
,  // measure 113
0001
0010
0100
0000
1000
0000
0010
0100
,  // measure 114
0001
0010
1000
0010
0001
0100
0010
1000
,  // measure 115
0100
0010
0001
0000
0100
0000
0010
1000
,  // measure 116
0010
0100
0001
0010
0001
0100
0010
1000
,  // measure 117
0100
1000
0001
0000
0100
0000
0010
1000
,  // measure 118
0100
0001
0100
0010
0001
0100
0010
1000
,  // measure 119
0100
0010
0001
0100
0010
1000
2200
0000
,  // measure 120
0000
0000
0000
0000
3300
0000
0001
0101
,  // measure 121
0000
0100
0110
0000
0010
1010
0000
1000
,  // measure 122
1100
0000
0100
0110
0000
0010
0011
0000
,  // measure 123
0001
1001
0000
1000
1100
0000
0100
0202
,  // measure 124
0000
0303
0000
0000
;
