#TITLE:Christmas eve;
#SUBTITLE:Mery Christmas Everybody Steps;
#ARTIST:Trans-Siberian Orchestra;
#TITLETRANSLIT:;
#SUBTITLETRANSLIT:;
#ARTISTTRANSLIT:;
#CREDIT:;
#BANNER:christmas eve.png;
#BACKGROUND:christmas eve _BG.png;
#LYRICSPATH:;
#CDTITLE:fixx-title.png;
#MUSIC:Trans-Siberian Orchestra - Christmas Eve (Sarajevo 12-24).mp3;
#OFFSET:-0.140;
#SAMPLESTART:55.475;
#SAMPLELENGTH:12.000;
#SELECTABLE:YES;
#BPMS:0.000=164.020,0.500=82.020,33.000=79.140,36.000=69.920,36.500=58.100,37.000=61.920,37.500=52.740,38.000=46.360,38.500=24.540,40.000=186.401;
#STOPS:;
#BGCHANGES:;
// cache tags:
#FIRSTBEAT:0.500;
#LASTBEAT:534.000;
#SONGFILENAME:Songs/DDRExtreme.co.uk presents ChristmasMix/Christmas Eve/christmas eve.sm;
#HASMUSIC:1;
#HASBANNER:1;
#MUSICLENGTH:205.382;
// end cache tags

//---------------dance-single - Copied from----------------
#NOTES:
     dance-single:
     Copied from:
     Challenge:
     10:
     0.942,1.000,1.000,1.000,0.000,759.000,368.000,227.000,0.000,74.000:
0000
1000
0100
0010
0001
1000
0100
0010
,
0001
1000
0100
0010
0001
1000
0100
0010
,
0001
1010
0101
1010
0110
1001
0110
0101
,
1010
0110
1001
0110
1001
0011
1002
0010
,
0100
0010
1000
0010
0103
0010
2000
0010
,
0001
0010
3200
0010
1000
0010
1301
0110
,
0011
1100
1100
0011
0110
1100
1010
0201
,
0001
0310
0100
1000
0100
1001
1001
0110
,
1010
0011
0101
1010
0101
1010
0200
0001
,
0010
0001
1000
0001
0010
2300
0000
0000
,
3110
0000
0002
0010
0100
1003
0110
0000
,
2000
0100
0010
3001
0110
0000
0002
0010
,
0100
1003
0110
0000
2000
0100
0010
3001
,
0110
0000
0002
0010
0100
1003
0110
0000
,
2000
0100
0010
3001
0110
0000
0002
0010
,
0100
1003
0110
0000
0000
0000
2020
3030
,
0202
0313
0001
1000
0220
0330
2002
3013
,
0100
1000
0022
0033
2200
3301
0010
0100
,
2200
3300
0202
0313
0001
0010
0100
0000
,
2002
3003
2000
0010
0100
3010
1001
0000
,
0002
0100
1000
0013
1001
0000
2000
0010
,
0001
3100
1001
0000
0000
0000
0022
0033
,
0202
0313
0100
1000
0022
0033
0220
0331
,
0001
0001
2200
3300
0202
1300
0103
0010
,
2020
3030
2200
3310
0100
1000
0100
0000
,
1001
0000
2000
0100
0001
3010
0101
0000
,
0020
0001
0100
1030
0101
0000
2000
0100
,
0001
3010
0101
0000
0020
0001
0100
1030
,
1001
0000
0101
0010
0101
0000
1001
0000
,
0110
0010
0110
0000
1001
0000
1010
0100
,
1010
0000
1001
0000
0011
0001
0011
0000
,
1001
0000
0110
0100
1100
0000
1001
0000
,
0011
0010
0110
0000
1001
0000
1001
0001
,
1001
0000
1001
0000
1001
1000
1001
0000
,
1001
0000
1010
0100
1001
0100
1010
0000
,
0101
0010
1001
0010
0101
0000
1001
0100
,
1001
0010
1001
0000
0110
0110
0110
0000
,
1000
0101
0010
1001
0010
0101
1000
0010
,
0020
0030
0101
0000
0001
1010
0100
1001
,
0100
1010
0001
0010
0020
0030
0101
0000
,
1000
0101
0010
1001
0010
0101
1000
0001
,
1010
0100
1001
0100
1010
0001
1000
0101
,
0010
1001
0010
0101
1000
0001
1010
0100
,
2002
0000
3223
0330
2200
3300
0202
0303
,
2020
3030
0220
0330
2020
3030
0202
0303
,
2020
3030
0202
0303
0220
0330
2002
3003
,
0220
0330
2002
3003
2200
3300
0022
0033
,
2200
3300
2020
3030
2002
3003
2200
3300
,
2020
3030
0202
0303
0022
0033
0202
0303
,
2020
3030
2200
3300
2020
3030
2002
3003
,
2020
3030
2200
3300
0220
0330
0022
0033
,
0202
0303
2002
3003
0202
0303
0022
0033
,
0202
0303
2020
3030
0202
0303
0220
0330
,
2002
3003
0220
0330
0022
0033
2200
3300
,
0220
0330
2002
3003
0022
0033
0220
0330
,
0022
0030
0000
0000
0000
0000
1000
0000
,
1000
0100
1000
0000
0100
0000
1000
0010
,
1000
0000
0010
0000
0100
1000
0100
0000
,
1000
0000
1000
0100
0010
0000
0100
0000
,
0010
0100
1000
0000
0100
0000
1000
0100
,
1000
0000
0100
0000
0010
0100
0010
0000
,
1000
0000
0100
0010
0100
0000
1000
0000
,
1000
1000
1000
0000
0100
0000
0100
0100
,
0100
0000
0010
0000
0010
0010
0010
0000
,
1100
0000
0010
0100
1000
0000
1100
0000
,
1000
0100
0010
0000
1100
0000
0010
0100
,
1000
0000
1100
0000
1000
0100
1000
0000
,
1100
0000
0100
0010
1000
0000
1100
0000
,
1000
0100
1100
0000
1100
0000
1000
0100
,
1100
0000
1100
0000
0010
0100
1200
0000
,
1000
0000
1303
1000
1000
0000
0102
0000
,
1000
0100
0013
0000
2010
0000
0100
0010
,
3001
0000
0210
0000
1000
0001
1300
0000
,
2001
0000
0100
0010
3100
0000
0201
0000
,
0010
1000
0301
0000
1020
0000
1000
0001
,
1030
0000
0021
0000
1000
0100
1030
0000
,
1002
0000
1000
0100
1000
0103
2001
0000
,
0001
0010
0001
3010
2001
0000
0100
0010
,
0100
3010
0102
0000
1100
0000
1100
0003
,
1020
0000
0100
0001
0100
0031
1020
0000
,
0100
1000
0100
1030
0012
0000
0010
0010
,
0010
0013
2100
0000
0101
0000
0101
0000
,
3012
0000
1000
1000
1000
1000
1023
0000
,
0001
0001
0001
0001
0231
0000
0010
0010
,
0010
0010
2310
0000
0100
0100
0100
0100
,
3102
0000
1000
0100
0010
0100
2013
0000
,
0100
0010
0001
0010
3102
0000
0010
0100
,
1000
0100
0023
0000
0001
0100
1000
0100
,
2031
0000
0001
0100
3001
0000
0102
0000
,
1000
0010
1003
0000
0201
0000
0010
0001
,
0310
0000
2100
0000
0001
0010
3100
0000
,
1020
0000
0100
1000
0130
0000
0012
0000
,
1000
0100
0013
0000
2100
0000
0001
0100
,
3001
0000
1020
0000
0100
0001
1030
0000
,
1001
0000
1100
0110
1001
0110
1100
0000
,
1100
0101
1010
0101
1100
0000
0101
1010
,
0101
0011
0101
0000
0101
0101
0101
0000
,
1001
0100
1010
0100
1001
0100
1010
0100
,
2000
3000
1000
0000
1001
0010
0101
0010
,
1001
0010
0101
0010
0002
0003
0001
0000
,
1001
0000
1000
0100
0010
0000
1001
0000
,
1100
0110
0011
0000
1001
0000
1000
0001
,
0010
0000
1001
0000
1010
0101
1010
0000
,
1001
0000
0011
0110
1100
0000
1001
0000
,
0110
0011
1100
0000
1001
0000
0110
1100
,
0011
0000
1001
0000
1010
0101
1100
0000
,
1001
0000
1001
1001
0101
0011
0011
0000
,
0011
0011
0101
1001
1001
0000
1001
1001
,
1010
1100
1100
0000
1100
1010
1100
0000
,
0110
0001
1100
0001
0110
0001
1100
0001
,
0200
0300
0001
0000
0110
1000
0011
1000
,
0110
1000
0011
1000
0020
0030
0010
0000
,
0110
0001
0101
0001
1010
1000
0101
1001
,
0010
0101
0010
1001
0010
0101
0010
1000
,
0100
1010
0100
1001
0100
1010
0100
1001
,
1002
0000
1200
1300
1103
0000
2001
0000
,
0201
0301
3101
0000
1002
0000
1200
1300
,
1103
0000
2001
0000
0201
0301
3101
0000
,
1002
0000
1200
1300
1103
0000
2001
0000
,
0201
0301
3101
0000
1002
0000
1200
1300
,
1103
0000
2001
0000
0201
0301
3101
0000
,
1002
0000
1200
1300
1103
0000
2001
0000
,
0201
0301
3101
0000
1002
0000
1200
1300
,
1103
0000
2001
0000
0201
0301
3101
0000
,
1001
0000
1001
1010
0101
1010
1001
0000
,
1001
0101
1010
0101
1001
0000
1001
1010
,
0101
1010
1001
0000
1001
0101
1010
0101
,
2002
0000
3003
2002
,
0000
3003
2002
0000
,
3003
2002
0000
3003
,
2202
0000
0000
0000
,
0000
0000
0000
0000
,
0000
0000
0000
0000
0000
0000
0000
3003
,
2002
0000
3303
0000
;

//---------------dance-single - ----------------
#NOTES:
     dance-single:
     :
     Hard:
     9:
     0.635,0.715,0.570,0.613,0.000,670.000,117.000,126.000,0.000,0.000:
0000
0200
0300
0002
0003
0200
0300
0002
,
0003
0200
0300
0002
0003
0200
0300
0002
,
0003
1000
0100
0010
0100
1000
0001
0100
,
0010
0100
1000
0100
0010
0001
0020
0000
,
0000
0002
0033
0200
0300
0002
0003
0200
,
0300
0002
0003
0200
0300
0010
1000
0100
,
0010
0001
0010
0001
0010
0100
2000
0100
,
0010
0001
3010
0100
0100
1001
1001
0100
,
0010
0001
0010
0100
1000
0100
0020
0100
,
1000
0000
0100
0000
1000
0000
0100
0000
1030
0000
0200
0000
0000
0000
0000
0300
,
1001
0000
0000
0010
0100
1000
1001
0000
,
1000
0100
0010
0001
1001
0000
0001
0010
,
0100
1000
1001
0000
1000
0100
0010
0001
,
1001
0000
0001
0010
0100
1000
1001
0000
,
1000
0100
0010
0001
1001
0000
0001
0010
,
0100
1000
1001
0000
0000
0000
2020
3030
,
0202
0303
0000
0000
0220
0330
2002
3003
,
0000
0000
0022
0033
2200
3300
0000
0000
,
2200
3300
0202
0303
0000
0000
0000
0000
,
2002
3003
0100
0010
0100
0010
1001
0000
,
0100
0010
0100
0010
1001
0000
0010
0100
,
0010
0100
1001
0000
0000
0000
0022
0033
,
0202
0303
0000
0000
0022
0033
0220
0330
,
0000
0000
2200
3300
0202
0300
0003
0000
,
2020
3030
2200
3300
0000
0000
0000
0000
,
1001
0000
0100
0001
0100
0001
0101
0000
,
1000
0010
1000
0010
0101
0000
1000
0100
,
0010
0001
0101
0000
0001
0010
0100
1000
,
1001
0000
0001
0010
0100
0000
1001
0000
,
0100
0010
0100
0000
1001
0000
0010
0100
,
1000
0000
1001
0000
0010
0001
0010
0000
,
1001
0000
0010
0100
0001
0000
1001
0000
,
0010
0010
0010
0000
1001
0000
1000
0001
,
1000
0000
1001
0000
0001
1000
0001
0000
,
1001
0000
0010
0100
0001
0100
1010
0000
,
0001
0010
0001
0010
0101
0000
0001
0100
,
1000
0010
1001
0000
0100
0100
0100
0000
,
1000
0100
0010
0001
0010
0100
1000
0010
,
0020
0030
0101
0000
0001
0010
0100
1000
,
0100
0010
0001
0010
0020
0030
0101
0000
,
1000
0100
0010
0001
0010
0100
1010
0001
,
0010
0100
1000
0100
1010
0001
1000
0100
,
0010
0001
1010
0100
1000
0001
1000
0100
,
2000
3000
0200
0300
0020
0030
0002
0003
,
0020
0030
0200
0300
2000
3000
0200
0300
,
0020
0030
0002
0003
0020
0030
0200
0300
,
1100
0000
0110
0000
0022
0033
0011
0000
,
0110
0000
2200
3300
1100
0000
0110
0000
,
0022
0033
0011
0000
0110
0000
1100
0000
,
2000
3000
0200
0300
0020
0030
0002
0003
,
0020
0030
2000
3000
0200
0300
0002
0003
,
0020
0030
2000
3000
0200
0300
0011
0000
,
0110
0000
1100
0000
0220
0330
0011
0000
,
0110
0000
2200
3300
0110
0000
0011
0000
,
0022
0033
0110
0000
1100
0000
0220
0330
,
0012
0000
0000
0000
,
0000
0000
0000
0000
,
0000
0000
0000
1000
,
1000
0000
0100
0100
,
0000
0010
0010
0000
,
0100
0100
0000
1000
,
1000
0000
0100
0100
,
0000
1000
1000
0000
,
0100
0100
0000
0010
,
0020
0030
0100
0200
,
0300
1000
2000
3000
,
0100
0200
0300
0010
,
0020
0030
0100
0200
,
0300
1000
2000
3000
,
0100
0200
0300
0010
,
0020
0033
0000
0100
,
1000
0100
1000
0000
0010
0000
0001
0010
,
0001
0000
0010
0000
0100
0010
0100
0000
,
0001
0000
0100
0010
0100
0000
0001
0000
,
0010
1000
0001
0000
1000
0000
0100
0001
,
1000
0000
0001
0000
1000
0100
1000
0000
,
0010
0000
1000
0100
1000
0100
1001
0000
,
0001
0010
0001
0010
1001
0000
0100
0010
,
0100
0010
0110
0000
2000
3000
0200
0300
,
1000
0000
0100
0001
0100
0001
1001
0000
,
0100
1000
0100
1000
0110
0000
0010
0010
,
0010
0010
0100
0000
0011
0000
0011
0000
,
0001
0000
1000
1000
1000
1000
1000
0000
,
0001
0001
0001
0001
0001
0000
0010
0010
,
0010
0010
0010
0000
0100
0100
0100
0100
,
0100
0000
1000
0100
0010
0100
1000
0000
,
0100
0010
0001
0010
0001
0000
0010
0100
,
1000
0100
0010
0000
0001
0100
1000
0100
,
1000
0000
0001
0100
0001
0000
0100
0000
,
1000
0010
1000
0000
0100
0000
0010
0001
,
0010
0000
0100
0000
0001
0010
0100
0000
,
0010
0000
0100
1000
0100
0000
0010
0000
,
1000
0100
0010
0000
0100
0000
0001
0100
,
0001
0000
1000
0000
0100
0001
1000
0000
,
1001
0000
1000
0100
0010
0001
0010
0000
,
0001
0010
0100
1000
0100
0000
1000
0100
,
0010
0001
0010
0000
0001
0010
0100
0000
,
1000
0100
1000
0100
1000
0100
1000
0100
,
2000
3000
1000
0000
0001
0010
0001
0010
,
0001
0010
0001
0010
0002
0003
0001
0000
,
0100
0000
1000
0100
0010
0000
1001
0000
,
1000
0100
0010
0000
0001
0000
1000
0001
,
0010
0000
1001
0000
0010
0100
0010
0000
,
1001
0000
0010
0100
1000
0000
1001
0000
,
0010
0001
0100
0000
0001
0000
0100
1000
,
0010
0000
1001
0000
1000
0100
0010
0000
,
0001
0000
1000
1000
0100
0010
0010
0000
,
0010
0010
0100
1000
1001
0000
0001
0001
,
0010
0100
0100
0000
1000
0010
1000
0000
,
0010
0001
0100
0001
0100
0001
0100
0001
,
0200
0300
0001
0000
0100
1000
0010
1000
,
0100
1000
0010
1000
0020
0030
0010
0000
,
0010
0001
0100
0001
0010
1000
0100
0001
,
0010
0100
0010
0001
0010
0100
0010
1000
,
0100
1000
0100
1000
0100
1000
0100
1000
,
1000
0000
1200
1300
1100
0000
0001
0000
,
0210
0310
0110
0000
1000
0000
1002
1003
,
1001
0000
0001
0000
0021
0031
0011
0000
,
1000
0000
1020
1030
1010
0000
0001
0000
,
1200
1300
1100
0000
1000
0000
0012
0013
,
0011
0000
0001
0000
0201
0301
0101
0000
,
1000
0000
0210
0310
0110
0000
0001
0000
,
0201
0301
0101
0000
1000
0000
1200
1300
,
1100
0000
0001
0000
0201
0301
0101
0000
,
1001
0000
0001
0010
0100
0010
0001
0000
,
1000
0100
0010
0100
1000
0000
0001
0010
,
0100
0010
0001
0000
1000
0100
0010
0100
,
2000
0000
3000
0002
,
0000
0003
2000
0000
,
3000
0002
0000
0003
,
2002
0000
0000
0000
,
0000
0000
0000
0000
,
0000
0000
0000
0000
0000
0000
0000
3000
,
2000
0000
3003
0000
;

//---------------dance-single - ----------------
#NOTES:
     dance-single:
     :
     Medium:
     7:
     0.497,0.748,0.292,0.550,0.000,542.000,60.000,113.000,0.000,0.000:
0000
0002
0000
0000
0003
0200
0000
0000
,
0300
0002
0000
0000
0003
0200
0000
0000
,
0300
0001
0000
0010
0000
0001
0000
0100
,
0000
0010
0000
0100
0000
0001
0000
0000
,
0000
0002
0000
0000
0003
0200
0000
0000
,
0300
0002
0000
0000
0003
0010
0000
0100
,
0000
1000
0000
0100
0000
1000
0000
0010
,
0000
0001
0000
0010
0000
0001
0001
0100
,
0000
0001
0000
0010
0000
1000
0000
0100
,
0000
0000
1000
0000
0000
0000
0100
0000
0000
0000
0200
0000
0000
0000
0000
0300
,
1001
0000
0000
0010
0100
1000
0100
0000
,
1000
0100
0010
0001
0010
0000
0001
0010
,
0100
1000
0100
0000
1000
0100
0010
0001
,
0010
0000
0001
0010
0100
1000
0100
0000
,
1000
0100
0010
0001
0010
0000
0001
0010
,
0100
1000
0100
0000
0000
0000
2000
3000
,
0200
0300
0000
0000
0020
0030
0002
0003
,
0000
0000
0020
0030
0200
0300
0000
0000
,
0200
0300
0002
0003
0000
0000
0000
0000
,
2002
3003
0100
0010
0100
0010
0001
0000
,
0100
0010
0100
0010
1000
0000
0010
0100
,
0010
0100
0001
0000
0000
0000
0020
0030
,
0200
0300
0000
0000
0002
0003
0200
0300
,
0000
0000
2000
3000
0002
0003
0000
0000
,
0020
0030
0200
0300
0000
0000
0000
0000
,
1001
0000
0100
0001
0100
0001
0100
0000
,
1000
0010
1000
0010
1000
0000
0010
0001
,
0010
0001
0010
0000
1000
0100
1000
0100
,
1000
0000
0001
0010
0100
0000
1000
0000
,
0100
0010
0100
0000
0001
0000
0010
0100
,
1000
0000
0001
0000
0010
0001
0010
0000
,
1000
0000
0010
0100
1000
0000
0001
0000
,
0010
0100
0010
0000
0001
0000
1000
0001
,
1000
0000
1000
0000
0001
1000
0001
0000
,
1001
0010
0001
1001
,
0001
0010
1001
0001
,
1000
1001
0020
0030
,
1000
0010
0100
0001
,
0020
0030
0101
0000
0001
0000
1000
0000
,
0100
0000
0001
0000
0020
0030
0101
0000
,
1000
0010
0001
1010
,
0010
1000
1010
1000
,
0010
1010
0001
1000
,
1000
0100
0010
0001
,
0010
0100
1000
0100
,
0010
0001
0010
0200
,
2300
3000
0200
0300
0022
0033
0020
0030
,
0200
0300
2200
3300
0200
0300
0020
0030
,
0022
0033
0020
0030
0200
0300
0020
0030
,
0200
0300
1000
0000
0100
0000
0010
0000
,
0001
1000
0100
0010
,
0100
0010
0001
0020
,
0230
0300
2000
3000
0220
0330
0002
0003
,
0020
0030
2200
3300
0020
0030
0022
0033
,
0020
0030
0200
0300
2000
3000
0220
0330
,
0012
0000
0000
0000
,
0000
0000
0000
0000
,
0000
0000
0000
2000
,
3000
0000
0200
0300
,
0000
0020
0030
0000
,
0200
0300
0000
2000
,
3000
0000
0200
0300
,
0000
2000
3000
0000
,
0200
0300
0000
0020
,
0000
0030
0200
0000
,
0300
2000
0000
3000
,
0200
0000
0300
0020
,
0000
0030
0200
0000
,
0300
2000
0000
3000
,
0200
0000
0300
0020
,
0000
0033
0000
0100
,
1000
0100
0010
0000
0010
0000
1000
0100
,
1000
0000
0010
0000
0001
0010
0001
0000
,
0001
0000
1000
0010
1000
0000
0001
0000
,
0010
1000
0010
0000
1000
0000
0100
0001
,
0100
0000
0001
0000
1000
0100
1000
0000
,
0010
0000
1000
0100
1000
0100
1000
0000
,
0001
0010
0001
0010
0001
0000
0100
0010
,
0100
0010
0100
0000
2000
3000
0200
0300
,
1000
0000
0100
0001
0100
0001
0100
0000
,
0100
1000
0100
1000
0100
0000
1000
0100
,
0010
0001
0100
0000
0020
0030
0200
0300
,
0001
0000
1000
0100
0010
0001
0010
0000
,
0001
0010
0100
1000
0100
0000
0001
0010
,
0100
1000
0100
0000
0001
0010
0100
1000
,
0100
0000
1000
0100
0010
0100
1000
0000
,
0100
0010
0001
0010
0001
0000
0010
0100
,
1000
0100
0010
0000
0001
0100
1000
0100
,
1000
0000
0001
0100
0001
0000
0100
0000
,
1000
0010
1000
0000
0100
0000
0010
0001
,
0010
0000
0100
0000
0001
0010
0100
0000
,
0010
0000
0100
1000
0100
0000
0010
0000
,
1000
0100
0010
0000
0100
0000
0001
0100
,
0001
0000
1000
0000
0100
0010
0100
0000
,
1001
1000
0010
1001
,
0001
0100
1001
0100
,
0010
1001
0001
0100
,
0001
0001
0001
0001
,
0002
0003
0001
0000
1000
0000
1000
0000
,
1000
0000
1000
0000
2000
3000
1000
0000
,
0010
0000
0001
0010
0100
0000
0020
0030
,
0001
0010
0100
0000
1000
0000
0001
0010
,
0001
0000
2000
3000
0100
0010
0100
0000
,
0002
0003
0100
0010
0001
0000
0020
0030
,
0100
1000
0100
0000
2000
3000
0100
1000
,
0100
0000
2000
3000
0001
0010
0100
0000
,
1001
0001
0010
1001
,
0100
0010
1001
1000
,
0100
1001
0001
0001
,
1001
0010
0010
0010
,
0020
0030
1000
0000
1001
0000
0100
0000
,
0010
0000
0100
0000
0200
0300
0100
0000
,
1001
0010
0100
1001
,
0100
0100
1001
0100
,
0010
1001
0010
0010
,
1001
0000
1200
0300
1100
0000
0001
0000
,
0210
0300
0110
0000
1000
0000
1002
0003
,
1001
0000
0001
0000
2001
3000
1001
0000
,
0100
0000
0120
0030
0110
0000
0001
0000
,
0201
0300
0101
0000
1000
0000
1002
0003
,
1001
0000
0001
0000
1200
0300
1100
0000
,
1000
0000
0210
0300
0110
0000
0001
0000
,
0201
0300
0101
0000
1000
0000
1200
0300
,
1100
0000
0001
0000
0201
0300
0101
0000
,
1001
0000
0001
0010
0100
0010
0001
0000
,
1000
0100
0010
0100
1000
0000
0001
0010
,
0100
0010
0001
0000
1000
0100
0010
0100
,
2000
0000
3000
0002
,
0000
0003
2000
0000
,
3000
0002
0000
0003
,
2000
0000
0000
0000
,
0000
0000
0000
0000
,
0000
0000
0000
0000
0000
0000
0000
3000
,
2000
0000
3000
0000
;

//---------------dance-single - ----------------
#NOTES:
     dance-single:
     :
     Easy:
     6:
     0.376,0.423,0.019,0.725,0.000,387.000,4.000,149.000,0.000,0.000:
0000
0020
0000
0000
0000
0000
0000
0000
,
0030
2000
0000
0000
0000
0000
0000
3000
,
0000
1000
0000
0000
0000
0100
0000
0000
,
0000
0001
0000
0000
0000
0010
0000
0000
,
0000
0020
0000
0000
0000
0000
0000
0000
,
0030
0000
0000
0000
0000
0100
0000
0000
,
0000
0010
0000
0000
0000
0001
0000
0000
,
0000
0010
0000
0000
0000
1000
0000
0000
,
0000
0100
0000
0000
0000
0010
0000
0000
,
0000
0000
0001
0000
0000
0000
0000
0000
0000
0000
0020
0000
0000
0000
0000
0030
,
1000
0000
0000
0000
0010
0000
0020
0030
,
0001
0000
0100
0000
0200
0300
1000
0000
,
0010
0000
0020
0030
0001
0000
0100
0000
,
0200
0300
1000
0000
0010
0000
0020
0030
,
0001
0000
0100
0000
0200
0300
1000
0000
,
0010
0000
0020
0030
0000
0000
0020
0000
,
0000
0030
0000
0000
2000
0000
0000
3000
,
0000
0000
0020
0000
0000
0030
0000
0000
,
2000
0000
0000
3000
0000
0000
0000
0000
,
0002
0003
0010
0000
0010
0000
2000
3000
,
0010
0000
0010
0000
0002
0003
0100
0000
,
0100
0000
2000
3000
0000
0000
0020
0000
,
0000
0030
0000
0000
0020
0000
0000
0030
,
0000
0000
2000
0000
0000
3000
0000
0000
,
0020
0000
0000
0030
0000
0000
0000
0000
,
1001
0000
0010
0000
0010
0000
0020
0030
,
0001
0000
0001
0000
0002
0003
0100
0000
,
0100
0000
0200
0300
0001
0000
0001
0000
,
0002
0003
0010
0000
0000
0000
2000
0000
,
3001
0000
0000
0000
0200
0300
1000
0000
,
0000
0000
0020
0030
0100
0000
0000
0000
,
2000
3000
0100
0000
0000
0000
0020
0030
,
0001
0000
0000
0000
0200
0300
1000
0000
,
0000
0000
0020
0030
0001
0000
0000
0000
,
0002
0003
0010
0000
0000
0000
2000
3000
,
1000
0000
0000
0000
0020
0030
0100
0000
,
0000
0020
0000
0030
,
0001
0100
0010
1000
,
0200
0300
0010
0000
1000
0000
0001
0000
,
0010
0000
1000
0000
0200
0300
0010
0000
,
0001
0100
1000
0001
,
0100
1000
0001
0100
,
1000
0001
0100
1000
,
0001
0010
0100
1000
,
0100
0010
0001
0010
,
0100
1000
0100
0010
,
0001
0010
0100
0100
,
0010
0001
0010
0100
,
1000
0100
0010
0100
,
0010
0001
0010
0100
,
1000
0001
0010
0100
,
0010
0100
1000
0100
,
0010
0001
0010
1000
,
0100
0010
0100
1000
,
0100
0010
0001
0010
,
2002
0000
0003
0020
,
0000
0030
0200
0000
,
0300
0020
0000
0030
,
0002
0000
0003
0020
,
0000
0030
0200
0000
,
0300
0020
0000
0030
,
0002
0000
0003
0020
,
0000
0030
0200
0000
,
0300
0020
0000
0030
,
0002
0000
0003
0020
,
0000
0030
0200
0000
,
0300
0020
0000
0030
,
0002
0000
0003
0020
,
0000
0030
0200
0000
,
0300
0020
0000
0030
,
0002
0000
3003
0000
0000
0000
0020
0030
,
0001
0000
0000
0000
0200
0300
1000
0000
,
0000
0000
0020
0030
1000
0000
0000
0000
,
2000
3000
0010
0000
0000
0000
0020
0030
,
1000
0000
0000
0000
0002
0003
0100
0000
,
0000
0000
2000
3000
0010
0000
0000
0000
,
0200
0300
0001
0000
0001
0000
0002
0003
,
1000
1000
2000
3010
,
0010
0000
0020
0030
0200
0000
0000
0300
,
0002
0003
0010
0000
0100
0000
0020
0030
,
0100
0000
0001
0000
0020
0030
0001
0000
,
0100
0000
0020
0030
0200
0000
0000
0300
,
2000
3000
0001
0000
0100
0000
0020
0030
,
1000
0000
0010
0000
0200
0300
1000
0000
,
0010
0000
0200
0300
1000
0000
0010
0000
,
0200
0300
0001
0000
0100
0000
0002
0003
,
1000
0000
1000
0000
2000
3000
0100
0000
,
0001
0000
0200
0300
1000
0000
0010
0000
,
0002
0003
0010
0000
0000
0000
0020
0030
,
0001
0000
0000
0000
2000
3000
0100
0000
,
0000
0000
0200
0300
1000
0000
0000
0000
,
0200
0300
0010
0000
0000
0000
0200
0300
,
0001
0000
0000
0000
0002
0003
1000
0000
,
0000
0000
2000
3000
0010
0000
0000
0000
,
2000
3000
0001
0000
0100
0000
0002
0003
,
1000
0000
0010
0000
2000
3000
0010
0000
,
0100
0000
0002
0003
1000
0000
0010
0000
,
1000
0100
0001
0010
,
2000
3000
0001
0010
,
0100
1000
0002
0003
,
0200
0300
1000
0000
0000
0000
0200
0300
,
2000
0000
3000
0000
0002
0003
0010
0000
,
0000
0000
0002
0003
0200
0000
0300
0000
,
2000
3000
0020
0000
0030
0000
0200
0300
,
0002
0000
0003
0000
0002
0003
0200
0000
,
0300
0000
0002
0003
2000
0000
3000
0000
,
0002
0003
1000
0000
0100
0000
2000
0000
,
3010
0000
0100
0000
0020
0030
0001
0000
,
0010
0000
0002
0003
1000
0000
1000
0000
,
2000
3100
0010
0100
,
0200
0300
1000
0000
0002
0000
0013
0000
,
0100
0000
0001
0000
0020
0030
0010
0000
,
2000
3000
0100
0000
0010
0000
0002
0003
,
0010
0000
0010
0000
2000
3000
0010
0000
,
0100
0000
0002
0003
0100
0000
0100
0000
,
1001
0000
0020
0030
0010
0000
1000
0000
,
0020
0030
0010
0000
0001
0000
2000
3000
,
1000
0000
1000
0000
0002
0003
0001
0000
,
0010
0000
0200
0300
0100
0000
1000
0000
,
0020
0030
0010
0000
0001
0000
2000
3000
,
1000
0000
1000
0000
0200
0300
0100
0000
,
0001
0000
0002
0003
0001
0000
1000
0000
,
2000
3000
1000
0000
0001
0000
0200
0300
,
0100
0000
1000
0000
0002
0003
0001
0000
,
1001
2000
0100
3010
,
0002
0010
0103
2000
,
0010
3001
2000
0010
,
3002
0000
0003
2000
,
0000
3000
0002
0000
,
0003
2000
0000
3000
,
0002
0000
0000
0000
,
0000
0000
0000
0000
,
0000
0000
0000
0000
0000
0000
0000
0003
,
2000
0000
3000
0000
;

//---------------dance-single - ----------------
#NOTES:
     dance-single:
     :
     Beginner:
     3:
     0.154,0.293,0.000,0.243,0.000,171.000,0.000,50.000,0.000,0.000:
0000
0002
0000
0000
0000
0000
0000
0000
,
0000
0000
0000
0000
,
0000
0200
0000
0000
0000
0000
0000
0000
,
0000
0000
0000
0000
,
0000
0303
0000
0000
0000
0000
0000
0000
,
0000
0000
0000
0000
0000
0020
0000
0000
,
0000
0000
0000
0000
0000
0000
0030
0200
,
0000
0000
0000
0000
0000
0302
0000
0000
,
0000
0000
0000
0000
0000
0000
0000
0203
,
0000
0000
0000
0000
,
0301
0000
0000
0100
,
0000
0000
0001
0000
,
0000
0100
0000
0000
,
1000
0000
0000
0100
,
0000
0000
0001
0000
,
0000
0100
0000
0000
,
0200
0000
0300
0002
,
0000
0003
0200
0000
,
0300
0002
0000
0003
,
1000
0000
0000
0001
,
0000
0000
1000
0000
,
0000
0001
0000
0000
,
0020
0000
0030
0200
,
0000
0300
0002
0000
,
0003
0200
0000
0300
,
0001
0000
0000
0100
,
0000
0000
1000
0000
,
0000
0010
0000
0000
,
1000
0000
0000
0001
,
0000
0000
0010
0000
,
0000
0100
0000
0000
,
0001
0000
0000
0100
,
0000
0000
0010
0000
,
0000
0100
0000
0000
,
1000
0000
0000
0001
,
0000
0000
0100
0000
,
0000
0100
0000
0000
,
2000
0000
0000
0000
,
0000
3000
0002
0000
,
0000
0000
0000
0003
,
1000
0002
0003
1000
,
0002
0003
1000
0002
,
0003
1000
0002
0003
,
1000
0000
0000
0010
,
0000
0000
1000
0000
,
0000
0010
0000
0000
,
1000
0000
0000
0100
,
0000
0000
0001
0000
,
0000
0010
0000
0000
,
0100
0000
0000
0001
,
0000
0000
0100
0000
,
0000
0010
0000
0000
,
0100
0000
0000
0010
,
0000
0000
0100
0000
,
0000
0001
0000
0000
,
0002
0000
0000
0000
,
0000
0000
0000
0000
,
0000
0000
0000
0000
,
0000
0000
0000
0000
,
0000
0000
0000
0000
,
0000
0000
0000
0000
,
0000
0000
0000
0000
,
0000
0000
0000
0000
,
0000
0000
0000
0000
,
0010
0000
0000
0100
,
0000
0000
1000
0000
,
0000
0100
0000
0000
,
0010
0000
0000
0100
,
0000
0000
1000
0000
,
0000
0100
0000
0000
,
0010
0003
0000
0100
,
0000
0000
0010
0000
,
0000
0100
0000
0000
,
0001
0000
0000
0100
,
0000
0000
1000
0000
,
0000
0001
0000
0000
,
0010
0000
0000
1000
,
0000
0000
0001
0000
,
0000
0100
0010
0000
,
1000
0000
0000
0100
,
0000
0000
0100
0000
,
0000
0100
0010
0000
,
0001
0000
0000
0100
,
0000
0000
0010
0000
,
0000
0001
0000
0000
,
0100
0000
0010
1000
,
0000
0000
0001
0000
,
0000
0010
0000
0000
,
1000
0000
0000
0100
,
0000
0000
0001
0000
,
0000
0010
0000
0000
,
0010
0000
0000
0010
,
0000
0000
1000
0000
,
0000
0001
0000
0000
,
0001
0000
0000
1000
,
0000
0000
0001
0000
,
0000
1000
0000
0000
,
2000
0000
0000
0000
,
0000
3000
0200
0000
,
0000
0000
0000
0300
,
0010
0000
0000
0002
,
0000
0003
1000
0000
,
0000
0020
0000
0030
,
0200
0000
0300
2000
,
0000
3000
0020
0000
,
0030
0002
0000
0003
,
1000
0000
0000
0001
,
0000
0000
0100
0000
,
0000
1000
0000
0000
,
0002
0000
0000
0000
,
0000
0003
2000
0000
,
0000
0000
0000
3000
,
0001
0000
0000
1000
,
0000
0000
0001
0000
,
0000
1000
0020
0030
,
1000
0200
0300
0001
,
0200
0300
1000
0002
,
0003
0001
2000
3000
,
0100
0020
0030
0001
,
0200
0300
1000
0002
,
0003
0001
0020
0030
,
1000
2000
3000
0001
,
0002
0003
1000
0020
,
0030
0001
2000
3000
,
0001
0000
0000
1000
,
0000
0000
0001
0000
,
0000
0010
0000
0000
,
2000
0000
3000
0002
,
0000
0003
2000
0000
,
3000
0002
0000
0003
,
2000
0000
0000
0000
,
0000
0000
0000
0000
,
0000
0000
0000
0000
0000
0000
0000
3000
,
0002
0000
0003
0000
;
