#TITLE:Pac-Man;
#SUBTITLE:(Ghost Mix);
#ARTIST:NAMCO remixed by Powerpill;
#TITLETRANSLIT:;
#SUBTITLETRANSLIT:;
#ARTISTTRANSLIT:;
#CREDIT:;
#BANNER:Pac-Man (Ghost Mix).png;
#BACKGROUND:Pac-Man (Ghost Mix)-bg.png;
#LYRICSPATH:;
#CDTITLE:Dj DMA Original Simfile.png;
#MUSIC:Pac-Man (Ghost Mix).mp3;
#OFFSET:0.160;
#SAMPLESTART:44.790;
#SAMPLELENGTH:12.000;
#SELECTABLE:YES;
#BPMS:0.000=133.920;
#STOPS:;
#BGCHANGES:;
// cache tags:
#FIRSTBEAT:9.000;
#LASTBEAT:212.500;
#SONGFILENAME:Songs/toune 2/Pac-Man (Ghost Mix)/Pac-Man (Ghost Mix).sm;
#HASMUSIC:1;
#HASBANNER:1;
#MUSICLENGTH:98.742;
// end cache tags

//---------------dance-single - ----------------
#NOTES:
     dance-single:
     :
     Easy:
     4:
     0.298,0.323,0.213,0.051,0.000,180.000,21.000,5.000,0.000,0.000:
0000
0000
0000
0000
,
0000
0000
0000
0000
,
0000
0000
0001
0000
,
1000
0000
0010
0000
,
0100
0000
0001
0000
,
0010
0000
1000
0000
,
0001
0000
0100
0000
,
0100
0000
0010
0000
,
0001
0000
1000
0000
,
0100
0000
0010
0000
,
0001
0000
1000
0000
,
0010
0000
0100
0000
,
0100
0001
1000
0010
,
0100
1000
0001
1000
,
0010
0100
0001
1000
,
0010
0100
0010
0001
,
1000
0010
0100
0010
,
0001
0011
0100
1000
,
0010
0110
1000
0010
,
0100
0101
1000
0100
,
0010
1010
0100
0010
,
0100
0011
0001
0100
,
1000
1100
0010
0100
,
0010
0011
0100
1000
,
0100
1000
0010
0020
,
0030
0001
0100
1000
,
0001
0010
0001
0002
,
0003
1000
0010
0100
,
0101
0010
2000
0000
,
3010
0100
0010
0001
,
0100
0010
0200
0000
,
0310
0001
1000
0010
,
0001
0100
2000
0000
,
3001
0100
1000
0100
,
0010
0001
1000
0010
,
0100
0010
0100
0001
,
1000
0010
0100
0001
,
0100
0010
1000
0010
,
0100
0010
0011
0101
,
0001
0100
1000
0010
,
1000
0010
0110
1001
,
0001
0010
0001
0010
,
1000
0100
1100
0101
,
0010
0100
0010
0001
,
1000
0010
0100
0010
,
0011
0001
0100
1000
,
0010
1000
0100
0010
,
0011
0100
0010
0001
,
0110
1000
0001
0100
,
1100
0001
0100
0010
,
1001
0010
1000
0100
,
0101
1000
0010
1000
,
1010
0100
0010
0001
,
0010
0100
0000
0000
0000
0000
0000
0000
;

//---------------dance-single - ----------------
#NOTES:
     dance-single:
     :
     Challenge:
     8:
     0.480,0.535,0.152,0.000,0.000,317.000,15.000,0.000,0.000,0.000:
0000
0000
0000
0000
,
0000
0000
0000
0000
,
0000
0000
0000
0000
0010
1000
0000
0000
,
0100
0000
0000
0000
0001
0100
0000
0000
,
1000
0000
0000
0000
0100
0010
0000
0000
,
0001
0000
0000
0000
1000
0010
0000
0000
,
0100
0000
0000
0000
0001
0010
0000
0000
,
1000
0000
0000
0000
0100
0001
0000
0000
,
0010
0000
0000
0000
1000
0100
0000
0000
,
0010
0000
0000
0000
0001
0100
0000
0000
,
1000
0000
0000
0000
0100
0010
0000
0000
,
0001
0000
0000
0000
1000
0010
0000
0000
,
0100
0101
1000
1010
,
0100
0011
0010
1100
,
0110
0000
0010
0001
0100
1000
0010
1000
,
0010
0000
1000
0010
1000
0010
0100
0010
,
0001
0010
0001
0000
0001
0100
1000
0100
,
0001
0100
1000
0000
0100
1000
0010
0100
,
0010
0001
0010
0000
0100
1000
0010
0100
,
0001
0100
1100
0000
0100
0001
0100
0010
,
0100
0010
0011
0000
0100
0001
0100
1000
,
0010
1000
1010
0000
1000
0010
0010
0001
,
0100
1000
1100
0000
1000
0010
0100
1000
,
0010
0001
0101
0000
1000
1000
0010
1000
,
0010
0100
0001
0100
0100
0010
0010
0010
,
0010
0001
0100
1000
0010
1000
0010
0100
,
0010
0001
0100
1000
0010
1000
1000
1000
,
1000
0010
0100
0010
0001
0010
1000
0100
,
0001
0010
1000
0010
0100
0001
0001
0001
,
0001
0100
1000
0010
0100
0010
1000
0010
,
0100
0010
1000
0001
0100
0100
0100
0100
,
0001
0100
1000
0010
1000
0010
0001
0100
,
1000
0010
1000
0010
0100
0001
0001
0001
,
0100
1000
1000
0001
,
1000
0010
0001
0100
1000
0000
0010
0000
,
1000
0000
0010
1000
0010
0000
0100
0000
,
0010
0000
0001
0100
0010
0000
0001
0000
,
0100
0000
0001
0100
1000
0010
1000
0010
,
1000
0001
1000
0010
0100
0001
0100
1000
,
0100
0010
0001
0100
1000
0010
1000
0010
,
0100
0010
0001
0010
0001
0001
0001
0010
,
0001
0100
1000
0010
0100
0010
0100
0001
,
0100
1000
0100
0001
0101
0101
0101
0101
,
1000
0010
0100
1000
0010
0000
1000
0001
,
0100
1000
0100
0001
0100
0000
1000
0010
,
0100
0010
1000
0010
0100
0010
1000
0010
,
0100
0000
0100
1000
0010
0001
0100
1000
,
0010
0000
0001
0001
1000
0100
0010
0100
,
0001
0000
0010
0100
1000
1000
0010
0001
,
0010
0000
0010
0001
0100
1000
0010
1000
,
1010
0000
0100
0010
1000
0100
0001
0001
,
0100
0000
0001
0100
1000
0010
1000
0010
,
0100
0000
0100
0001
0100
0100
1000
0010
;

//---------------dance-single - ----------------
#NOTES:
     dance-single:
     :
     Hard:
     7:
     0.427,0.428,0.061,0.111,0.000,278.000,6.000,11.000,0.000,0.000:
0000
0000
0000
0000
,
0000
0000
0000
0000
,
0000
0000
0010
0001
0100
1000
0100
1000
,
0010
1000
0010
0100
0010
1000
0002
0000
,
0003
0000
0010
0001
0100
1000
0010
1000
,
0010
0100
0010
1000
0100
0001
0020
0000
,
0030
0000
0001
0100
1000
0010
1000
0100
,
0010
0001
0100
1000
0020
0000
0030
0000
,
0100
0001
0100
1000
0010
1000
0001
0100
,
1000
0010
1000
0010
0002
0000
0003
0000
,
0100
0010
1000
0100
0010
0001
0100
1000
,
0100
0001
0100
1000
0020
0000
0030
0000
,
1000
0010
0100
0010
,
0001
1000
0010
0100
,
0010
0000
0001
0100
1000
0001
0100
1000
,
0010
1000
0001
0100
1000
0010
1000
0010
,
0100
0010
0001
0000
0001
0100
1000
0100
,
0001
0100
1000
0000
0100
1000
0010
0100
,
0010
0001
0010
0000
1000
0100
0001
0100
,
1000
0100
0010
0000
0100
0010
0001
0100
,
1000
0010
0100
0000
0100
0010
0001
0100
,
1000
0010
1000
0000
0010
0001
0100
1000
,
0010
1000
0010
0000
0010
0100
0010
0100
,
0001
0000
0010
0100
0001
0000
0010
1000
,
0100
0000
0001
1000
0001
0020
0000
0000
,
0030
0001
0100
0010
0100
0000
1000
0100
,
1000
0000
0010
0010
0100
0002
0000
0000
,
0003
0000
0100
0001
0010
0000
0010
1000
,
0100
0000
0010
0100
0001
0020
0000
0000
,
0030
0000
0001
1000
0100
0000
0010
1000
,
0010
0000
0001
0100
0010
2000
0000
0000
,
3000
0000
0010
1000
0001
0000
0010
0100
,
1000
0000
0001
0010
0001
0100
0001
0100
,
1000
0100
0100
0010
,
0010
0001
0001
1000
,
0010
0010
0100
0001
,
0010
1000
0100
0100
,
0010
0000
0100
0000
0001
0100
1000
0000
,
1000
0010
1000
0000
0002
0000
0000
0003
,
0010
0001
0010
0000
0100
0000
0010
0000
,
1000
0000
0100
0000
0001
0100
1000
0010
,
0100
0000
1000
0010
0100
0001
0100
0000
,
1000
0010
1000
0000
0002
0000
0003
0000
,
1000
0010
0100
0010
,
0001
0010
1000
0010
,
0110
0001
0100
1000
,
1010
0100
0001
0010
,
0110
0010
0001
0100
,
1100
0001
0100
0010
,
0011
0001
0100
1000
,
0001
0010
1000
0010
,
1010
0000
0100
0000
0001
0000
0001
0100
,
1000
0000
1000
0100
0000
1000
0010
1000
;

//---------------dance-single - ----------------
#NOTES:
     dance-single:
     :
     Medium:
     5:
     0.347,0.428,0.152,0.071,0.000,218.000,15.000,7.000,0.000,0.000:
0000
0000
0000
0000
,
0000
0000
0000
0000
,
0000
0000
0000
0000
0100
0100
0000
0000
,
0001
0000
0000
0000
0010
1000
0000
0000
,
0001
0000
0000
0000
0001
0100
0000
0000
,
0100
0000
0000
0000
1000
0020
0000
0000
,
0000
0030
0000
0000
0001
2000
0000
0000
,
0000
3000
0000
0000
0100
0020
0000
0000
,
0030
0000
0000
0000
0001
2000
0000
0000
,
0000
3000
0000
0000
0100
0020
0000
0000
,
0000
0000
0030
0000
1000
0020
0000
0000
,
0000
0000
0000
0030
0001
0200
0000
0000
,
0300
0000
0000
0000
,
0000
0000
0000
0000
,
0000
0000
0100
0010
0100
1000
0001
0100
,
1000
0010
0100
0000
0100
0001
0100
0010
,
0001
0010
1000
0000
0010
0100
0010
1000
,
0010
0100
0010
0000
0100
0001
0100
1000
,
0010
1000
1010
0000
0100
0000
0010
0000
,
0001
0011
1000
0001
,
0100
1010
0010
0100
,
0010
1010
0100
0001
,
0010
0001
0100
1000
,
0001
1000
0001
0010
0100
0000
1000
0000
,
0010
0000
0100
0000
0010
0100
0001
0100
,
1000
0001
0100
0000
1000
0000
0010
0000
,
1000
0000
0100
0000
0010
0001
0100
1000
,
0100
0001
1000
0000
0010
0000
0100
0000
,
0010
0000
1000
0000
0010
0100
0001
0100
,
1000
0010
1000
0010
,
0010
0000
0001
0000
0010
0010
0010
0010
,
0001
0100
0010
0001
,
0010
0000
0100
0000
1000
0010
0010
0010
,
0100
0001
0010
0001
,
0100
0001
0100
1000
,
0010
1000
0010
0100
,
0010
0001
0100
0010
,
0001
0000
0100
1000
0100
0001
0100
0000
,
1000
0010
0100
1000
0010
0100
1000
0001
,
0100
0001
0100
0000
1000
0010
0100
1000
,
0010
0001
0010
0000
0100
0000
0101
0000
,
0001
0100
0010
1000
,
0001
0000
0100
0000
0001
0100
1000
0000
,
0010
1000
0010
0100
,
0011
0001
0100
1000
,
1100
0010
0100
0010
,
1010
0001
0010
0001
,
0011
0100
0001
0100
,
1100
0001
0010
0100
,
0011
0001
0100
1000
,
1100
0001
0010
0100
,
0110
0001
0010
0100
,
1010
0000
0001
0010
0100
0000
1000
0011
;
