#TITLE:Megaman 3 Intro;
#SUBTITLE:MegaMan III;
#ARTIST:Capcom;
#TITLETRANSLIT:;
#SUBTITLETRANSLIT:;
#ARTISTTRANSLIT:;
#CREDIT:;
#BANNER:MegaMan 3 Intro.jpg;
#BACKGROUND:MegaMan 3 Intro-bg.jpg;
#LYRICSPATH:;
#CDTITLE:!yesssss-cdtitle.png;
#MUSIC:MegaMan 3 Intro.mp3;
#OFFSET:-0.292;
#SAMPLESTART:22.364;
#SAMPLELENGTH:12.000;
#SELECTABLE:YES;
#BPMS:0.000=159.600,24.000=160.000,32.000=161.400,44.000=158.000,48.000=159.600,52.000=158.000,56.000=161.400,60.000=161.000,64.000=156.000,69.000=156.500,77.000=163.600;
#STOPS:64.750=0.096
,65.000=0.096
,65.250=0.096
,65.500=0.096
,66.000=0.096
,66.250=0.096
,67.250=0.096
,67.500=0.096
,67.750=0.096
,68.000=0.096
,68.500=0.096
,68.750=0.096
;
#BGCHANGES:;
// cache tags:
#FIRSTBEAT:0.000;
#LASTBEAT:205.000;
#SONGFILENAME:Songs/VGMP 2/MegaMan 3 Intro (Yesssss)/MegaMan 3 Intro.sm;
#HASMUSIC:1;
#HASBANNER:1;
#MUSICLENGTH:82.782;
// end cache tags

//---------------dance-single - ----------------
#NOTES:
     dance-single:
     :
     Hard:
     10:
     0.880,1.000,0.495,0.302,0.658,444.000,41.000,25.000,0.000,0.000:

1001
0000
0000
0000
0000
1000
1100
0110
,
0001
0010
0000
0000
0000
0000
0000
0000
0000
0000
0000
0000
0000
0000
0000
0000
0001
0000
0000
0000
0000
0000
0010
0000
0001
0000
0000
0000
0100
0000
0000
0000
,
1100
0000
0000
0000
0100
1010
0110
0101
,
0000
0000
0000
0000
0010
0000
0001
0010
,
1000
0001
0000
0000
0010
0000
0000
0000
0101
0000
0000
0000
0000
0000
0000
0000
1100
0000
0000
0000
0100
0000
0000
0000
0010
0000
0000
0000
0001
0000
0000
0000
,
1000
0000
0000
0000
0001
0000
0000
0000
0100
0000
0000
0000
0010
0000
0000
0000
0100
0000
0000
0000
0010
0000
0000
0000
1000
0000
0000
0000
0001
0100
0000
0000
,
0010
0000
0000
0000
0100
0000
0000
0000
1000
0000
0000
0000
0100
0000
0000
0000
0000
0000
0000
0000
0000
0000
0000
0000
0000
0000
0000
0000
1000
0010
0000
0000
,
0100
0001
0100
0010
1010
0011
0000
0000
,
2000
0010
0100
0001
0100
0001
0010
0100
,
3020
0000
0000
0000
1000
0000
0000
0000
0000
0000
0000
0000
0100
0000
0000
0000
0000
0000
0000
0000
0001
0000
0000
0000
0000
0000
0000
0000
1000
0100
0000
0000
,
0032
0000
0000
0000
0000
0000
0000
0000
0010
0000
0000
0000
0000
0000
0000
0000
0100
0000
0000
0000
1000
0000
0000
0000
0000
0000
0000
0000
0010
1000
0000
0000
,
0203
0001
1000
0000
0320
0000
1000
0100
,
0032
0000
0000
0000
1000
0010
0000
0000
0100
0000
0000
0000
1000
0000
0000
0000
0010
0000
0000
0000
0100
0000
0000
0000
1000
0000
0000
0000
0100
0000
0000
0000
,
2003
0000
0000
0001
0000
0000
0100
0000
0010
0000
0000
0001
0000
0000
0010
0000
,
3020
0000
0000
0000
0000
0000
0001
0000
0000
0000
0000
0000
0000
0000
0000
0000
0000
0000
0000
0000
0000
0000
0000
0000
0000
0000
0000
0000
0000
0000
0000
0000
0100
0000
0000
0000
0000
0000
0000
0000
0000
0000
0000
0000
0000
0000
0000
0000
0000
0000
0000
0000
0000
0000
0000
0000
0000
0000
0000
0000
0000
0000
0000
0000
1000
0000
0000
0000
0000
0000
0000
0000
0000
0000
0000
0000
0000
0000
0000
0000
0000
0000
0000
0000
0000
0000
0000
0000
0000
0000
0000
0000
0000
0000
0000
0000
0100
0000
0000
0000
0000
0000
0000
0000
0000
0000
0000
0000
0000
0000
0000
0000
0000
0000
0000
0000
0000
0000
0000
0000
0000
0000
0000
0000
0000
0000
0000
0000
0001
0000
0000
0000
0000
0000
0000
0000
0000
0000
0000
0000
0000
0000
0000
0000
0000
0000
0000
0000
0000
0000
0000
0000
0000
0000
0000
0000
0000
0000
0000
0000
1000
0000
0000
0000
0000
0000
0000
0000
0000
0000
0000
0000
0000
0000
0000
0000
0000
0000
0000
0000
0000
0000
0000
0000
0000
0000
0000
0000
0000
0000
0000
0000
,
0230
0000
0010
0000
0001
0000
1000
0000
0001
0000
0010
0000
,
0301
0001
0100
0001
0100
0001
0100
0001
0001
0100
0010
0010
1000
0010
1000
0010
,
1000
0010
0010
1000
1000
0100
0010
0001
1000
0010
0100
0010
1000
0001
0100
0010
,
1000
0010
1000
0010
0001
0010
0100
0001
0010
0100
0001
0010
0100
0001
0010
0100
,
0001
0010
0100
1000
0100
0000
0010
0000
1001
0000
0000
0000
0100
0000
0000
0000
,
0110
0000
0100
0001
1010
0100
0000
1000
,
0011
1000
0000
1000
0011
0000
0001
0000
,
1010
0000
0010
1000
0101
0010
0000
1000
,
0100
0000
0001
0000
0001
0010
0100
1000
0001
0100
0010
1000
0001
0010
0100
1000
,
0001
0100
0010
1000
0001
0010
0100
1000
0001
0100
0010
1000
0001
0010
0100
1000
,
0001
0100
0010
1000
0001
0100
0010
0100
0001
0100
0010
1000
0001
0100
0010
0100
,
0001
0100
0010
1000
0001
0100
0010
0100
0001
0010
0001
1000
0010
0010
0100
0010
,
1000
1000
0010
0000
1020
0000
0100
0000
0001
0000
1000
0000
0001
0000
1000
0000
,
0001
0000
1000
0030
2001
0000
0100
0000
0001
0000
0100
0000
0010
0000
0001
0000
,
0000
0000
0001
3000
0012
0000
0100
0000
1000
0000
0100
0000
0010
0000
0100
0000
,
0000
0000
0010
0003
0120
0000
1000
0000
0100
0000
0001
0030
0200
0000
0010
0000
,
0000
0000
0010
0300
2100
0000
0010
0000
0001
0000
0100
0000
0001
0000
0100
0000
,
0010
0000
0100
3000
0201
0000
1000
0000
0001
0000
1000
0000
0010
0000
0001
0000
,
0000
0000
0000
0300
2010
0000
0010
0000
0100
0000
0010
0000
0000
0000
0010
0000
,
0100
0000
0010
0000
0001
0000
0001
0000
0010
0000
0001
0000
0100
0000
0010
3000
,
0101
0000
0100
0100
0010
0000
0100
0000
1001
0000
0000
0000
0010
0000
0000
0000
,
0110
0000
0010
1000
0101
0010
0000
0001
,
1100
0001
0000
0001
1100
0000
1000
0000
,
0101
0000
0100
0001
1010
0100
0000
0001
,
0010
0000
1000
0000
1000
0100
0010
0001
1000
0010
0100
0001
1000
0100
0010
0001
,
1000
0010
0100
0001
1000
0100
0010
0001
1000
0010
0100
0001
1000
0100
0010
0001
,
1000
0010
0100
0001
1000
0010
0100
0010
1000
0010
0100
0001
1000
0010
0100
0010
,
1000
0010
0100
0001
1000
0010
0100
0010
1000
0100
1000
0001
0100
0100
0010
0100
,
0001
0001
0100
0000
0201
0000
0010
0000
1000
0000
0001
0000
1000
0000
0001
0000
,
1000
0000
0001
0300
1002
0000
0010
0000
1000
0000
0010
0000
0100
0000
1000
0000
,
0000
0000
1000
0003
2100
0000
0010
0000
0001
0000
0010
0000
0100
0000
0010
0000
,
0000
0000
0100
3000
0210
0000
0001
0000
0010
0000
1000
0300
0020
0000
0100
0000
,
0000
0000
0100
0030
0012
0000
0100
0000
1000
0000
0010
0000
1000
0000
0010
0000
,
0100
0000
0010
0003
1020
0000
0001
0000
1000
0000
0001
0000
0100
0000
1000
0000
,
0000
0000
0000
0030
0102
0000
0100
0000
0010
0000
0100
0000
0000
0000
0100
0000
,
0010
0000
0100
0000
1000
0000
1000
0000
0100
0000
1000
0000
0010
0000
0100
0003
,
1010
0000
0010
0010
0100
0000
0000
0000
0000
0000
0000
0000
0000
0000
0000
0000
;

//---------------dance-single - Copied from----------------
#NOTES:
     dance-single:
     Copied from:
     Challenge:
     13:
     1.000,1.000,1.000,0.109,1.000,575.000,255.000,9.000,0.000,47.000:


1001
0000
0000
0000
0000
1000
1100
0110
,
0001
0010
0100
0000
0000
0000
0000
0000
0000
0000
0000
0000
0000
0000
0000
0000
0000
0000
0000
0000
0000
0000
0000
0000
0000
0000
0000
0000
0000
0000
0000
0000
0001
0000
0000
0000
0000
0000
0000
0000
0000
0000
0000
0000
0010
0000
0000
0000
0001
0000
0000
0000
0000
0000
0000
0000
0100
0000
0000
0000
0000
0000
0000
0000
,
1100
0000
0000
0000
0100
1010
0110
0101
,
0000
0000
0000
0000
0010
0000
0001
0010
,
1000
0001
0000
0000
0010
0000
0000
0000
0101
0000
0000
0000
0000
0000
0000
0000
1100
0000
0000
0000
0100
0000
0000
0000
0010
0000
0000
0000
0001
0000
0000
0000
,
1000
0000
0000
0000
0001
0000
0000
0000
0100
0000
0000
0000
0010
0000
0000
0000
0100
0000
0000
0000
0010
0000
0000
0000
1000
0000
0000
0000
0001
0100
0000
0000
,
0010
0000
0000
0000
0100
0000
0000
0000
1000
0000
0000
0000
0100
0000
0000
0000
0000
0000
0000
0000
0000
0000
0000
0000
0000
0000
0000
0000
1000
0010
0000
0000
,
0100
0001
0100
0010
1010
0011
0000
0000
,
2000
0010
0100
0001
0100
0001
0010
0100
,
3020
0000
0000
0000
1000
0000
0000
0000
0000
0000
0000
0000
0100
0000
0000
0000
0000
0000
0000
0000
0001
0000
0000
0000
0000
0000
0000
0000
1000
0100
0000
0000
,
0032
0000
0000
0000
0000
0000
0000
0000
0010
0000
0000
0000
0000
0000
0000
0000
0100
0000
0000
0000
1000
0000
0000
0000
0000
0000
0000
0000
0010
1000
0000
0000
,
0203
0001
1000
0000
0320
0000
1000
0100
,
0032
0000
0000
0000
1000
0010
0000
0000
0100
0000
0000
0000
1000
0000
0000
0000
0010
0000
0000
0000
0100
0000
0000
0000
1000
0000
0000
0000
0100
0000
0000
0000
,
2003
0000
0000
0001
0000
0000
0100
0000
0010
0000
0000
0001
0000
0000
0010
0000
,
3020
0000
0000
0000
0000
0000
0001
0000
0000
0000
0000
0000
0000
0000
0000
0000
0000
0000
0000
0000
0000
0000
0000
0000
0000
0000
0000
0000
0000
0000
0000
0000
0100
0000
0000
0000
0000
0000
0000
0000
0000
0000
0000
0000
0000
0000
0000
0000
0000
0000
0000
0000
0000
0000
0000
0000
0000
0000
0000
0000
0000
0000
0000
0000
1000
0000
0000
0000
0000
0000
0000
0000
0000
0000
0000
0000
0000
0000
0000
0000
0000
0000
0000
0000
0000
0000
0000
0000
0000
0000
0000
0000
0000
0000
0000
0000
0100
0000
0000
0000
0000
0000
0000
0000
0000
0000
0000
0000
0000
0000
0000
0000
0000
0000
0000
0000
0000
0000
0000
0000
0000
0000
0000
0000
0000
0000
0000
0000
0001
0000
0000
0000
0000
0000
0000
0000
0000
0000
0000
0000
0000
0000
0000
0000
0000
0000
0000
0000
0000
0000
0000
0000
0000
0000
0000
0000
0000
0000
0000
0000
1000
0000
0000
0000
0000
0000
0000
0000
0000
0000
0000
0000
0000
0000
0000
0000
0000
0000
0000
0000
0000
0000
0000
0000
0000
0000
0000
0000
0000
0000
0000
0000
,
0230
0000
0010
0000
0001
0000
1000
0000
0001
0000
0010
0000
,
1301
1001
1010
1001
1010
1001
1010
1001
1001
1010
0101
0101
1001
0101
1001
0101
,
1001
0101
0101
1001
1001
0010
0100
1000
0101
1000
0010
0100
1001
0100
0001
1000
,
0011
1000
0100
0010
1100
0001
0010
1100
0001
0010
1100
0001
0010
1100
0001
0010
,
1100
1001
1010
0100
1001
0000
0011
0100
1011
0000
0100
1000
0011
0000
0001
1000
,
0111
0000
1000
0001
1100
0000
0011
0100
1001
0000
1010
0100
0001
0000
0110
1000
,
0011
0000
1010
0001
1000
0000
1010
0001
1110
0000
0010
0100
1001
0000
0100
0001
,
1110
0000
0100
1000
0011
0000
0101
0010
1100
0000
0110
0001
1000
0000
1001
0010
,
1101
0000
0011
1000
0001
0001
1000
1000
0111
0010
1001
1000
0001
0001
1100
1000
,
0111
0010
1001
1000
0001
0001
1000
1000
0111
0010
1100
1000
0001
0001
1100
1000
,
0011
0010
1100
1000
0001
0001
0110
0100
1011
0010
0100
0100
1001
0001
0100
0100
,
1011
0010
0100
0100
1001
0001
0110
0100
0011
0001
1100
0100
1010
1010
0100
0100
,
0011
0011
0100
0100
1001
0000
0110
0001
1110
0000
1010
0100
0011
0000
1100
0001
,
1110
0000
1100
0001
0110
0000
0110
1000
0111
0000
1010
0100
0011
0000
1010
0100
,
1001
0000
1010
0100
0001
0000
1100
0010
1101
0000
1100
0001
1010
0000
0101
0010
,
1001
0000
0011
1000
0110
0000
1100
0010
1101
0000
1010
0100
0001
0000
1010
0100
,
1001
0000
1010
0100
1010
0000
1100
0010
1101
0000
1010
0100
0011
0000
1100
0001
,
1110
0000
1001
0100
1010
0000
0110
1000
0111
0000
1100
0001
0110
0000
0011
0100
,
1001
0000
0010
1000
0110
0000
0110
1000
0111
0000
0110
0001
0100
0000
0110
1000
,
0111
0000
0110
1000
0101
0000
0101
0010
1101
0000
0011
0100
1001
0001
1110
0001
,
1110
0001
0110
0110
1001
0000
1100
0010
1101
0000
0010
0001
1100
0000
1000
0001
,
1110
0000
0001
1000
0011
0000
1100
0010
1001
0000
0101
0010
1000
0000
0110
0001
,
1100
0000
0101
1000
0001
0000
0101
1000
0111
0000
0100
0010
1001
0000
0010
1000
,
0111
0000
0010
0001
1100
0000
1010
0100
0011
0000
0110
1000
0001
0000
1001
0100
,
1011
0000
1100
0001
1000
1000
0001
0001
1110
0100
1001
0001
1000
1000
0011
0001
,
1110
0100
1001
0001
1000
1000
0001
0001
1110
0100
0011
0001
1000
1000
0011
0001
,
1100
0100
0011
0001
1000
1000
0110
0010
1101
0100
0010
0010
1001
1000
0010
0010
,
1101
0100
0010
0010
1001
1000
0110
0010
1100
1000
0011
0010
0101
0101
0010
0010
,
1100
1100
0010
0010
1001
0000
0110
1000
0111
0000
0101
0010
1100
0000
0011
1000
,
0111
0000
0011
1000
0110
0000
0110
0001
1110
0000
0101
0010
1100
0000
0101
0010
,
1001
0000
0101
0010
1000
0000
0011
0100
1011
0000
0011
1000
0101
0000
1010
0100
,
1001
0000
1100
0001
0110
0000
0011
0100
1011
0000
0101
0010
1000
0000
0101
0010
,
1001
0000
0101
0010
0101
0000
0011
0100
1011
0000
0101
0010
1100
0000
0011
1000
,
0111
0000
1001
0010
0101
0000
0110
0001
1110
0000
0011
1000
0110
0000
1100
0010
,
1001
0000
0100
0001
0110
0000
0110
0001
1110
0000
0110
1000
0010
0000
0110
0001
,
1110
0000
0110
0001
1010
0000
1010
0100
1011
0000
1100
0010
1001
1000
0111
1000
,
0111
1000
0110
0110
1001
0000
0000
0000
0000
0000
0000
0000
0000
0000
0000
0000
;

//---------------dance-solo - Copied from----------------
#NOTES:
     dance-solo:
     Copied from:
     Hard:
     10:
     0.880,1.000,0.495,0.302,0.658,444.000,41.000,25.000,0.000,0.000:


100001
000000
000000
000000
000000
100000
011000
001100
,
000010
000001
000000
000000
000000
000000
000000
000000
000000
000000
000000
000000
000000
000000
000000
000000
000001
000000
000000
000000
000000
000000
001000
000000
000010
000000
000000
000000
010000
000000
000000
000000
,
100100
000000
000000
000000
000100
101000
010100
000101
,
000000
000000
000000
000000
000010
000000
000001
000010
,
000100
001000
000000
000000
000100
000000
000000
000000
001010
000000
000000
000000
000000
000000
000000
000000
100100
000000
000000
000000
000010
000000
000000
000000
001000
000000
000000
000000
000001
000000
000000
000000
,
100000
000000
000000
000000
000100
000000
000000
000000
010000
000000
000000
000000
000010
000000
000000
000000
010000
000000
000000
000000
000100
000000
000000
000000
100000
000000
000000
000000
000010
000100
000000
000000
,
001000
000000
000000
000000
010000
000000
000000
000000
100000
000000
000000
000000
010000
000000
000000
000000
000000
000000
000000
000000
000000
000000
000000
000000
000000
000000
000000
000000
000001
000010
000000
000000
,
000100
001000
010000
001000
100100
000101
000000
000000
,
200000
000010
000100
010000
001000
000100
000010
000001
,
320000
000000
000000
000000
001000
000000
000000
000000
000000
000000
000000
000000
000100
000000
000000
000000
000000
000000
000000
000000
000010
000000
000000
000000
000000
000000
000000
000000
000001
000010
000000
000000
,
030200
000000
000000
000000
000000
000000
000000
000000
001000
000000
000000
000000
000000
000000
000000
000000
010000
000000
000000
000000
100000
000000
000000
000000
000000
000000
000000
000000
000010
001000
000000
000000
,
020300
000010
001000
000000
032000
000000
100000
010000
,
003200
000000
000000
000000
000010
000001
000000
000000
000010
000000
000000
000000
001000
000000
000000
000000
010000
000000
000000
000000
100000
000000
000000
000000
010000
000000
000000
000000
001000
000000
000000
000000
,
000320
000000
000000
100000
000000
000000
010000
000000
001000
000000
000000
000100
000000
000000
000001
000000
,
000032
000000
000000
000000
000000
000000
000100
000000
000000
000000
000000
000000
000000
000000
000000
000000
000000
000000
000000
000000
000000
000000
000000
000000
000000
000000
000000
000000
000000
000000
000000
000000
001000
000000
000000
000000
000000
000000
000000
000000
000000
000000
000000
000000
000000
000000
000000
000000
000000
000000
000000
000000
000000
000000
000000
000000
000000
000000
000000
000000
000000
000000
000000
000000
010000
000000
000000
000000
000000
000000
000000
000000
000000
000000
000000
000000
000000
000000
000000
000000
000000
000000
000000
000000
000000
000000
000000
000000
000000
000000
000000
000000
000000
000000
000000
000000
100000
000000
000000
000000
000000
000000
000000
000000
000000
000000
000000
000000
000000
000000
000000
000000
000000
000000
000000
000000
000000
000000
000000
000000
000000
000000
000000
000000
000000
000000
000000
000000
000100
000000
000000
000000
000000
000000
000000
000000
000000
000000
000000
000000
000000
000000
000000
000000
000000
000000
000000
000000
000000
000000
000000
000000
000000
000000
000000
000000
000000
000000
000000
000000
001000
000000
000000
000000
000000
000000
000000
000000
000000
000000
000000
000000
000000
000000
000000
000000
000000
000000
000000
000000
000000
000000
000000
000000
000000
000000
000000
000000
000000
000000
000000
000000
,
000203
000000
100000
000000
010000
000000
001000
000000
000010
000000
000001
000000
,
000301
000001
001000
000001
001000
000001
001000
000001
000001
001000
000010
000010
010000
000010
010000
000010
,
010000
000010
000010
010000
100000
010000
001000
000100
010000
001000
000100
000010
001000
000100
000010
000001
,
000100
000010
000001
100000
000010
000100
001000
000010
000100
001000
000010
000100
001000
000010
000100
001000
,
000001
000010
000100
001000
010000
000000
001000
000000
100100
000000
000000
000000
000010
000000
000000
000000
,
010100
000000
010000
000001
100100
000010
000000
000100
,
100010
010000
000000
100000
010010
000000
000001
000000
,
010010
000000
001000
000001
010010
001000
000000
010000
,
001000
000000
000001
000000
000001
001000
000010
010000
000100
100000
000010
010000
000001
001000
000010
010000
,
000100
100000
000010
010000
000001
001000
000010
010000
000100
100000
000010
010000
000001
001000
000010
010000
,
000100
100000
000010
010000
000001
001000
000100
100000
000010
010000
000001
001000
000001
001000
000010
010000
,
000100
100000
000010
010000
000100
001000
000100
001000
000001
100000
000001
100000
000100
000100
010000
000010
,
010000
010000
000100
000000
102000
000000
010000
000000
000001
000000
010000
000000
000010
000000
010000
000000
,
000100
000000
010000
003000
201000
000000
010000
000000
001000
000000
010000
000000
001000
000000
000100
000000
,
000000
000000
000001
300000
000012
000000
000100
000000
001000
000000
010000
000000
001000
000000
000100
000000
,
000000
000000
000010
000003
001020
000000
010000
000000
100000
000000
010000
000030
000200
000000
001000
000000
,
000000
000000
001000
000300
102000
000000
010000
000000
000010
000000
010000
000000
000001
000000
010000
000000
,
000010
000000
010000
003000
020100
000000
100000
000000
001000
000000
100000
000000
001000
000000
000100
000000
,
000000
000000
000000
030000
200100
000000
000100
000000
001000
000000
000100
000000
000000
000000
000100
000000
,
001000
000000
000100
000000
000001
000000
000001
000000
000100
000000
000001
000000
001000
000000
000100
300000
,
001010
000000
001000
001000
010000
000000
001000
000000
100100
000000
000000
000000
000010
000000
000000
000000
,
010100
000000
010000
000001
100100
000010
000000
000100
,
100010
010000
000000
100000
010010
000000
000001
000000
,
010010
000000
001000
000001
010010
001000
000000
010000
,
001000
000000
000001
000000
000001
001000
000010
010000
000100
100000
000010
010000
000001
001000
000010
010000
,
000100
100000
000010
010000
000001
001000
000010
010000
000100
100000
000010
010000
000001
001000
000010
010000
,
000100
100000
000010
010000
000001
001000
000100
100000
000010
010000
000001
001000
000001
001000
000010
010000
,
000100
100000
000010
010000
000100
001000
000100
001000
000001
100000
000001
100000
000100
000100
010000
000010
,
010000
010000
000100
000000
102000
000000
010000
000000
000001
000000
010000
000000
000010
000000
010000
000000
,
000100
000000
010000
003000
201000
000000
010000
000000
001000
000000
010000
000000
001000
000000
000100
000000
,
000000
000000
000001
300000
000012
000000
000100
000000
001000
000000
010000
000000
001000
000000
000100
000000
,
000000
000000
000010
000003
001020
000000
010000
000000
100000
000000
010000
000030
000200
000000
001000
000000
,
000000
000000
001000
000300
102000
000000
010000
000000
000010
000000
010000
000000
000001
000000
010000
000000
,
000010
000000
010000
003000
020100
000000
100000
000000
001000
000000
100000
000000
001000
000000
000100
000000
,
000000
000000
000000
030000
200100
000000
000100
000000
001000
000000
000100
000000
000000
000000
000100
000000
,
001000
000000
000100
000000
000001
000000
000001
000000
000100
000000
000001
000000
001000
000000
000100
300000
,
001010
000000
001000
001000
000100
000000
000000
000000
000000
000000
000000
000000
000000
000000
000000
000000
;

//---------------dance-solo - Copied from Copied f----------------
#NOTES:
     dance-solo:
     Copied from Copied f:
     Challenge:
     11:
     1.000,1.000,1.000,0.109,1.000,573.000,253.000,9.000,0.000,47.000:


100001
000000
000000
000000
000000
100000
011000
001100
,
000100
000010
000001
000000
000000
000000
000000
000000
000000
000000
000000
000000
000000
000000
000000
000000
000000
000000
000000
000000
000000
000000
000000
000000
000000
000000
000000
000000
000000
000000
000000
000000
000001
000000
000000
000000
000000
000000
000000
000000
000000
000000
000000
000000
001000
000000
000000
000000
000010
000000
000000
000000
000000
000000
000000
000000
010000
000000
000000
000000
000000
000000
000000
000000
,
100100
000000
000000
000000
000100
101000
010100
000101
,
000000
000000
000000
000000
000010
000000
000001
000010
,
000100
001000
000000
000000
000100
000000
000000
000000
001010
000000
000000
000000
000000
000000
000000
000000
100100
000000
000000
000000
000010
000000
000000
000000
001000
000000
000000
000000
000001
000000
000000
000000
,
100000
000000
000000
000000
000100
000000
000000
000000
010000
000000
000000
000000
000010
000000
000000
000000
010000
000000
000000
000000
000100
000000
000000
000000
100000
000000
000000
000000
000010
000100
000000
000000
,
001000
000000
000000
000000
010000
000000
000000
000000
100000
000000
000000
000000
010000
000000
000000
000000
000000
000000
000000
000000
000000
000000
000000
000000
000000
000000
000000
000000
000001
000010
000000
000000
,
000100
001000
010000
001000
100100
000101
000000
000000
,
200000
000010
000100
010000
001000
000100
000010
000001
,
320000
000000
000000
000000
001000
000000
000000
000000
000000
000000
000000
000000
000100
000000
000000
000000
000000
000000
000000
000000
000010
000000
000000
000000
000000
000000
000000
000000
000001
000010
000000
000000
,
030200
000000
000000
000000
000000
000000
000000
000000
001000
000000
000000
000000
000000
000000
000000
000000
010000
000000
000000
000000
100000
000000
000000
000000
000000
000000
000000
000000
000010
001000
000000
000000
,
020300
000010
001000
000000
032000
000000
100000
010000
,
003200
000000
000000
000000
000010
000001
000000
000000
000010
000000
000000
000000
001000
000000
000000
000000
010000
000000
000000
000000
100000
000000
000000
000000
010000
000000
000000
000000
001000
000000
000000
000000
,
000320
000000
000000
100000
000000
000000
010000
000000
001000
000000
000000
000100
000000
000000
000001
000000
,
000032
000000
000000
000000
000000
000000
000100
000000
000000
000000
000000
000000
000000
000000
000000
000000
000000
000000
000000
000000
000000
000000
000000
000000
000000
000000
000000
000000
000000
000000
000000
000000
001000
000000
000000
000000
000000
000000
000000
000000
000000
000000
000000
000000
000000
000000
000000
000000
000000
000000
000000
000000
000000
000000
000000
000000
000000
000000
000000
000000
000000
000000
000000
000000
010000
000000
000000
000000
000000
000000
000000
000000
000000
000000
000000
000000
000000
000000
000000
000000
000000
000000
000000
000000
000000
000000
000000
000000
000000
000000
000000
000000
000000
000000
000000
000000
100000
000000
000000
000000
000000
000000
000000
000000
000000
000000
000000
000000
000000
000000
000000
000000
000000
000000
000000
000000
000000
000000
000000
000000
000000
000000
000000
000000
000000
000000
000000
000000
000100
000000
000000
000000
000000
000000
000000
000000
000000
000000
000000
000000
000000
000000
000000
000000
000000
000000
000000
000000
000000
000000
000000
000000
000000
000000
000000
000000
000000
000000
000000
000000
001000
000000
000000
000000
000000
000000
000000
000000
000000
000000
000000
000000
000000
000000
000000
000000
000000
000000
000000
000000
000000
000000
000000
000000
000000
000000
000000
000000
000000
000000
000000
000000
,
000203
000000
100000
000000
010000
000000
001000
000000
000010
000000
000001
000000
,
100301
100001
100100
100001
100100
100001
100100
100001
100001
100100
010010
010010
010001
010010
010001
010010
,
010001
010010
010010
010001
110000
001000
000100
000010
011000
000100
000010
000001
001100
000010
000001
001000
,
000110
000001
000010
000100
100001
000100
001000
100001
000100
001000
100001
000100
001000
100001
000100
001000
,
100001
100010
100100
001000
110000
000000
010100
000010
101001
000000
000010
001000
000101
000000
100000
000001
,
011010
000000
000001
000100
110000
000000
001010
010000
100001
000000
011000
000010
000100
000000
101000
000001
,
001100
000000
101000
000100
000010
000000
101000
000001
011100
000000
001000
010000
000101
000000
000001
000010
,
100101
000000
010000
100000
001100
000000
000101
001000
110000
000000
010100
000001
001000
000000
001100
000001
,
010110
000000
000011
001000
000010
000010
100000
100000
001011
001000
100010
100000
000010
000010
100100
100000
,
001101
001000
100001
100000
000010
000010
100000
100000
011001
001000
100100
100000
000010
000010
101000
100000
,
001001
001000
100010
100000
000010
000010
001100
001000
010101
000100
001000
001000
010010
000010
001000
001000
,
100110
000100
001000
001000
010010
000010
001100
001000
100001
000001
011000
001000
010100
010100
001000
001000
,
000110
000110
001000
000000
010010
000000
001000
000001
101010
000000
010010
001000
100001
000000
101000
000100
,
001011
000000
110000
001000
000110
000000
100010
010000
001110
000000
010010
000100
001001
000000
010100
000010
,
100001
000000
001010
010000
000100
000000
001001
000100
110010
000000
101000
000010
000101
000000
001010
000100
,
011000
000000
010010
100000
000101
000000
001100
000010
110100
000000
001001
010000
000100
000000
011000
000010
,
100100
000000
001010
000100
001010
000000
000101
001000
010110
000000
100010
000100
001001
000000
101000
000100
,
011010
000000
100100
001000
000101
000000
100010
000001
011100
000000
100001
000100
010010
000000
011000
000100
,
000011
000000
010000
001000
000110
000000
010010
000100
011001
000000
100010
000100
010000
000000
010010
100000
,
001101
000000
000110
100000
001001
000000
000011
001000
010110
000000
000101
010000
100010
000010
101100
010000
,
001101
000010
001100
001100
010010
000000
010100
000010
101001
000000
000010
001000
000101
000000
100000
000001
,
011010
000000
000001
000100
110000
000000
001010
010000
100001
000000
011000
000010
000100
000000
101000
000001
,
001100
000000
101000
000100
000010
000000
101000
000001
011100
000000
001000
010000
000101
000000
000001
000010
,
100101
000000
010000
100000
001100
000000
000101
001000
110000
000000
010100
000001
001000
000000
001100
000001
,
010110
000000
000011
001000
000010
000010
100000
100000
001011
001000
100010
100000
000010
000010
100100
100000
,
001101
001000
100001
100000
000010
000010
100000
100000
011001
001000
100100
100000
000010
000010
101000
100000
,
001001
001000
100010
100000
000010
000010
001100
001000
010101
000100
001000
001000
010010
000010
001000
001000
,
100110
000100
001000
001000
010010
000010
001100
001000
100001
000001
011000
001000
010100
010100
001000
001000
,
000110
000110
001000
000000
010010
000000
001000
000001
101010
000000
010010
001000
100001
000000
101000
000100
,
001011
000000
110000
001000
000110
000000
100010
010000
001110
000000
010010
000100
001001
000000
010100
000010
,
100001
000000
001010
010000
000100
000000
001001
000100
110010
000000
101000
000010
000101
000000
001010
000100
,
011000
000000
010010
100000
000101
000000
001100
000010
110100
000000
001001
010000
000100
000000
011000
000010
,
100100
000000
001010
000100
001010
000000
000101
001000
010110
000000
100010
000100
001001
000000
101000
000100
,
011010
000000
100100
001000
000101
000000
100010
000001
011100
000000
100001
000100
010010
000000
011000
000100
,
000011
000000
010000
001000
000110
000000
010010
000100
011001
000000
100010
000100
010000
000000
010010
100000
,
001101
000000
000110
100000
001001
000000
000011
001000
010110
000000
000101
010000
100010
000010
101100
010000
,
001101
000010
001100
001100
010010
000000
000000
000000
000000
000000
000000
000000
000000
000000
000000
000000
;
