#TITLE:Wolf & Raven;
#SUBTITLE:;
#ARTIST:Sonata Arctica;
#TITLETRANSLIT:;
#SUBTITLETRANSLIT:;
#ARTISTTRANSLIT:;
#CREDIT:;
#BANNER:wolfandraven-bn.JPG;
#BACKGROUND:wolfandraven-bg.jpg;
#LYRICSPATH:wolfandraven.lrc;
#CDTITLE:!TEEXcdtitle.png;
#MUSIC:sonata arctica - Wolf & Raven.mp3;
#OFFSET:-0.487;
#SAMPLESTART:201.859;
#SAMPLELENGTH:12.000;
#SELECTABLE:YES;
#BPMS:0.000=169.550,120.000=165.000,136.000=169.550,192.000=170.350,256.000=164.960,264.000=170.350,324.000=165.000,332.000=85.175,336.000=170.350,404.000=165.000,412.000=170.250,484.000=169.050,576.000=170.350,645.000=169.550;
#STOPS:;
#BGCHANGES:;
// cache tags:
#FIRSTBEAT:0.000;
#LASTBEAT:712.000;
#SONGFILENAME:Songs/toune 4/[TEEX] Wolf & Raven/Wolf & Raven.sm;
#HASMUSIC:1;
#HASBANNER:1;
#MUSICLENGTH:258.481;
// end cache tags

//---------------dance-single - Copied from----------------
#NOTES:
     dance-single:
     Copied from:
     Challenge:
     13:
     1.000,1.000,0.956,0.592,1.000,1676.000,247.000,153.000,0.000,7.000:
0001
0010
0001
0010
0100
0010
0100
0010
0001
0100
0001
0100
0010
0100
0010
0100
,
0010
1000
0010
1000
0001
1000
0001
1000
0100
1000
0100
1000
0100
0010
0100
0010
,
0001
1000
0001
1000
0100
1000
0100
1000
0001
0100
0001
0100
0010
0100
0010
0100
,
0010
1000
0001
1000
0010
1000
0001
1000
0100
1000
0001
1000
0001
0010
0001
1000
,
0100
0010
0100
0010
0001
1000
0001
1000
0100
0010
0001
1000
0010
0100
0001
1000
,
0100
1000
0010
1000
0001
0100
0001
0010
0100
0010
0001
0010
0100
0010
0100
1000
,
0100
1000
0100
0010
0001
0010
0001
1000
0001
1000
0001
0010
0001
0010
0100
1000
,
0100
1000
0001
1000
0010
1000
0001
1000
0010
1000
0010
0100
0010
0100
0001
1000
,
0001
0010
0100
1000
0001
0010
0100
1000
0001
1000
0001
1000
0001
1000
0001
1000
,
0010
1000
0001
0100
0010
1000
0001
0100
0010
1000
0010
1000
0010
1000
0010
1000
,
0001
0100
0010
0100
0001
0100
0010
0100
0010
1000
0010
0100
0010
1000
0010
0100
,
0001
1000
0001
1000
0001
0100
0001
0100
0001
1000
0001
1000
0001
0100
0001
0100
,
0001
0010
0100
1000
0001
0010
0100
1000
0001
0010
0100
1000
0001
0010
0100
1000
,
0001
0100
0001
0100
0001
0010
0001
0010
0100
1000
0100
1000
0010
1000
0010
1000
,
0100
1000
0001
1000
0010
0100
0001
1000
0010
0100
0001
1000
0010
0100
0001
0100
,
0001
1000
0100
0010
0100
1000
0001
1000
0020
0000
0130
0001
0100
0001
0100
0001
,
1000
1010
1001
1100
1001
0100
0101
0010
,
1010
0000
1000
0000
0101
0000
1000
0000
1001
0000
1000
0001
0010
0000
0001
0000
,
0100
0101
1001
1010
0011
0001
1001
1000
,
1010
0010
0110
0101
1100
1000
2002
3003
,
0010
0100
1010
1000
1010
0010
1010
1000
,
1010
0000
0010
0000
0101
0000
0100
0000
1100
0000
0001
1000
0001
0010
0001
0000
,
0100
0101
1001
0101
1001
1000
0100
0010
,
1100
1100
1100
0001
0011
1100
0202
0300
,
1003
0010
1000
0010
1000
0001
1000
0001
0010
0001
0010
0001
0010
0100
0010
0100
,
1000
0100
1000
0100
1000
0000
0010
0000
1001
0000
0001
0100
0010
0000
0110
0000
,
0101
0000
0010
0000
1001
0000
0000
0000
2000
0000
0000
3020
0000
0000
2030
0000
,
3002
0000
0013
0001
0020
0000
0230
0000
2000
0000
0300
0000
0000
0000
0000
0000
,
3001
0011
0110
1001
,
0101
0000
0000
0101
0000
0000
1010
0000
0101
0000
1000
0001
0010
0000
1000
0000
,
1010
0000
0000
1001
0000
0000
1100
0000
0011
0000
0000
1001
0000
0000
0101
0000
,
1001
0000
0000
1010
0000
0000
0101
0000
2200
0000
0000
0000
0000
0000
0000
0000
,
3300
0001
0011
0010
0110
0100
1100
1000
,
0010
0100
0000
0000
0001
0010
0000
0000
0001
0000
1000
0100
1000
0000
0001
0000
,
1001
1000
1010
0010
0110
0100
0101
0001
,
0011
0010
0110
0100
0110
1000
2200
0000
,
3300
1001
1001
0000
0001
0100
1000
0100
,
0001
0000
1010
0000
0011
0000
1100
0000
0101
0000
0010
1000
0100
0000
0100
0000
,
0100
0011
1001
0101
1001
1010
1100
1000
,
0002
0000
0020
0003
0200
0030
2000
0300
,
3010
1000
0010
0100
0001
1000
0100
1000
0001
0010
0100
1000
0010
1000
0100
1000
,
0100
0010
0001
0010
0100
1000
0001
0100
0010
1000
0001
0010
0100
1000
0100
0010
,
0001
1000
0010
0100
0001
0100
0010
1000
0100
0010
0001
0100
0010
1000
0100
0010
,
0001
0100
0010
1000
0001
0100
0001
1000
0010
1000
0001
0100
0001
0100
0010
1000
,
0010
1001
0011
1100
,
0002
0000
0000
0023
0000
0000
2030
0000
3002
0000
0000
0000
0000
0000
2003
0000
,
3020
0000
0000
0032
0000
0000
2003
0000
3002
0000
0000
0203
0000
0000
2300
0000
,
3200
0000
0000
0320
0000
0000
2030
0000
3001
0000
0000
0000
2001
0000
0000
0000
,
0200
0000
0002
0000
,
0013
0000
0000
0000
0000
0000
3300
0000
0011
0000
0000
0110
0000
0000
1100
0000
,
2002
0000
0100
3000
,
0203
0000
0000
0000
0000
0000
0000
0000
1300
0000
0000
0011
0000
0000
1010
0000
,
0101
0010
0001
0100
1100
0010
1000
0100
,
0101
0000
0001
0000
0010
0000
0001
0000
0011
0000
0000
1010
0000
0000
0101
0000
,
1100
0001
0100
0010
0110
0010
1000
0100
,
0110
0000
1000
0001
1000
0100
1000
0001
1000
0100
1000
0001
1000
0100
1000
0001
,
1000
0201
0000
0001
0000
0001
0000
0301
,
1000
0000
0000
1000
0000
0000
1000
0000
0000
1000
0000
0000
0100
1000
0100
1000
,
0010
0010
0011
0001
0101
0100
0101
0001
,
1001
0000
1000
0000
1010
0000
1000
0000
1100
0000
0010
0100
1000
0000
0001
0000
,
0100
0001
1001
0001
0011
0001
1001
1000
,
1010
1000
1001
1000
1200
0320
0200
0330
,
0110
0000
0001
0000
1100
0000
1000
0000
0011
0000
0001
0100
0000
0000
1000
0000
,
0101
0000
0001
1000
0100
0000
0010
0000
0011
0000
0010
0000
0100
0000
0001
0000
,
1000
0000
0000
1010
0000
0000
0100
0000
0001
0000
0000
0000
1000
0000
0001
0000
,
0020
0230
2300
3002
,
1003
0001
1000
0001
0010
0100
0010
0100
1000
0100
1000
0100
1000
0001
1000
0001
,
0100
0001
0100
0001
0100
0001
0100
0001
0100
0010
0100
0010
0100
0010
0100
0010
,
2000
0000
3001
0000
1100
0000
0100
0000
0101
0000
0000
1001
0000
0000
1010
0000
,
1001
0000
1000
0001
0010
0000
1000
0000
1001
0000
0001
1000
0100
0000
0001
0000
,
2000
3020
0032
2003
,
3002
0000
0000
0023
0000
0000
2030
0000
0002
0000
0000
0000
3003
0000
0010
0000
,
1100
0000
0000
0101
0000
0000
1000
0000
0011
0000
0000
1010
0000
0000
0001
0000
,
1100
0000
0000
0110
0000
0000
0011
0000
0210
0000
0000
0000
2300
0000
0000
0000
,
0002
0000
0000
0000
0200
0300
0000
0000
,
0020
0000
0030
0000
0000
0000
3003
0000
1000
0000
0000
0101
0000
0000
2000
0000
,
3001
0010
1000
0100
1001
0010
0001
0100
,
1001
0000
0010
0000
0001
0000
0001
0000
1000
0000
0000
0110
0000
0000
0101
0000
,
2200
0000
0002
0000
,
0020
0000
0000
0000
3333
0000
0000
0000
0100
0000
0000
0100
0000
0000
1000
0000
,
0002
0000
0000
0000
0023
0000
0230
0300
,
2002
0000
0003
0000
3010
1000
1000
0001
,
0001
1000
0100
0000
1100
0000
0100
1000
0001
0000
1001
0000
0000
0000
0000
0000
,
0110
0000
0010
0000
0100
0000
1000
0100
0001
0100
1000
0000
0201
0000
0301
0000
,
1000
0100
1000
0100
1000
0001
1000
0001
2000
0000
0000
0000
0000
0000
0000
0000
,
3001
0010
0001
0010
0002
0000
0000
0000
0103
0010
0100
0010
0200
0000
0000
0000
,
0301
1000
0001
0100
0001
0010
0100
1000
0001
0100
0001
1000
0001
0100
0010
0100
,
0001
1000
0100
0010
0001
1000
0010
1000
0002
0000
0000
0000
0000
0000
0103
0010
,
0100
0001
0010
0100
2000
0000
0000
0000
3010
0100
0010
1000
0200
0000
0000
0000
,
1300
0100
1000
0001
0010
0001
1000
0100
1000
0100
0010
0001
0010
0100
1000
0001
,
0010
0100
0010
0001
1000
0001
1000
0001
0100
0001
0100
0001
1000
0001
1000
0001
,
2200
0300
3001
0101
0000
0000
1001
0000
,
1000
0010
0001
0000
0110
0000
0001
1000
,
0100
1001
0101
1100
,
2000
0000
0020
3000
0002
0030
2000
0003
0002
3000
0020
0003
2000
0030
0002
3000
,
2000
0003
0200
3000
0002
0300
2000
0003
0002
3000
0200
0003
2000
0300
0001
3000
,
1001
0000
1000
1100
0000
0000
0110
0000
,
0001
0010
1000
0000
0110
0000
0001
0100
,
1000
0011
1100
0101
,
0002
0000
0020
0003
2000
0030
0002
3000
2000
0003
0020
3000
0002
0030
2000
0003
,
0002
3000
0200
0003
2000
0300
0002
3000
2000
0003
0200
3000
0002
0300
1000
0003
,
1001
0000
0001
1100
0000
0000
0011
0000
,
1000
0100
0010
0000
1100
0000
0001
0010
,
0100
0011
1010
1200
,
0310
1000
0010
0001
0010
1000
0010
0001
,
0100
1000
0100
0001
0100
1000
0100
0001
,
1100
0000
0001
0011
0000
0000
0110
0000
,
0100
1000
0001
0000
0011
0000
0100
1000
,
0001
1010
1100
0101
,
2000
0000
3002
0000
0023
0230
2300
3200
,
0320
0000
0031
1000
0110
1001
0110
1001
,
1100
0202
0000
0000
0000
0000
0000
0000
,
0000
0000
0000
0000
,
0303
0000
0000
0000
1000
0100
0010
0001
1000
0100
0010
0001
1000
0000
1000
0000
,
0001
0000
1000
0000
0001
0010
0100
1000
0001
0010
0100
1000
0001
0000
0001
0000
,
1000
0000
0001
0000
1000
0010
0100
0001
1000
0010
0100
0001
1000
0000
1000
0000
,
0001
0000
1000
0000
0001
0010
0100
1000
0001
0010
0100
1000
0001
0000
0001
0000
,
1000
0000
0001
0000
1000
0100
0010
0001
1000
0100
0010
0001
1000
0000
1000
0000
,
0001
0000
1000
0000
0001
0010
0100
1000
0001
0010
0100
1000
0001
0000
0001
0000
,
1000
0000
0001
0000
1000
0010
0100
0001
1000
0010
0100
0001
1000
0000
1000
0000
,
0001
0000
1000
0000
0001
0010
0100
1000
0001
0010
0100
1000
0001
0000
1000
0001
,
1000
0001
1000
0010
1000
0100
0010
0001
1000
0010
0100
0001
1000
0100
1000
0100
,
1000
0100
1000
0100
0010
0001
1000
0100
0010
0001
1000
0100
0010
0001
0010
0001
,
0010
0001
0010
0001
1000
0010
1000
0001
0100
0001
1000
0010
1000
0010
0100
0001
,
0100
0001
0100
0010
1000
0010
0100
0001
0100
0010
1000
0010
1000
0001
0100
0001
,
1000
0010
0100
0001
0010
0100
0010
0100
1000
0100
1000
0100
1000
0001
1000
0001
,
0010
0001
0010
0001
0010
0100
0010
0100
1000
0001
1000
0001
0100
0001
0100
0001
,
1000
0010
1000
0010
1000
0100
1000
0100
0010
0100
0010
0100
0010
0001
0010
0001
,
0100
0010
1000
0010
0100
0010
0100
0001
1000
0001
0010
0001
1000
0001
1000
0100
,
1000
1000
1010
1000
0001
0101
0001
1000
,
0011
0001
0101
0010
1000
1100
0010
0100
,
0011
0010
0110
0100
1000
1001
0100
0001
,
1020
0230
0302
0000
0000
0023
0230
0000
,
1300
1000
0022
0000
0033
2020
0000
3030
,
0202
0303
2200
3300
0000
0000
0010
0000
,
0100
0000
0202
0300
0000
2003
0000
0000
,
3020
0000
0000
0000
0230
0000
0000
0000
0000
0000
0000
0000
0301
1000
0001
1000
,
0001
1000
0001
1000
0010
0000
0100
0000
0101
0000
1000
0000
1001
0000
0001
0000
,
0011
0010
0220
0300
0000
0230
2300
0000
,
0000
3010
0101
1001
,
1100
0000
2020
0000
0000
0000
0000
3030
,
0202
0000
0303
0000
1000
0100
0010
0001
1000
0010
0100
0001
1000
0100
0010
0001
,
1000
0010
0100
0001
0010
0001
0010
0001
0010
0100
0010
0100
1000
0100
1000
0100
,
1000
0001
1000
0001
0020
0000
0000
0000
0000
0000
0000
0000
0030
0000
1100
0000
,
0000
0000
0001
0000
1001
0000
0010
0000
0100
0000
0001
0000
1010
0000
0000
1010
,
0000
1010
0011
0001
0010
0100
0110
0010
,
0100
0000
1000
0000
1001
0000
1000
0000
0010
0000
0100
0000
1010
0000
0000
1010
,
0000
0100
0101
1000
0001
1000
1001
0010
,
0100
0000
0010
0000
0011
0000
0100
0000
1000
0000
0001
0000
0101
0000
0000
0011
,
0000
0011
1100
0100
1000
0001
1001
0010
,
0100
0000
0010
0000
1001
0000
0010
0000
0100
0000
1000
0000
1100
0000
0000
1010
,
0000
0110
0101
1000
0001
0010
0011
0100
,
1000
0000
0001
0000
0101
0000
0100
0010
1000
0001
1000
0001
0010
0000
0000
1100
,
0000
0011
1001
1000
0001
0010
0110
0100
,
1000
0000
0001
0000
1010
0000
0010
0000
1000
0000
0100
0000
1100
0000
0000
1100
,
0000
1100
0110
0100
0010
0001
0011
0010
,
0100
0000
1000
0000
0110
0000
0001
0000
1000
0000
0100
0000
1001
0000
0000
1100
,
0000
0011
1001
0010
1000
0010
1010
0100
,
0001
0000
0100
0000
0101
0000
1000
0000
0001
0000
1000
0000
0011
0000
0000
1010
,
0000
1100
0101
0010
0100
1000
0101
1000
,
0100
2200
0000
0000
,
0000
0000
3300
0000
0001
0010
0100
1000
0001
0010
0100
1000
0001
0100
0001
0100
,
0001
0100
0001
0100
0001
0010
0100
1000
0001
0010
0100
1000
0001
0100
0001
0100
,
0010
0100
0010
0100
0010
1000
0010
1000
0100
1000
0100
1000
0001
1000
0001
1000
,
0001
1000
0001
1000
0001
0100
0001
1000
0001
0100
0001
1000
0100
0010
0100
1000
,
0100
0010
0100
1000
0010
0100
0001
0100
0010
0100
0001
0100
0001
1000
0010
1000
,
0001
1000
0100
1000
0001
0100
0010
1000
0010
0100
0001
1000
0001
0010
0001
0100
,
0001
0010
0001
0100
0010
1000
0010
1000
0100
1000
0100
1000
0100
0010
0100
0010
,
0001
1000
0001
1000
0001
0100
0010
1000
0001
0100
0010
1000
0001
0010
0100
1000
,
0001
0010
0100
1000
0001
0100
0010
0100
0001
0010
0001
1000
0001
0100
0001
1000
,
0100
0010
0100
0010
0001
0100
0001
0100
0010
1000
0010
1000
0100
1000
0100
1000
,
0001
1000
0001
1000
0100
1000
0100
1000
0001
1000
0001
1000
0100
1000
0100
1000
,
0001
0010
0001
0010
0100
0010
0100
0010
0001
0010
0001
0010
0100
0010
0100
0010
,
0001
1000
0100
0010
0100
1000
0001
0010
0100
0010
0001
1000
0100
0010
0100
1000
,
0001
0100
0001
1000
0100
0010
0001
1000
0010
1000
0001
0100
0001
1000
0100
0010
,
0001
1000
0010
1000
0001
0010
0001
1000
0100
1000
0001
0100
0001
0010
0100
0010
,
0001
1000
0100
0010
0001
1000
0100
0010
0001
1000
0010
1000
0001
1000
0100
0010
,
0002
1003
2002
0000
0000
0000
0000
0000
,
3003
0000
0000
0000
;

//---------------dance-single - Copied from----------------
#NOTES:
     dance-single:
     Copied from:
     Hard:
     10:
     0.790,0.999,0.735,0.437,0.193,1126.000,190.000,113.000,0.000,9.000:
1000
0100
1000
0010
1000
1000
0100
1000
,
0010
0010
0100
0100
0001
0001
0010
0001
,
0100
0010
0100
0001
0010
0100
0010
1000
,
0010
0100
0010
0001
0100
0010
0100
0010
,
1000
0100
1000
0001
1000
0010
1000
0001
,
0100
0010
0100
0001
0010
0100
0010
0001
,
1000
0100
0010
0001
1000
0010
1000
0001
,
1000
0100
0010
0100
1000
0001
0010
0100
,
0010
0001
0001
0100
0010
0100
0001
0001
,
1000
0010
1000
0001
0100
0100
0001
1000
,
0010
0100
0001
0001
0100
0010
0100
0001
,
0010
1000
0010
0001
0100
1000
0100
0001
,
1000
0100
0001
0100
1000
0010
0001
0010
,
1000
0100
0010
0100
1000
0010
0100
0010
,
1000
0001
0010
0001
0100
0001
0010
0100
,
1000
0010
0100
0001
0020
0000
0000
0030
,
0001
1000
1100
0001
1001
0100
0001
1000
,
0001
0000
0100
0000
0100
0000
0001
0000
0020
0000
0031
1000
0001
0000
0010
0000
,
0100
1000
0100
0010
1000
1000
0010
0100
,
1000
0001
0100
0000
1010
0000
0101
0000
,
0001
0100
0101
0000
1000
0010
1000
0001
,
0010
0001
0100
0100
0200
0000
0000
0000
,
0000
0310
1000
0100
0001
0100
1000
0010
,
0100
0001
0010
0100
1000
0001
1001
0000
,
0002
0023
0230
2300
,
3020
0000
0000
0130
0002
0000
0000
0000
,
0000
0000
0000
0000
0013
0000
0000
0000
0100
0000
0000
0100
0000
0000
1000
0000
,
0020
0000
0000
0130
0020
0000
0000
0000
,
0130
1010
0011
0101
,
1001
0000
0000
1001
0000
0000
0100
0000
0002
0000
0000
0000
0000
0000
1003
0000
,
1010
0000
0000
0100
0000
0000
0001
0000
0010
0000
0000
0011
0000
0000
0100
0000
,
0010
0000
0000
1100
0000
0000
0100
0000
0002
0000
0000
0000
0000
0000
0000
0000
,
0003
1000
0010
0100
0010
1000
0010
0100
,
0010
1000
0000
0000
0010
0100
0000
0000
0001
0000
0000
0000
0010
0100
0010
0000
,
0001
0100
0001
0000
1000
0000
0100
0000
0010
0000
0001
0000
0010
0000
0100
0000
,
2200
3300
2020
3030
0220
0330
0202
0303
,
0010
0100
0001
0000
0010
0100
0001
0010
,
0100
0000
0011
0000
0101
0000
1001
0000
1100
0000
0010
0100
0010
0000
1000
0100
,
1000
0001
0010
0001
1000
0100
1000
0010
,
0202
0303
2020
3030
0022
0033
2200
3300
,
0001
0010
1000
0010
0001
0010
1000
0010
,
0001
0000
1000
0010
1000
0000
0200
0000
0302
0000
0000
0000
0000
0000
0000
0000
,
0003
0000
0000
0000
1010
0000
0000
0000
0100
0000
0000
0100
0000
0000
1000
0000
,
0200
0000
0000
0310
0200
0000
0000
0300
,
0011
1010
0101
0011
,
1000
0000
0000
1000
0000
0000
0010
0000
2000
0000
0000
0000
0000
0000
3100
0000
,
1000
0000
0000
1010
0000
0000
0100
0000
0010
0000
0000
0110
0000
0000
0100
0000
,
0001
0000
0000
1001
0000
0000
0100
0000
0001
0000
0000
0000
0001
0000
0000
0000
,
0002
0003
0002
0003
,
0002
0000
0000
0000
0000
0000
0000
0000
0013
0000
0000
0010
0000
0000
0100
0000
,
2000
3000
2000
3000
,
2000
0000
0000
0000
0000
0000
0000
0000
3010
0000
0000
0010
0000
0000
0100
0000
,
0020
0030
0020
0030
,
0020
0000
0000
0000
0000
0000
0000
0000
0130
0000
0000
0100
0000
0000
0001
0000
,
2000
0000
3200
0300
,
0200
0000
0000
0000
0000
0000
0310
0001
,
0100
0001
0000
0001
0000
0001
0000
0001
,
0110
0000
0000
0110
0000
0000
0110
0000
0000
0110
0000
0000
0010
0100
0010
0000
,
0110
1000
1010
0001
1001
1000
0010
1000
,
0001
0000
0010
0000
0100
0000
0010
0000
0100
0000
0010
0001
0010
0000
1000
0100
,
1000
1000
0010
0001
0010
1000
0100
0010
,
0100
1000
0100
0000
0022
0033
0202
0303
,
1000
0100
1100
0000
0001
0010
0001
0100
,
0010
1000
0101
0010
1100
0100
1000
1000
,
0001
0000
0000
0011
0000
0000
0010
0000
0200
0000
0000
0000
1300
0000
0001
0000
,
0020
0230
2300
3002
,
0103
0010
0100
0010
0100
0000
0001
0000
0011
0000
1000
0000
2001
0000
0000
0000
,
3002
0000
2003
3200
0302
0000
0103
1000
,
0010
0000
0000
0000
1001
0000
0000
0000
0100
0000
0000
0100
0000
0000
0010
0000
,
2000
0000
0000
3001
1001
0000
0001
1000
,
0010
0100
0001
0000
0010
0100
1000
0000
,
0001
0000
0000
0001
0000
0000
1010
0000
0200
0000
0000
0000
0000
0000
0310
0000
,
1000
0000
0000
1010
0000
0000
0010
0000
0001
0000
0000
0011
0000
0000
0001
0000
,
0100
0000
0000
0101
0000
0000
1010
0000
1100
0000
0000
0000
2002
0000
0000
0000
,
0100
0000
0010
0000
,
0010
0000
3003
0000
0000
0000
0000
0000
0101
0000
0000
0101
0000
0000
2000
0000
,
0200
0000
0001
0000
,
0001
0000
3300
0000
0000
0000
0000
0000
0010
0000
0000
0010
0000
0000
0200
0000
,
0020
0000
1000
0000
,
1000
0000
0330
0000
0000
0000
0000
0000
0001
0000
0000
1010
0000
0000
0110
0000
,
0102
0000
2003
0002
,
0220
0000
0330
3003
0000
0000
0000
1000
,
1000
0100
1000
0000
0110
0000
0000
0000
0001
0000
0101
0000
0000
0000
0000
0000
,
1001
0000
0100
0000
0001
0000
1000
0100
0001
0100
1000
0000
0120
0000
0031
0000
,
1000
0100
1000
0100
1000
0100
1000
0100
2000
0000
0000
0000
0000
0000
0000
0000
,
3001
0010
0001
0010
0002
0000
0000
0000
0103
0010
0100
0010
0200
0000
0000
0000
,
0301
0010
0100
1000
0010
0100
0010
1000
0100
0010
0001
0100
0010
1000
0100
1000
,
0001
0010
0001
0100
0001
0010
0100
0010
0200
0000
0000
0000
0000
0000
0000
0000
,
1300
0010
0100
0010
2000
0000
0000
0000
3001
0100
0010
0100
0002
0000
0000
0000
,
1003
0100
0010
0001
1000
0100
0010
0001
1000
0010
0100
0001
1000
0010
0100
0001
,
1000
0000
0010
1000
0100
0000
0010
0001
0100
0000
0010
1000
0100
0000
0010
0000
,
1001
0000
0001
0101
0000
0000
1001
0000
,
1000
0010
0001
0000
0110
0000
0001
0010
,
1000
0011
1010
1100
,
1000
0010
0001
0010
1000
0010
0001
0010
,
1000
0100
0001
0100
1000
0100
0001
0100
,
0011
0000
0100
1001
0000
0000
0110
0000
,
0010
0010
1010
0000
1100
0000
0001
0001
,
0011
0101
1100
1010
,
0001
0100
1000
0001
1000
0100
0001
1000
,
0001
0010
1000
0001
1000
0010
0001
1000
,
0110
0000
0001
1100
0000
0000
0110
0000
,
0001
0010
1010
0000
1100
0000
1000
0100
,
0101
0110
0011
0110
,
0001
0100
1000
0001
1000
0100
0001
1000
,
0100
0001
1000
0001
0100
1000
0001
1000
,
0110
0000
1000
0101
0000
0000
1100
0000
,
0001
0010
1000
0000
0110
0000
1000
0010
,
0001
0110
0101
1010
,
0002
0000
2003
0000
3020
0230
0302
0203
,
0320
0000
1030
0001
1010
1010
0110
0110
,
1100
0202
0000
0000
0000
0000
0000
0000
,
0000
0000
0000
0000
,
0000
0303
1000
0000
0101
0000
1000
0010
,
0101
0000
0010
0000
1001
0000
0100
0010
,
1001
0000
1000
0000
0101
0000
0010
0010
,
0101
0000
0010
0000
1100
0000
0010
0010
,
1100
0000
0010
0000
1001
0000
0100
0100
,
1100
0000
0010
0000
0101
0000
0001
1000
,
0011
0000
0100
0000
0011
0000
1000
0001
,
1010
0000
0000
0000
0100
0000
0000
0000
1001
0000
0000
0000
0010
0000
1000
0100
,
1000
0100
1000
0100
1000
0000
0010
0000
1000
0000
0010
0000
0001
0000
0010
0000
,
0001
0010
0001
0100
0001
0100
1000
0100
,
1000
0100
1000
0010
0001
0010
1000
0100
,
0001
0100
1000
0010
1000
0100
0001
0010
,
1000
0100
0001
0010
1000
0100
1000
0010
,
0001
0100
1000
0001
1000
0100
1000
0010
,
0100
0001
0100
0001
0010
0001
0010
1000
,
0010
0100
1000
0001
0010
0100
0100
1000
,
0001
0100
1001
1000
0010
1010
0000
0100
,
0101
0000
1001
0001
0100
0011
0000
0100
,
1001
0000
2010
0000
3100
1020
0000
0130
,
1010
0100
0002
0000
0000
1003
0100
0000
,
0010
0010
1100
0000
0001
1001
0000
0010
,
0011
0000
0110
0000
1000
0100
1001
0000
,
1010
0000
0110
0000
0011
1000
0000
0110
,
0100
0000
0000
0000
1000
0000
0000
0000
0010
0000
0100
0000
0001
1000
0001
0100
,
0001
1000
0001
0100
0010
1000
0010
0100
0010
1000
0010
0100
0010
1000
0010
0100
,
0010
1000
0001
1000
0010
0000
0100
0001
0100
0000
1000
0000
1001
0000
0000
0000
,
0010
0100
1100
1000
1010
0000
0011
0001
,
0101
2001
0000
0000
,
3200
0300
0021
0000
0230
0000
2300
0000
,
3200
0300
1020
0000
0230
0000
0302
0000
,
0203
0300
2002
0000
0000
0000
3000
1003
,
0000
0000
0001
0000
0011
0000
1000
0000
0001
0000
0010
0000
1100
0000
0000
1100
,
0000
1100
0020
0000
0030
0000
0020
0000
,
0030
0000
0000
0000
0020
0000
0000
0000
0000
0000
0000
0000
1030
0000
0000
1000
,
0000
0100
0011
1000
0001
0100
1010
1000
,
0001
0000
0010
0000
1100
0000
0100
0000
1000
0000
0001
0000
0101
0000
0000
0101
,
0000
1010
0101
1000
0001
0010
1001
0010
,
0001
0000
0100
0000
1001
0000
0001
0000
1000
0000
0100
0000
1010
0000
0000
1010
,
0000
0100
1100
1000
0001
0010
1100
0001
,
0010
0000
0100
0000
1100
0000
0010
0000
0001
0000
1000
0000
1001
0000
0000
1001
,
0000
1001
1010
0010
0100
0001
0101
0100
,
0001
0000
1000
0000
1001
0000
0010
0000
0001
0000
1000
0000
1001
0000
0000
0101
,
0000
0101
1010
1000
0010
0100
1010
0010
,
1000
0000
0100
0000
1010
0000
0100
0000
0001
0000
1000
0000
0011
0000
0000
0011
,
0000
0011
1001
0100
0001
1000
0101
1000
,
0001
0000
0100
0000
1100
0000
0010
0000
1000
0000
0100
0000
1010
0000
0000
1010
,
0000
1010
2100
0000
0000
0000
3020
0000
,
0200
0002
0000
0000
,
0333
0000
1000
0010
1000
0001
0001
0010
,
0100
0100
0010
0001
1000
0010
0010
0100
,
0001
0001
0010
0100
0010
1000
1000
0010
,
0100
1000
1000
0010
0100
1000
0100
0001
,
0010
0100
0100
0010
0001
0100
0001
1000
,
0010
1000
0001
0010
0100
1000
0001
0100
,
0001
1000
0100
0010
0001
1000
0001
0010
,
0100
1000
0001
0100
0001
1000
0100
1000
,
0001
0010
0001
0100
0010
0100
0001
0100
,
0010
1000
0001
0010
0100
0010
1000
0010
,
0100
1000
0001
0100
1000
0100
0001
0010
,
1000
0010
0001
0100
1000
0100
0010
1000
,
0100
1000
0010
0100
0010
0001
0010
1000
,
0100
0001
0100
1000
0010
0100
0001
0100
,
0010
1000
0001
0001
0010
0010
0100
1000
,
0001
1000
0001
0100
0010
1000
1001
0100
,
0100
0010
0100
0000
2002
0000
0000
0000
0000
0000
0000
0000
0000
0000
0000
0000
,
3003
0000
0000
0000
;
