#TITLE:VaLenCiA;
#SUBTITLE:;
#ARTIST:Cryptex2o6;
#TITLETRANSLIT:;
#SUBTITLETRANSLIT:;
#ARTISTTRANSLIT:;
#CREDIT:;
#BANNER:valenciabn.png;
#BACKGROUND:valenciabg.png;
#LYRICSPATH:;
#CDTITLE:;
#MUSIC:VaLenCiaV2.mp3;
#OFFSET:0.000;
#SAMPLESTART:37.500;
#SAMPLELENGTH:12.000;
#SELECTABLE:YES;
#BPMS:0.000=160.000;
#STOPS:;
#BGCHANGES:;
// cache tags:
#FIRSTBEAT:15.500;
#LASTBEAT:228.000;
#SONGFILENAME:Songs/stepmix .10/Valencia/valencia.sm;
#HASMUSIC:1;
#HASBANNER:1;
#MUSICLENGTH:89.738;
// end cache tags

//---------------dance-single - ----------------
#NOTES:
     dance-single:
     :
     Hard:
     9:
     0.728,0.794,0.758,0.022,0.039,387.000,68.000,2.000,0.000,0.000:  // measure 1
0000
0000
0000
0000
,  // measure 2
0000
0000
0000
0000
,  // measure 3
0000
0000
0000
0000
,  // measure 4
0000
0000
0000
0000
0000
0000
0000
1100
,  // measure 5
1000
0100
1000
0100
0000
0110
0000
0011
,  // measure 6
0001
0010
0001
0010
0000
0011
0000
1001
,  // measure 7
1000
0001
1000
0001
1000
0001
1000
0001
,  // measure 8
1001
0000
1001
0000
1001
0000
1010
0101
,  // measure 9
1000
0100
0010
0001
0000
1010
0000
0101
,  // measure 10
0001
0010
0100
1000
0000
0110
0000
0110
,  // measure 11
0100
0010
0100
0010
0000
0011
0000
1001
,  // measure 12
1000
0100
0001
0100
0000
1100
0000
0101
,  // measure 13
0001
0010
0001
0100
0000
1010
0000
0101
,  // measure 14
0001
0010
1000
0010
0000
1010
0000
0101
,  // measure 15
1000
0010
0001
0100
0000
0011
0000
1001
,  // measure 16
0001
0100
1000
0100
0000
1010
0000
1100
,  // measure 17
0010
0100
1000
0001
0000
0011
0000
1001
,  // measure 18
0001
0100
0010
0001
0000
1010
0000
0011
,  // measure 19
0100
1000
0100
0001
0000
1010
0000
0101
,  // measure 20
1000
0001
0100
0010
0000
1001
0000
0110
,  // measure 21
0001
0100
1000
0100
0000
0101
0000
1010
,  // measure 22
0010
0100
0001
1000
0000
0101
0000
1010
,  // measure 23
0100
1000
0001
0100
1000
0100
0001
0100
,  // measure 24
1001
0000
1001
0000
1001
0000
0011
0110
,  // measure 25
1000
0100
0010
0001
0010
0100
1000
0100
,  // measure 26
0001
0100
1000
0100
0001
0010
1000
0010
,  // measure 27
0001
0100
0010
0100
1000
0010
0100
0001
,  // measure 28
0010
0001
0100
1000
0100
0010
0100
1000
,  // measure 29
0100
0010
0100
1000
0100
0010
0100
1000
,  // measure 30
0100
0010
0100
0001
0100
0010
1000
0100
,  // measure 31
0001
0100
0010
0001
0100
0010
1000
0010
,  // measure 32
0001
0100
0010
0001
0100
0010
0100
0001
,  // measure 33
0100
1000
0010
0100
0001
0100
1000
0010
,  // measure 34
0100
0001
0100
0010
0001
0100
0010
1000
,  // measure 35
0100
0010
0100
0001
0100
0010
0001
0010
,  // measure 36
0100
0010
0100
1000
0100
0010
0100
0001
,  // measure 37
0100
0010
0001
0100
0010
0100
0010
0001
,  // measure 38
0100
0010
1000
0100
0001
0100
0010
0100
,  // measure 39
0001
0100
0010
1000
0010
0100
0001
0100
,  // measure 40
0010
0001
0100
1000
0100
0010
0100
0001
,  // measure 41
0100
0010
0110
0001
0010
0100
1010
0100
,  // measure 42
0001
0010
0011
0100
1000
0010
0110
0001
,  // measure 43
0100
0010
1010
0100
0001
0100
1100
0010
,  // measure 44
0100
0001
0101
0010
0100
0001
1001
0100
,  // measure 45
0010
0001
0110
1000
0100
0010
1001
0001
,  // measure 46
0010
0100
1001
0100
0001
0100
1010
0100
,  // measure 47
0010
0100
0110
0001
0010
0100
0101
1000
,  // measure 48
0100
1000
1100
0010
0001
0100
0101
0100
,  // measure 49
0010
1000
1010
0001
0010
0100
1001
0010
,  // measure 50
0100
0001
1100
0010
1000
1000
1010
0001
,  // measure 51
0001
0001
0101
0010
0010
0010
0110
0100
,  // measure 52
0100
0100
1100
0001
0100
0010
0101
0001
,  // measure 53
1000
0100
1000
0010
0100
0001
0010
1000
,  // measure 54
0100
0010
0100
0010
0100
0100
0010
0010
,  // measure 55
0100
0001
0100
0010
1000
0100
0001
0100
,  // measure 56
0010
0100
0010
0100
0010
0100
0010
0100
0010
0100
0010
0100
0010
0100
0010
0000
,  // measure 57
2002
0000
0000
0000
,  // measure 58
3003
0000
0000
0000
;

//---------------dance-single - ----------------
#NOTES:
     dance-single:
     :
     Challenge:
     12:
     1.000,1.000,0.758,0.022,1.000,668.000,68.000,2.000,0.000,0.000:  // measure 1
0000
0000
0000
0000
,  // measure 2
0000
0000
0000
0000
,  // measure 3
0000
0000
0000
0000
,  // measure 4
0000
0000
0000
0000
,  // measure 5
1000
0100
1000
0100
1000
0100
1000
0100
1000
0100
1000
0100
1000
0100
1000
0100
,  // measure 6
1000
0001
1000
0001
1000
0001
1000
0001
1000
0001
1000
0001
1000
0001
1000
0001
,  // measure 7
1000
0010
1000
0010
1000
0010
1000
0010
1000
0001
0100
0010
1000
0100
0001
0100
,  // measure 8
1000
0100
1000
0100
1000
0100
1000
0100
1000
0100
1000
0100
1000
0100
1000
0100
1000
0100
1000
0100
1000
0100
1000
0100
1000
0100
1000
0100
1000
0100
1000
0000
,  // measure 9
1000
0010
0100
0000
0010
0000
0001
0000
1100
0000
1010
0000
0110
0000
0101
0000
,  // measure 10
0001
0100
0010
0000
0100
0000
1000
0000
0110
0000
0101
0000
1001
0000
0110
0000
,  // measure 11
0100
0001
0010
0000
0100
0000
0010
0000
0110
0000
0011
0000
1100
0000
1001
0000
,  // measure 12
1000
0010
0100
0000
0001
0000
0100
0000
0101
0000
1100
0000
0110
0000
0101
0000
,  // measure 13
0001
1000
0010
0000
0001
0000
0100
0000
0101
0000
1010
0000
1100
0000
0101
0000
,  // measure 14
0001
0100
0010
0000
1000
0000
0010
0000
0110
0000
1010
0000
0101
0000
0101
0000
,  // measure 15
1000
0100
0010
0000
0001
0000
0100
0000
1100
0000
0011
0000
0110
0000
1001
0000
,  // measure 16
0001
0010
0100
0000
1001
0000
0110
0000
0101
0000
1010
0000
0101
0000
1100
0000
,  // measure 17
0010
0001
0100
0000
1000
0000
0110
0000
0110
0000
0011
0000
1100
0000
1001
0000
,  // measure 18
0001
0010
0100
0000
0010
0000
0001
0000
0110
0000
1010
0000
0101
0000
0011
0000
,  // measure 19
0100
0001
1000
0000
0100
0000
0001
0000
0110
0000
1010
0000
1001
0000
0101
0000
,  // measure 20
1000
0100
0001
0000
0100
0000
0010
0000
1010
0000
1001
0000
0101
0000
0110
0000
,  // measure 21
1000
0001
1000
0001
1000
0001
1000
0001
1000
0001
1000
0001
1000
0001
1000
0001
,  // measure 22
1000
0100
1000
0100
1000
0100
1000
0100
1000
0100
1000
0100
1000
0100
1000
0100
,  // measure 23
1000
0100
0010
0100
0001
0100
0010
1000
0001
0100
0010
1000
0100
0010
0100
0001
,  // measure 24
1000
0001
1000
0001
1000
0001
1000
0001
1000
0001
1000
0001
1000
0001
1000
0001
1000
0001
1000
0001
1000
0001
1000
0001
1000
0001
1000
0001
1000
0001
1000
0001
,  // measure 25
1000
0100
0010
0001
0010
0100
1000
0100
,  // measure 26
0001
0100
1000
0100
0001
0010
1000
0010
,  // measure 27
0001
0100
0010
0100
1000
0010
0100
0001
,  // measure 28
0010
0001
0100
1000
0100
0010
0100
1000
,  // measure 29
0100
0010
0100
1000
0100
0010
0100
1000
,  // measure 30
0100
0010
0100
0001
0100
0010
1000
0100
,  // measure 31
0001
0100
0010
0001
0100
0010
1000
0010
,  // measure 32
0001
0100
0010
0001
0100
0010
0100
0001
,  // measure 33
0100
1000
0010
0100
0001
0100
1000
0010
,  // measure 34
0100
0001
0100
0010
0001
0100
0010
1000
,  // measure 35
0100
0010
0100
0001
0100
0010
0001
0010
,  // measure 36
0100
0010
0100
1000
0100
0010
0100
0001
,  // measure 37
0001
0010
0100
1000
0010
0100
0001
0100
0010
1000
0100
0001
0100
0010
0100
0001
,  // measure 38
0010
0100
1000
0010
0100
0001
0100
0010
1000
0100
0001
0100
0010
0100
0001
0100
,  // measure 39
0010
0100
0010
0100
0001
0100
1000
0100
0010
0100
0001
0100
0010
0001
0100
0010
,  // measure 40
1000
0001
1000
0001
0100
0010
0100
0001
1000
0001
1000
0001
1000
0010
0100
1000
0100
0001
0100
0010
0100
0001
0100
0010
1000
0100
0010
0100
0001
0010
0100
1000
,  // measure 41
0010
0100
0010
0000
0001
0010
0001
0000
0001
0100
0001
0000
0001
1000
0001
0000
,  // measure 42
0001
0100
1000
0000
0100
0010
0100
0000
0001
0100
0010
0000
1000
0100
0010
0000
,  // measure 43
0100
0001
0100
0000
1000
0010
0100
0000
0001
0100
0010
0000
0100
0010
0100
0000
,  // measure 44
0001
0100
0010
0000
1000
0100
0010
0000
0100
1000
0010
0000
0001
0100
0010
0000
,  // measure 45
0001
0100
0001
0000
1000
0010
1000
0000
1000
0001
1000
0000
0100
0010
0100
0000
,  // measure 46
0001
0010
0001
0000
1000
0010
0100
0000
0100
0001
0100
0000
1000
0010
0100
0000
,  // measure 47
0001
0100
0010
0000
0100
1000
0010
0000
0001
0100
0010
0000
0001
0100
0010
0000
,  // measure 48
1000
0010
0100
0000
0001
0100
0010
0000
0001
0100
0001
0000
0001
0100
0001
0000
,  // measure 49
0001
0100
0101
0000
1000
0100
1100
0000
0010
0100
0110
0000
0001
1000
1001
0000
,  // measure 50
0100
0010
0110
0000
1000
0100
1100
0000
0001
0100
1100
0000
0010
0100
1100
0000
,  // measure 51
0010
0100
1100
0000
0010
0001
0101
0000
0100
0010
1100
0000
0010
0001
1001
0000
,  // measure 52
0100
1000
1001
0000
0010
0001
0101
0000
0100
0010
0101
0000
0100
1000
0110
0000
,  // measure 53
1000
0100
0010
0100
0001
0100
0010
1000
0100
0001
0100
0010
0001
0100
0010
1000
,  // measure 54
0100
0010
0100
0001
0100
0010
0100
1000
0100
0001
0100
0010
0100
0001
0100
0010
,  // measure 55
1000
0100
0010
0100
0001
0010
0100
0010
0100
1000
0010
0100
0001
0100
0010
0001
,  // measure 56
1000
0001
1000
0001
1000
0001
1000
0001
1000
1000
0010
1000
0010
1000
0010
1000
0001
1000
0001
1000
0001
1000
0100
1000
0100
1000
0100
1000
0100
1000
0001
1000
,  // measure 57
2002
0000
0000
0000
,  // measure 58
3003
0000
0000
0000
;

//---------------dance-single - ----------------
#NOTES:
     dance-single:
     :
     Medium:
     8:
     0.613,0.635,0.825,0.602,0.000,257.000,74.000,54.000,0.000,0.000:  // measure 1
0000
0000
0000
0000
,  // measure 2
0000
0000
0000
0000
,  // measure 3
0000
0000
0000
0000
,  // measure 4
0000
0000
0000
0000
,  // measure 5
1000
0100
0010
0001
0000
2002
0000
3003
,  // measure 6
1000
0100
0010
0001
0000
2002
0000
3003
,  // measure 7
1000
0100
0010
0000
0001
0010
0100
0000
,  // measure 8
2000
3000
0200
0300
0020
0030
0002
0003
,  // measure 9
1000
0100
0010
0001
,  // measure 10
0010
0000
0100
0000
1000
0000
0001
0001
,  // measure 11
0001
0100
0010
1000
,  // measure 12
0100
0000
0010
0000
0001
0000
0100
0100
,  // measure 13
0100
0010
0100
1000
,  // measure 14
0010
0000
0100
0000
0001
0000
1000
1000
,  // measure 15
1000
0001
0100
0010
,  // measure 16
1000
0000
0100
0000
0010
0000
1000
1000
,  // measure 17
1000
0100
0010
0100
,  // measure 18
1000
0000
0010
0000
0100
0000
0001
0001
,  // measure 19
0001
0100
0010
1000
,  // measure 20
0100
0000
0010
0000
0100
0000
1000
1000
,  // measure 21
1000
0100
0010
0001
0000
2002
0000
3003
,  // measure 22
0001
0010
0100
1000
0000
2002
0000
3003
,  // measure 23
1000
0001
1000
0000
0001
1000
0001
0000
,  // measure 24
2000
3000
0200
0300
0020
0030
0002
0003
,  // measure 25
1000
0100
0010
0001
0000
2002
0000
3003
,  // measure 26
0010
0100
0010
0100
0000
0220
0000
0330
,  // measure 27
0001
0100
0001
0100
0000
0202
0000
0303
,  // measure 28
1000
0100
1000
0100
0000
2200
0000
3300
,  // measure 29
0001
1000
0001
1000
0000
2002
0000
3003
,  // measure 30
1000
0001
1000
0001
0000
2002
0000
3003
,  // measure 31
0100
0001
0100
1000
0000
2200
0000
3300
,  // measure 32
0001
0100
1000
0100
0000
0202
0000
0303
,  // measure 33
1000
0010
0100
0001
0000
0202
0000
0303
,  // measure 34
1000
0100
0010
0001
0000
2002
0000
3003
,  // measure 35
0001
0010
0100
1000
0000
2002
0000
3003
,  // measure 36
0100
0010
0100
1000
0000
2200
0000
3300
,  // measure 37
0001
0100
0001
0100
0000
0202
0000
0303
,  // measure 38
1000
0100
0010
0100
0000
2002
0000
3003
,  // measure 39
1000
0100
0010
0000
0001
0010
0100
0000
,  // measure 40
2000
3000
0200
0300
0020
0030
0002
0003
,  // measure 41
1100
1010
0011
0101
,  // measure 42
1100
0000
0110
0000
1001
0000
1100
1100
,  // measure 43
1100
0101
1001
0110
,  // measure 44
1010
0000
0110
0000
1001
0000
0101
0101
,  // measure 45
0101
1010
1100
0101
,  // measure 46
1010
0000
0101
0000
0110
0000
1100
1100
,  // measure 47
1100
0101
0110
1010
,  // measure 48
0101
0000
0110
0000
1100
0000
0110
0110
,  // measure 49
0110
0101
0110
1100
,  // measure 50
0110
0000
1001
0000
0011
0000
1001
1001
,  // measure 51
1001
0110
1001
1010
,  // measure 52
0101
0000
0110
0000
1010
0000
0101
0101
,  // measure 53
0101
1000
0100
0010
0001
0010
0100
1000
,  // measure 54
0100
0010
0001
0010
0100
1000
0100
0010
,  // measure 55
0001
0010
0100
1000
0100
0010
0001
0010
,  // measure 56
2000
3000
0200
0300
0020
0030
0002
0003
,  // measure 57
2002
0000
0000
0000
,  // measure 58
3003
0000
0000
0000
;

//---------------dance-single - Easy Edit----------------
#NOTES:
     dance-single:
     Easy Edit:
     Edit:
     5:
     0.400,0.540,0.234,0.602,0.000,176.000,21.000,54.000,0.000,0.000:  // measure 1
0000
0000
0000
0000
,  // measure 2
0000
0000
0000
0000
,  // measure 3
0000
0000
0000
0000
,  // measure 4
0000
0000
0000
0000
,  // measure 5
2020
0000
0000
3030
,  // measure 6
2002
0000
0000
3003
,  // measure 7
2020
3030
2002
3003
,  // measure 8
2000
3000
0200
0300
0020
0030
0002
0003
,  // measure 9
1000
0100
0010
0100
,  // measure 10
0001
0010
0100
1000
,  // measure 11
0100
0010
0100
0001
,  // measure 12
0100
0010
0100
1000
,  // measure 13
0010
0100
0001
0100
,  // measure 14
0010
0100
1000
0100
,  // measure 15
0010
0100
0001
0100
,  // measure 16
0010
0100
1000
0010
,  // measure 17
0220
0330
0100
0010
,  // measure 18
0100
1000
0010
0100
,  // measure 19
2002
3003
0100
0010
,  // measure 20
0001
0010
0100
1000
,  // measure 21
0220
0000
0000
0330
,  // measure 22
2200
0000
0000
3300
,  // measure 23
0202
0303
2200
3300
,  // measure 24
2000
3000
0200
0300
0020
0030
0002
0003
,  // measure 25
1000
0100
0010
0100
,  // measure 26
0001
0100
0010
0100
,  // measure 27
1000
0100
0001
0100
,  // measure 28
0010
0100
0001
0100
,  // measure 29
0010
1000
0010
0100
,  // measure 30
0001
0100
0010
0100
,  // measure 31
1000
0100
0010
0001
,  // measure 32
0010
0100
1000
0010
,  // measure 33
0220
0330
0100
0010
,  // measure 34
1000
0010
0100
0001
,  // measure 35
0100
0010
0100
0010
,  // measure 36
0100
0001
0100
0010
,  // measure 37
2002
0000
0000
3003
,  // measure 38
2020
0000
0000
3030
,  // measure 39
0202
0303
2200
3300
,  // measure 40
2000
3000
0200
0300
0020
0030
0002
0003
,  // measure 41
1000
0100
0010
0001
,  // measure 42
0010
0100
1000
0010
,  // measure 43
0100
0001
0100
0010
,  // measure 44
1000
0100
0010
0100
,  // measure 45
0001
0100
0010
1000
,  // measure 46
0100
0001
0100
0010
,  // measure 47
0100
1000
0100
0010
,  // measure 48
0001
1000
0100
0010
,  // measure 49
0202
0303
1000
0100
,  // measure 50
0010
0100
0001
0100
,  // measure 51
0010
0100
0010
0100
,  // measure 52
1000
0100
0010
0100
,  // measure 53
0220
0000
0000
0330
,  // measure 54
2200
0000
0000
3300
,  // measure 55
0202
0303
2020
3030
,  // measure 56
0001
0010
0100
1000
0100
0010
0001
0000
,  // measure 57
2002
0000
0000
0000
,  // measure 58
3003
0000
0000
0000
;

//---------------dance-single - ----------------
#NOTES:
     dance-single:
     :
     Easy:
     2:
     0.400,0.540,0.234,0.602,0.000,176.000,21.000,54.000,0.000,0.000:  // measure 1
0000
0000
0000
0000
,  // measure 2
0000
0000
0000
0000
,  // measure 3
0000
0000
0000
0000
,  // measure 4
0000
0000
0000
0000
,  // measure 5
2020
0000
0000
3030
,  // measure 6
2002
0000
0000
3003
,  // measure 7
2020
3030
2002
3003
,  // measure 8
2000
3000
0200
0300
0020
0030
0002
0003
,  // measure 9
1000
0100
0010
0100
,  // measure 10
0001
0010
0100
1000
,  // measure 11
0100
0010
0100
0001
,  // measure 12
0100
0010
0100
1000
,  // measure 13
0010
0100
0001
0100
,  // measure 14
0010
0100
1000
0100
,  // measure 15
0010
0100
0001
0100
,  // measure 16
0010
0100
1000
0010
,  // measure 17
0220
0330
0100
0010
,  // measure 18
0100
1000
0010
0100
,  // measure 19
2002
3003
0100
0010
,  // measure 20
0001
0010
0100
1000
,  // measure 21
0220
0000
0000
0330
,  // measure 22
2200
0000
0000
3300
,  // measure 23
0202
0303
2200
3300
,  // measure 24
2000
3000
0200
0300
0020
0030
0002
0003
,  // measure 25
1000
0100
0010
0100
,  // measure 26
0001
0100
0010
0100
,  // measure 27
1000
0100
0001
0100
,  // measure 28
0010
0100
0001
0100
,  // measure 29
0010
1000
0010
0100
,  // measure 30
0001
0100
0010
0100
,  // measure 31
1000
0100
0010
0001
,  // measure 32
0010
0100
1000
0010
,  // measure 33
0220
0330
0100
0010
,  // measure 34
1000
0010
0100
0001
,  // measure 35
0100
0010
0100
0010
,  // measure 36
0100
0001
0100
0010
,  // measure 37
2002
0000
0000
3003
,  // measure 38
2020
0000
0000
3030
,  // measure 39
0202
0303
2200
3300
,  // measure 40
2000
3000
0200
0300
0020
0030
0002
0003
,  // measure 41
1000
0100
0010
0001
,  // measure 42
0010
0100
1000
0010
,  // measure 43
0100
0001
0100
0010
,  // measure 44
1000
0100
0010
0100
,  // measure 45
0001
0100
0010
1000
,  // measure 46
0100
0001
0100
0010
,  // measure 47
0100
1000
0100
0010
,  // measure 48
0001
1000
0100
0010
,  // measure 49
0202
0303
1000
0100
,  // measure 50
0010
0100
0001
0100
,  // measure 51
0010
0100
0010
0100
,  // measure 52
1000
0100
0010
0100
,  // measure 53
0220
0000
0000
0330
,  // measure 54
2200
0000
0000
3300
,  // measure 55
0202
0303
2020
3030
,  // measure 56
0001
0010
0100
1000
0100
0010
0001
0000
,  // measure 57
2002
0000
0000
0000
,  // measure 58
3003
0000
0000
0000
;

//---------------dance-single - ----------------
#NOTES:
     dance-single:
     :
     Beginner:
     3:
     0.210,0.572,0.724,0.022,0.000,65.000,65.000,2.000,0.000,0.000:  // measure 1
0000
0000
0000
0000
,  // measure 2
0000
0000
0000
0000
,  // measure 3
0000
0000
0000
0000
,  // measure 4
0000
0000
0000
0000
,  // measure 5
1001
0000
0000
0000
,  // measure 6
0110
0000
0000
0000
,  // measure 7
1010
0000
0000
0000
,  // measure 8
0101
0000
0000
0000
,  // measure 9
0110
0000
0000
0000
,  // measure 10
1010
0000
0000
0000
,  // measure 11
0101
0000
0000
0000
,  // measure 12
1010
0000
0000
0000
,  // measure 13
0101
0000
0000
0000
,  // measure 14
1010
0000
0000
0000
,  // measure 15
0110
0000
0000
0000
,  // measure 16
0101
0000
0000
0000
,  // measure 17
1010
0000
0000
0000
,  // measure 18
0110
0000
0000
0000
,  // measure 19
0101
0000
0000
0000
,  // measure 20
1010
0000
0000
0000
,  // measure 21
0110
0000
0000
0000
,  // measure 22
0101
0000
0000
0000
,  // measure 23
1001
0000
0000
0000
,  // measure 24
1010
0000
0000
0000
,  // measure 25
1100
0000
0000
0000
,  // measure 26
1001
0000
0000
0000
,  // measure 27
0110
0000
0000
0000
,  // measure 28
0011
0000
0000
0000
,  // measure 29
0110
0000
0000
0000
,  // measure 30
1100
0000
0000
0000
,  // measure 31
0101
0000
0000
0000
,  // measure 32
1010
0000
0000
0000
,  // measure 33
0110
0000
0000
0000
,  // measure 34
0101
0000
0000
0000
,  // measure 35
1100
0000
0000
0000
,  // measure 36
0110
0000
0000
0000
,  // measure 37
0101
0000
0000
0000
,  // measure 38
1010
0000
0000
0000
,  // measure 39
0110
0000
0000
0000
,  // measure 40
0101
0000
0000
0000
,  // measure 41
0110
0000
0000
0000
,  // measure 42
1100
0000
0000
0000
,  // measure 43
0110
0000
0000
0000
,  // measure 44
0101
0000
0000
0000
,  // measure 45
1010
0000
0000
0000
,  // measure 46
0110
0000
0000
0000
,  // measure 47
0101
0000
0000
0000
,  // measure 48
0110
0000
0000
0000
,  // measure 49
1100
0000
0000
0000
,  // measure 50
0110
0000
0000
0000
,  // measure 51
0101
0000
0000
0110
,  // measure 52
0000
0000
0000
0000
,  // measure 53
1010
0101
0110
0110
,  // measure 54
1100
0110
0101
1010
,  // measure 55
0110
0101
0110
1100
,  // measure 56
0110
0101
1010
0110
,  // measure 57
2002
0000
0000
0000
,  // measure 58
3003
0000
0000
0000
;
