#TITLE:The Hills;
#SUBTITLE:;
#ARTIST:The Weeknd;
#TITLETRANSLIT:;
#SUBTITLETRANSLIT:;
#ARTISTTRANSLIT:;
#CREDIT:owenviau1;
#BANNER:../BN.PNG;
#BACKGROUND:;
#LYRICSPATH:;
#CDTITLE:../CDTitleOV1.png;
#MUSIC:The Weeknd - The Hills.ogg;
#OFFSET:-0.168;
#SAMPLESTART:131.839;
#SAMPLELENGTH:29.999;
#SELECTABLE:YES;
#BPMS:0.000=113.000;
#STOPS:;
#BGCHANGES:;
// cache tags:
#FIRSTBEAT:0.000;
#LASTBEAT:439.500;
#SONGFILENAME:Songs/owenviau1 Simfiles 07_final/The Hills - [owenviau1] v1.0.0/The Hills.sm;
#HASMUSIC:1;
#HASBANNER:1;
#MUSICLENGTH:234.266;
// end cache tags

//---------------dance-single - owenviau1----------------
#NOTES:
     dance-single:
     owenviau1:
     Hard:
     14:
     0.935,1.000,0.085,0.269,1.000,1448.000,20.000,63.000,14.000,0.000:

2000
0000
0000
30M0
,
0002
0000
0000
0M03
,
0020
0000
0000
0M30
,
0002
0000
0000
0003
,
1000
0010
0100
0010
1000
0001
0010
0100
,
2000
0000
0000
0000
3020
0000
0000
0000
0030
0000
0000
0000
0000
0M00
0000
0000
,
1000
0010
0100
0001
1000
0001
0010
0100
,
2000
0000
0000
0000
3020
0000
0000
0000
0030
0000
0000
0000
0000
M000
0000
0000
,
0100
0001
1000
0001
0010
0100
1000
0001
,
0200
0000
0000
0000
0320
0000
0000
0000
0030
0000
0000
0000
0000
M000
0100
0000
,
0001
1000
0100
1000
0040
0130
0001
1000
,
0200
0000
0000
0000
0320
0000
0000
0030
0000
0000
0000
000M
0000
0000
0000
0000
,
0001
0000
1000
0000
0010
0000
0100
0000
0011
0000
0001
0000
1000
0000
0020
0030
,
1000
0001
0010
0100
1001
4000
3010
0100
,
0001
1000
0100
1000
0011
0001
0100
0010
,
1000
0010
0100
0001
0010
0400
1300
0010
,
0100
0000
0001
0000
1000
0000
0100
0000
0110
0000
0010
0000
0001
0000
2000
3000
,
0010
1000
0001
0010
0110
0400
1300
0001
,
0100
0000
0010
0000
1000
0000
0001
0000
0011
0000
0020
0030
0100
0000
1000
0000
,
0001
0100
0010
0100
0002
0000
0003
0000
,
0000
1000
0100
0010
0001
0100
0010
1000
,
0001
0010
0100
1000
0001
1000
0010
0100
0001
0100
0010
1000
0001
1000
0100
0010
0001
0100
0010
0100
0001
1000
0010
1000
,
0001
0100
0001
0010
0100
1000
0001
0010
0001
1000
0010
0100
0010
1000
0001
0100
0001
0010
0100
1000
0001
0100
0010
1000
,
0010
0100
0001
1000
0010
1000
0001
0010
0001
0100
0010
0100
0001
1000
0010
1000
0100
0010
0001
0100
0010
1000
0001
0100
,
0001
0010
0100
1000
0010
1000
0001
0010
0001
0100
0010
1000
0001
0100
0001
1000
0100
0010
0001
1000
0010
1000
0001
0100
,
0001
1000
0100
0010
0001
1000
0100
1000
0001
0100
0010
1000
0001
0100
0001
0010
0100
1000
0001
0010
0001
1000
0010
0100
,
0001
1000
0100
1000
0001
0100
0010
1000
0010
0100
0001
1000
0100
0010
0001
1000
0001
0010
0100
1000
0001
0100
0001
1000
,
0010
0100
0001
1000
0100
1000
0001
0010
0100
1000
0001
0100
0001
1000
0100
0010
0001
1000
0100
1000
0001
0100
0010
0100
,
0001
1000
0010
1000
0100
0010
0001
1000
0010
0100
0001
1000
0001
0000
0000
0010
0000
0000
0100
0000
0000
1000
0000
0000
,
0010
1000
0001
0100
0001
1000
0100
0010
0001
1000
0100
1000
0001
0100
0010
0100
0001
1000
0010
1000
0100
0010
0001
1000
,
0100
1000
0001
0100
0010
1000
0001
0100
0001
1000
0100
0010
0001
1000
0100
1000
0010
0100
0001
1000
0100
0010
0001
1000
,
0100
1000
0001
0100
0010
0100
0001
1000
0010
1000
0001
0010
0001
0100
0010
0100
0001
1000
0010
1000
0001
0100
0001
1000
,
0100
0010
0001
1000
0100
1000
0010
0100
0001
0100
0010
1000
0010
0100
0001
1000
0100
1000
0001
0010
0001
1000
0100
0010
,
0001
1000
0100
1000
0001
0100
0010
0100
0001
1000
0010
1000
0001
0010
0001
1000
0100
1000
0010
0100
0001
0100
0010
1000
,
0001
0010
0100
1000
0010
0100
0001
1000
0100
1000
0010
0100
0001
1000
0001
0010
0100
1000
0001
0010
0001
1000
0100
1000
,
0001
0100
0010
0100
0001
1000
0100
1000
0010
0100
0001
1000
0100
0010
0001
1000
0010
0100
0010
1000
0001
0100
0001
1000
,
0100
1000
0010
0100
0001
1000
0001
0010
0100
1000
0001
0100
0002
0000
0000
0000
0000
0000
0003
0000
0000
0000
0000
0000
,
1000
0010
0100
0001
0200
0300
0010
1000
,
0002
0000
0000
0000
0000
0000
0000
0000
0000
0003
0000
0000
0020
0000
0000
0000
0000
0000
0000
0000
0000
0000
0000
0000
0030
0000
0000
0000
0000
0000
0000
0000
0000
0000
0000
0000
0000
0000
0000
0000
0M00
0000
0000
0000
0000
0000
0000
0000
,
0001
0010
0001
1000
0010
1000
0100
0010
,
0002
0000
0000
0003
2000
0000
0000
0000
0000
0000
0000
3000
0000
0000
00M0
0000
,
0001
0100
0010
0100
0001
1000
0010
1000
,
0200
0000
0320
0030
0000
0000
0M00
0001
,
1000
0010
0100
0010
1000
0001
0010
0100
,
2000
0000
0000
3000
0020
0000
0000
0000
0030
0000
0000
0000
0000
0000
0M00
0000
,
1000
0000
0001
0000
0010
0000
0100
0000
1100
0000
1000
0000
0010
0000
0200
0300
,
0001
1000
0010
0100
0101
0004
0013
0100
,
1000
0000
0001
0000
1000
0000
0010
0000
0110
0000
0100
0000
0001
0000
2000
3000
,
0100
0000
0010
0000
0001
0000
1000
0000
0020
0000
0430
0000
0301
0000
2000
3000
,
0100
0000
0010
0000
0001
0000
1000
0000
1100
0000
0100
0000
0010
0000
0002
0003
,
1000
0010
1000
0001
0011
0040
0130
1000
,
0010
0000
0100
0000
0010
0000
1000
0000
1001
0000
0002
0003
0010
0000
0100
0000
,
1000
0010
0100
0010
2002
0000
3003
0000
,
0000
1000
0100
0010
0001
1000
0010
0100
,
0001
1000
0010
1000
0100
0010
0001
1000
0100
1000
0010
0100
0001
0100
0010
1000
0001
1000
0010
0100
0001
1000
0100
0010
,
0001
1000
0001
0100
0010
1000
0010
0100
0001
1000
0001
0010
0100
1000
0001
0010
0001
1000
0100
1000
0010
0100
0001
0100
,
0010
1000
0001
0010
0100
1000
0001
0010
0001
0100
0010
1000
0001
0100
0001
1000
0010
0100
0010
1000
0001
0100
0001
1000
,
0100
0010
0001
1000
0010
1000
0100
0010
0001
0100
0010
0100
0001
1000
0010
1000
0001
0010
0001
0100
0010
0100
0001
1000
,
0010
1000
0100
0010
0001
1000
0100
1000
0010
0100
0010
1000
0001
0100
0001
0010
0100
1000
0001
0100
0010
1000
0010
0100
,
0001
1000
0100
0010
0001
1000
0010
0100
0010
1000
0001
0010
0100
1000
0001
0010
0001
1000
0010
0100
0010
1000
0001
0100
,
0001
1000
0010
0100
0001
1000
0100
1000
0001
0010
0100
1000
0001
0100
0001
1000
0010
0100
0010
1000
0001
0010
0001
1000
,
0100
1000
0010
0100
0001
1000
0100
0010
0001
1000
0010
0100
0001
0000
0000
0100
0000
0000
0010
0000
0000
1000
0000
0000
,
0001
0100
0010
0100
0001
1000
0010
0100
0001
0100
0010
1000
0001
1000
0100
0010
0001
0100
0010
0100
0001
1000
0010
1000
,
0001
0100
0001
0010
0100
1000
0001
0010
0001
1000
0010
0100
0010
1000
0001
0100
0001
0010
0100
1000
0001
0100
0010
1000
,
0010
0100
0001
1000
0010
1000
0001
0010
0001
0100
0010
0100
0001
1000
0010
1000
0100
0010
0001
0100
0010
1000
0001
0100
,
0001
0010
0100
1000
0010
1000
0001
0010
0001
0100
0010
1000
0001
0100
0001
1000
0100
0010
0001
1000
0010
1000
0001
0100
,
0001
1000
0100
0010
0001
1000
0100
1000
0001
0100
0010
1000
0001
0100
0001
0010
0100
1000
0001
0010
0001
1000
0010
0100
,
0001
1000
0100
1000
0001
0100
0010
1000
0010
0100
0001
1000
0100
0010
0001
1000
0001
0010
0100
1000
0001
0100
0001
1000
,
0010
0100
0001
1000
0100
1000
0001
0010
0100
1000
0001
0100
0001
1000
0100
0010
0001
1000
0100
1000
0001
0100
0010
0100
,
0001
1000
0010
1000
0100
0010
0001
1000
0010
0100
0001
1000
0002
0000
0000
0000
0000
0000
0003
0000
0000
0000
0000
0000
,
1000
0000
0010
0000
0100
0002
1000
0023
,
0000
0000
0130
1000
0001
0020
0001
2030
,
0100
0000
0010
0000
0001
3020
0031
0200
,
0000
0000
0010
0300
0001
0000
2000
0000
,
3020
0000
0100
0000
1000
0000
0130
0001
,
2000
0000
0000
0000
0010
0000
0000
0000
3010
0000
0000
0000
0200
0000
0000
0300
,
0002
0000
1000
0000
0010
0000
0103
0010
,
2000
0000
0001
0000
0010
0000
3002
0023
,
0230
0000
0000
0000
1300
000M
0000
0000
0010
0000
0000
0100
0000
0000
0001
0000
,
1000
0000
0000
0100
0000
0000
1000
0000
0010
0000
0000
0100
0000
0000
0002
0000
,
1003
0000
0000
0010
0000
0000
0100
0000
0000
0000
0002
0000
2003
0000
3200
0000
,
2300
0000
0000
0000
3020
0000
003M
0000
M000
0000
0000
0000
0100
0020
0000
0030
,
2000
3100
0010
0001
1000
0010
0100
0010
,
1000
0001
0100
0001
0010
0100
1000
0001
,
0100
0010
1000
0001
1000
0100
0010
0001
,
1000
0000
0000
0010
0000
0000
0100
0000
0000
0001
0000
0000
1000
0000
0000
0100
0000
0000
1000
0000
0000
0010
0000
0000
0100
0000
0001
0000
1000
0000
0100
0000
1000
0000
0010
0000
0100
0000
0001
0000
1000
0000
0100
0000
0010
0000
0001
0000
,
1000
0010
1000
0001
0100
0010
1000
0001
0100
0001
1000
0100
0010
0001
1000
0100
1000
0010
0100
0001
1000
0010
0100
0001
,
0010
0001
1000
0100
1000
0010
0100
0001
1000
0100
0010
0001
1000
0100
1000
0001
0100
0010
0100
0001
1000
0010
0100
0001
,
0100
0010
1000
0001
1000
0100
0010
0001
0100
0010
0100
0001
1000
0010
1000
0001
0100
0001
1000
0010
0100
0010
1000
0001
,
0010
0001
0100
0010
0100
0001
1000
0010
1000
0001
0100
0010
0100
0001
1000
0100
0010
0001
1000
0010
1000
0001
0100
0010
,
1000
0001
0100
0001
0010
0100
1000
0010
0100
0010
1000
0001
0100
0001
1000
0010
0100
0010
1000
0001
0010
0001
1000
0100
,
1000
0010
0100
0001
1000
0100
1000
0001
0100
0010
1000
0001
0010
0001
1000
0100
0010
0001
1000
0010
0100
0001
0100
0010
,
1000
0001
1000
0100
0010
0001
1000
0100
1000
0001
0100
0010
0100
0001
1000
0010
1000
0001
0100
0001
0010
0100
1000
0010
,
0100
0001
0100
0010
1000
0001
1000
0100
0010
0001
1000
0001
0010
0000
0000
0100
0000
0000
1000
0000
0000
0010
0000
0000
,
1000
0010
0100
0001
0100
0010
1000
0001
1000
0100
0010
0001
0100
0010
0100
0001
1000
0010
1000
0001
0100
0001
0010
0100
,
1000
0001
0010
0001
1000
0010
0100
0010
1000
0001
0100
0001
0010
0100
1000
0001
0100
0010
1000
0010
0100
0001
1000
0010
,
1000
0001
0010
0001
0100
0010
0100
0001
1000
0010
1000
0100
0010
0001
0100
0010
1000
0001
0100
0001
0010
0100
1000
0010
,
1000
0001
0010
0001
0100
0010
1000
0001
0100
0001
1000
0100
0010
0001
1000
0010
1000
0001
0100
0001
1000
0100
0010
0001
,
1000
0100
1000
0001
0100
0010
1000
0001
0100
0001
0010
0100
1000
0001
0010
0001
1000
0010
0100
0001
1000
0100
1000
0001
,
0100
0010
1000
0010
0100
0001
1000
0100
0010
0001
1000
0001
0010
0100
1000
0001
0100
0001
1000
0010
0100
0001
1000
0100
,
1000
0001
0010
0100
1000
0001
0100
0001
1000
0100
0010
0001
1000
0100
1000
0001
0100
0010
0100
0001
1000
0010
1000
0100
,
0010
0001
1000
0010
0100
0001
1000
0100
1000
0010
0100
0001
2000
0000
0000
0000
0000
0000
3000
0000
0000
0000
0000
0000
,
0100
0000
0000
0000
0000
0000
0000
0000
0000
0000
0000
0000
0010
0000
0000
0000
0000
0000
0000
0000
0010
0000
0000
0000
0002
0000
0000
0000
0000
0000
0000
0000
0000
0003
0000
0000
1000
0000
0000
0000
0000
0000
0000
0000
0000
0000
0000
0000
,
0100
0000
0000
0000
1000
0000
0000
0010
0100
0000
0001
0000
1000
0000
0000
0000
,
0100
0000
0010
0001
0000
0000
1000
0000
0010
0000
0000
0000
0100
0000
0000
0000
,
0001
0000
0000
0000
1000
0000
0000
0000
0100
0000
0000
0000
0020
0030
0000
0000
,
0004
0003
0000
0000
1000
0000
0000
0000
0010
0000
0000
0000
0100
0000
0000
0000
,
0010
0000
0000
0000
1000
0000
0000
0000
0001
0000
0000
0000
0200
0300
0000
0000
,
0004
0003
0000
0000
1000
0000
0000
0000
0100
0000
0000
0000
0010
0000
0000
0000
,
0001
0000
0100
0000
0200
0000
0000
0300
;

//---------------dance-single - owenviau1----------------
#NOTES:
     dance-single:
     owenviau1:
     Challenge:
     18:
     1.000,1.000,0.085,0.269,1.000,1811.000,20.000,63.000,14.000,0.000:

2000
0000
0000
30M0
,
0002
0000
0000
0M03
,
0020
0000
0000
0M30
,
0002
0000
0000
0003
,
1000
0010
0100
0010
1000
0001
0010
0100
,
2000
0000
0000
0000
3020
0000
0000
0000
0030
0000
0000
0000
0000
0M00
0000
0000
,
1000
0010
0100
0001
1000
0001
0010
0100
,
2000
0000
0000
0000
3020
0000
0000
0000
0030
0000
0000
0000
0000
M000
0000
0000
,
0100
0001
1000
0001
0010
0100
1000
0001
,
0200
0000
0000
0000
0320
0000
0000
0000
0030
0000
0000
0000
0000
M000
0100
0000
,
0001
1000
0100
1000
0040
0130
0001
1000
,
0200
0000
0000
0000
0320
0000
0000
0030
0000
0000
0000
000M
0000
0000
0000
0000
,
0001
0000
1000
0000
0010
0000
0100
0000
0011
0000
0001
0000
1000
0000
0020
0030
,
1000
0001
0010
0100
1001
4000
3010
0100
,
0001
1000
0100
1000
0011
0001
0100
0010
,
1000
0010
0100
0001
0010
0400
1300
0010
,
0100
0000
0001
0000
1000
0000
0100
0000
0110
0000
0010
0000
0001
0000
2000
3000
,
0010
1000
0001
0010
0110
0400
1300
0001
,
0100
0000
0010
0000
1000
0000
0001
0000
0011
0000
0020
0030
0100
0000
1000
0000
,
0001
0100
0010
0100
0002
0000
0003
0000
,
0000
1000
0100
0010
0001
0100
0010
1000
,
0001
0010
0100
1000
0001
0100
0010
0100
0001
1000
0010
1000
0100
0010
0001
0100
0010
0100
0001
1000
0010
1000
0001
0100
0001
0010
0100
1000
0010
0100
0001
1000
,
0100
1000
0010
0100
0010
1000
0001
0100
0001
0010
0100
1000
0001
0100
0001
1000
0010
0100
0001
1000
0100
0010
0001
0100
0010
0100
0001
1000
0010
0100
0001
1000
,
0100
1000
0001
0100
0010
1000
0001
0010
0001
0100
0010
1000
0010
0100
0001
1000
0100
1000
0001
0100
0010
0100
0001
1000
0010
1000
0100
0010
0001
1000
0100
1000
,
0010
0100
0001
0100
0010
1000
0001
1000
0010
0100
0001
1000
0100
0010
0001
1000
0100
1000
0001
0100
0010
0100
0001
1000
0010
1000
0100
0010
0001
1000
0010
0100
,
0010
1000
0001
0100
0001
0010
0100
1000
0001
0010
0001
0100
0010
0100
0001
1000
0010
1000
0100
0010
0001
0100
0010
0100
0001
1000
0010
1000
0100
0010
0001
1000
,
0010
0100
0001
1000
0001
0010
0100
1000
0001
0100
0010
0100
0001
1000
0100
1000
0010
0100
0001
1000
0100
0010
0001
1000
0001
0100
0010
0100
0001
1000
0100
1000
,
0010
0100
0001
0010
0001
1000
0100
0010
0001
1000
0010
1000
0001
0100
0010
1000
0001
0010
0100
1000
0001
0010
0001
1000
0010
0100
0010
1000
0001
0100
0001
1000
,
0100
1000
0010
0100
0010
1000
0001
0010
0001
1000
0100
0010
0001
0100
0010
1000
0001
0000
0000
0000
0010
0000
0000
0000
0100
0000
0000
0000
1000
0000
0000
0000
,
0010
0100
0001
1000
0100
0010
0001
1000
0010
1000
0001
0100
0010
0100
0001
1000
0100
1000
0010
0100
0001
1000
0100
0010
0001
1000
0010
1000
0001
0100
0010
0100
,
0001
1000
0100
0010
0001
1000
0010
0100
0001
0100
0010
1000
0100
1000
0001
0100
0001
0010
0100
1000
0001
0100
0010
0100
0001
1000
0010
1000
0100
0010
0001
0100
,
0010
0100
0001
1000
0010
1000
0001
0100
0001
0010
0100
1000
0010
0100
0001
1000
0100
1000
0010
0100
0010
1000
0001
0100
0001
0010
0100
1000
0001
0100
0001
1000
,
0010
0100
0001
1000
0100
0010
0001
0100
0010
0100
0001
1000
0010
0100
0001
1000
0100
1000
0001
0100
0010
1000
0001
0010
0001
0100
0010
1000
0010
0100
0001
1000
,
0100
1000
0001
0100
0010
0100
0001
1000
0010
1000
0100
0010
0001
1000
0100
1000
0010
0100
0001
0100
0010
1000
0001
1000
0010
0100
0001
1000
0100
0010
0001
1000
,
0100
1000
0001
0100
0010
0100
0001
1000
0010
1000
0100
0010
0001
1000
0010
0100
0010
1000
0001
0100
0001
0010
0100
1000
0001
0010
0001
0100
0010
0100
0001
1000
,
0010
1000
0100
0010
0001
0100
0010
0100
0001
1000
0010
1000
0100
0010
0001
1000
0010
0100
0001
1000
0001
0010
0100
1000
0001
0100
0010
0100
0001
1000
0100
1000
,
0010
0100
0001
1000
0100
0010
0001
1000
0001
0100
0010
0100
0001
1000
0100
0010
0002
0000
0000
0000
0000
0000
0000
0000
0003
0000
0000
0000
0000
0000
0000
0000
,
1000
0010
0100
0001
0200
0300
0010
1000
,
0002
0000
0000
0000
0000
0000
0000
0000
0000
0003
0000
0000
0020
0000
0000
0000
0000
0000
0000
0000
0000
0000
0000
0000
0030
0000
0000
0000
0000
0000
0000
0000
0000
0000
0000
0000
0000
0000
0000
0000
0M00
0000
0000
0000
0000
0000
0000
0000
,
0001
0010
0001
1000
0010
1000
0100
0010
,
0002
0000
0000
0003
2000
0000
0000
0000
0000
0000
0000
3000
0000
0000
00M0
0000
,
0001
0100
0010
0100
0001
1000
0010
1000
,
0200
0000
0320
0030
0000
0000
0M00
0001
,
1000
0010
0100
0010
1000
0001
0010
0100
,
2000
0000
0000
3000
0020
0000
0000
0000
0030
0000
0000
0000
0000
0000
0M00
0000
,
1000
0000
0001
0000
0010
0000
0100
0000
1100
0000
1000
0000
0010
0000
0200
0300
,
0001
1000
0010
0100
0101
0004
0013
0100
,
1000
0000
0001
0000
1000
0000
0010
0000
0110
0000
0100
0000
0001
0000
2000
3000
,
0100
0000
0010
0000
0001
0000
1000
0000
0020
0000
0430
0000
0301
0000
2000
3000
,
0100
0000
0010
0000
0001
0000
1000
0000
1100
0000
0100
0000
0010
0000
0002
0003
,
1000
0010
1000
0001
0011
0040
0130
1000
,
0010
0000
0100
0000
0010
0000
1000
0000
1001
0000
0002
0003
0010
0000
0100
0000
,
1000
0010
0100
0010
2002
0000
3003
0000
,
0000
1000
0100
0010
0001
1000
0010
0100
,
0001
1000
0010
0100
0001
1000
0100
0010
0001
1000
0010
1000
0100
0010
0001
1000
0010
0100
0001
1000
0010
1000
0001
0100
0001
0010
0100
1000
0010
0100
0001
1000
,
0100
1000
0010
0100
0010
1000
0001
0100
0001
0010
0100
1000
0001
0100
0001
1000
0010
0100
0001
1000
0100
0010
0001
0100
0010
0100
0001
1000
0010
0100
0001
1000
,
0100
1000
0001
0100
0010
1000
0001
0010
0001
0100
0010
1000
0010
0100
0001
1000
0100
1000
0001
0100
0010
0100
0001
1000
0010
1000
0100
0010
0001
1000
0100
1000
,
0010
0100
0001
0100
0010
1000
0001
1000
0010
0100
0001
1000
0100
0010
0001
1000
0100
1000
0001
0100
0010
0100
0001
1000
0010
1000
0100
0010
0001
1000
0010
0100
,
0010
1000
0001
0100
0001
0010
0100
1000
0001
0010
0001
0100
0010
0100
0001
1000
0010
1000
0100
0010
0001
0100
0010
0100
0001
1000
0010
1000
0100
0010
0001
1000
,
0010
0100
0001
1000
0001
0010
0100
1000
0001
0100
0010
0100
0001
1000
0100
1000
0010
0100
0001
1000
0100
0010
0001
1000
0001
0100
0010
0100
0001
1000
0100
1000
,
0010
0100
0001
0010
0001
1000
0100
0010
0001
1000
0010
1000
0001
0100
0010
1000
0001
0010
0100
1000
0001
0010
0001
1000
0010
0100
0010
1000
0001
0100
0001
1000
,
0100
1000
0010
0100
0010
1000
0001
0010
0001
1000
0100
0010
0001
0100
0010
1000
0001
0000
0000
0000
0100
0000
0000
0000
0010
0000
0000
0000
1000
0000
0000
0000
,
0001
0100
0001
1000
0100
0010
0001
1000
0010
1000
0001
0100
0010
0100
0001
1000
0100
1000
0010
0100
0001
1000
0100
0010
0001
1000
0010
1000
0001
0100
0010
0100
,
0001
1000
0100
0010
0001
1000
0010
0100
0001
0100
0010
1000
0100
1000
0001
0100
0001
0010
0100
1000
0001
0100
0010
0100
0001
1000
0010
1000
0100
0010
0001
0100
,
0010
0100
0001
1000
0010
1000
0001
0100
0001
0010
0100
1000
0010
0100
0001
1000
0100
1000
0010
0100
0010
1000
0001
0100
0001
0010
0100
1000
0001
0100
0001
1000
,
0010
0100
0001
1000
0100
0010
0001
0100
0010
0100
0001
1000
0010
0100
0001
1000
0100
1000
0001
0100
0010
1000
0001
0010
0001
0100
0010
1000
0010
0100
0001
1000
,
0100
1000
0001
0100
0010
0100
0001
1000
0010
1000
0100
0010
0001
1000
0100
1000
0010
0100
0001
0100
0010
1000
0001
1000
0010
0100
0001
1000
0100
0010
0001
1000
,
0100
1000
0001
0100
0010
0100
0001
1000
0010
1000
0100
0010
0001
1000
0010
0100
0010
1000
0001
0100
0001
0010
0100
1000
0001
0010
0001
0100
0010
0100
0001
1000
,
0010
1000
0100
0010
0001
0100
0010
0100
0001
1000
0010
1000
0100
0010
0001
1000
0010
0100
0001
1000
0001
0010
0100
1000
0001
0100
0010
0100
0001
1000
0100
1000
,
0010
0100
0001
1000
0100
0010
0001
1000
0001
0100
0010
0100
0001
1000
0100
0010
0002
0000
0000
0000
0000
0000
0000
0000
0003
0000
0000
0000
0000
0000
0000
0000
,
1000
0000
0010
0000
0100
0002
1000
0023
,
0000
0000
0130
1000
0001
0020
0001
2030
,
0100
0000
0010
0000
0001
3020
0031
0200
,
0000
0000
0010
0300
0001
0000
2000
0000
,
3020
0000
0100
0000
1000
0000
0130
0001
,
2000
0000
0000
0000
0010
0000
0000
0000
3010
0000
0000
0000
0200
0000
0000
0300
,
0002
0000
1000
0000
0010
0000
0103
0010
,
2000
0000
0001
0000
0010
0000
3002
0023
,
0230
0000
0000
0000
1300
000M
0000
0000
0010
0000
0000
0100
0000
0000
0001
0000
,
1000
0000
0000
0100
0000
0000
1000
0000
0010
0000
0000
0100
0000
0000
0002
0000
,
1003
0000
0000
0010
0000
0000
0100
0000
0000
0000
0002
0000
2003
0000
3200
0000
,
2300
0000
0000
0000
3020
0000
003M
0000
M000
0000
0000
0000
0100
0020
0000
0030
,
2000
3100
0010
0001
1000
0010
0100
0010
,
1000
0001
0100
0001
0010
0100
1000
0001
,
0100
0010
1000
0001
1000
0100
0010
0001
,
1000
0000
0010
0000
0100
0000
0001
0000
1000
0000
0100
0000
1000
0000
0010
0000
0100
0000
0001
1000
0001
0100
0010
0100
0001
1000
0010
1000
0100
0010
0001
1000
,
0001
0010
0100
1000
0001
0100
0010
0100
0001
1000
0010
1000
0100
0010
0001
0100
0010
0100
0001
1000
0010
1000
0001
0100
0001
0010
0100
1000
0010
0100
0001
1000
,
0100
1000
0010
0100
0010
1000
0001
0100
0001
0010
0100
1000
0001
0100
0001
1000
0010
0100
0001
1000
0100
0010
0001
0100
0010
0100
0001
1000
0010
0100
0001
1000
,
0100
1000
0001
0100
0010
1000
0001
0010
0001
0100
0010
1000
0010
0100
0001
1000
0100
1000
0001
0100
0010
0100
0001
1000
0010
1000
0100
0010
0001
1000
0100
1000
,
0010
0100
0001
0100
0010
1000
0001
1000
0010
0100
0001
1000
0100
0010
0001
1000
0100
1000
0001
0100
0010
0100
0001
1000
0010
1000
0100
0010
0001
1000
0010
0100
,
0010
1000
0001
0100
0001
0010
0100
1000
0001
0010
0001
0100
0010
0100
0001
1000
0010
1000
0100
0010
0001
0100
0010
0100
0001
1000
0010
1000
0100
0010
0001
1000
,
0010
0100
0001
1000
0001
0010
0100
1000
0001
0100
0010
0100
0001
1000
0100
1000
0010
0100
0001
1000
0100
0010
0001
1000
0001
0100
0010
0100
0001
1000
0100
1000
,
0010
0100
0001
0010
0001
1000
0100
0010
0001
1000
0010
1000
0001
0100
0010
1000
0001
0010
0100
1000
0001
0010
0001
1000
0010
0100
0010
1000
0001
0100
0001
1000
,
0100
1000
0010
0100
0010
1000
0001
0010
0001
1000
0100
0010
0001
0100
0010
1000
0001
0000
0000
0000
0010
0000
0000
0000
0001
0000
0000
0000
1000
0000
0000
0000
,
0010
0100
0001
1000
0100
0010
0001
1000
0010
1000
0001
0100
0010
0100
0001
1000
0100
1000
0010
0100
0001
1000
0100
0010
0001
1000
0010
1000
0001
0100
0010
0100
,
0001
1000
0100
0010
0001
1000
0010
0100
0001
0100
0010
1000
0100
1000
0001
0100
0001
0010
0100
1000
0001
0100
0010
0100
0001
1000
0010
1000
0100
0010
0001
0100
,
0010
0100
0001
1000
0010
1000
0001
0100
0001
0010
0100
1000
0010
0100
0001
1000
0100
1000
0010
0100
0010
1000
0001
0100
0001
0010
0100
1000
0001
0100
0001
1000
,
0010
0100
0001
1000
0100
0010
0001
0100
0010
0100
0001
1000
0010
0100
0001
1000
0100
1000
0001
0100
0010
1000
0001
0010
0001
0100
0010
1000
0010
0100
0001
1000
,
0100
1000
0001
0100
0010
0100
0001
1000
0010
1000
0100
0010
0001
1000
0100
1000
0010
0100
0001
0100
0010
1000
0001
1000
0010
0100
0001
1000
0100
0010
0001
1000
,
0100
1000
0001
0100
0010
0100
0001
1000
0010
1000
0100
0010
0001
1000
0010
0100
0010
1000
0001
0100
0001
0010
0100
1000
0001
0010
0001
0100
0010
0100
0001
1000
,
0010
1000
0100
0010
0001
0100
0010
0100
0001
1000
0010
1000
0100
0010
0001
1000
0010
0100
0001
1000
0001
0010
0100
1000
0001
0100
0010
0100
0001
1000
0100
1000
,
0010
0100
0001
1000
0100
0010
0001
1000
0001
0100
0010
0100
0001
1000
0100
0010
0002
0000
0000
0000
0000
0000
0000
0000
0003
0000
0000
0000
0000
0000
0000
0000
,
1000
0000
0000
0000
0000
0000
0000
0000
0000
0000
0000
0000
0010
0000
0000
0000
0000
0000
0000
0000
0100
0000
0000
0000
0002
0000
0000
0000
0000
0000
0000
0000
0000
0003
0000
0000
1000
0000
0000
0000
0000
0000
0000
0000
0000
0000
0000
0000
,
0100
0000
0000
0000
1000
0000
0000
0010
0100
0000
0001
0000
1000
0000
0000
0000
,
0100
0000
0010
0001
0000
0000
1000
0000
0010
0000
0000
0000
0100
0000
0000
0000
,
0001
0000
0000
0000
1000
0000
0000
0000
0100
0000
0000
0000
0020
0030
0000
0000
,
0004
0003
0000
0000
1000
0000
0000
0000
0010
0000
0000
0000
0100
0000
0000
0000
,
0010
0000
0000
0000
1000
0000
0000
0000
0001
0000
0000
0000
0200
0300
0000
0000
,
0004
0003
0000
0000
1000
0000
0000
0000
0100
0000
0000
0000
0010
0000
0000
0000
,
0001
0000
0100
0000
0200
0000
0000
0300
;
