#TITLE:Zzanga;
#SUBTITLE:(Speedy Version);
#ARTIST:Kim Gun Mo with Shizuza Maku;
#TITLETRANSLIT:;
#SUBTITLETRANSLIT:;
#ARTISTTRANSLIT:;
#CREDIT:;
#BANNER:Zzanga Speedy - banner.png;
#BACKGROUND:Zzanga Speedy - bg.png;
#LYRICSPATH:;
#CDTITLE:;
#MUSIC:Zzanga Fast.mp3;
#OFFSET:-3.450;
#SAMPLESTART:18.530;
#SAMPLELENGTH:15.000;
#SELECTABLE:YES;
#BPMS:0.000=150.000;
#STOPS:;
#BGCHANGES:;
// cache tags:
#FIRSTBEAT:0.000;
#LASTBEAT:395.000;
#SONGFILENAME:Songs/longs versions/Zzanga Speedy/Zzanga Speedy.sm;
#HASMUSIC:1;
#HASBANNER:1;
#MUSICLENGTH:165.485;
// end cache tags

//---------------dance-single - ----------------
#NOTES:
     dance-single:
     :
     Challenge:
     8:
     0.601,0.925,0.532,0.054,0.000,599.000,88.000,9.000,0.000,1.000:  // measure 1
1000
0100
0010
0001
,  // measure 2
1000
0100
0010
0020
,  // measure 3
1030
0100
0010
1000
,  // measure 4
0001
0100
0010
1000
,  // measure 5
2000
0001
0100
0001
,  // measure 6
0010
0001
0100
3001
,  // measure 7
0100
0010
0100
0001
1000
1000
0100
0100
,  // measure 8
0010
1000
0001
0100
0001
0010
0100
0000
,  // measure 9
1000
0100
0010
0001
0100
0010
0100
0001
,  // measure 10
1000
0010
0100
0001
1000
1000
0100
0000
,  // measure 11
1000
0100
1000
0000
0010
0100
0010
0000
,  // measure 12
0001
0100
0001
0000
0010
0001
0010
0000
,  // measure 13
0100
0010
0100
0000
1000
0100
1000
0000
,  // measure 14
0010
0100
0010
0000
1001
0000
0100
0000
,  // measure 15
1000
0010
0100
0000
0001
0100
0010
0000
,  // measure 16
1000
0100
0010
0000
0001
0000
0100
0000
,  // measure 17
0010
1000
0100
0000
0001
0100
0010
0000
,  // measure 18
1000
0001
1000
0100
,  // measure 19
1000
0100
0010
0001
0100
0010
1000
0001
,  // measure 20
0100
0010
1000
0001
1001
1001
0110
0000
,  // measure 21
1000
0100
0010
0001
0100
0010
0100
0001
,  // measure 22
1000
0010
0100
0001
0010
0100
1000
0000
,  // measure 23
1000
0100
0010
1000
,  // measure 24
0001
0100
0001
0100
0110
0110
0110
0000
,  // measure 25
1000
0100
1000
0100
0010
0010
0001
0001
,  // measure 26
0100
1000
0100
1000
0001
0001
0100
0000
,  // measure 27
1000
0000
0100
0000
0010
0100
0010
0000
,  // measure 28
0001
0000
0100
0000
1000
0100
1000
0000
,  // measure 29
0001
0100
0001
0000
0010
0100
0010
0000
,  // measure 30
2000
0000
0001
3000
0002
0000
1003
0000
,  // measure 31
1000
0100
0010
0001
,  // measure 32
0001
0010
0100
1000
,  // measure 33
1000
0100
0010
0001
0010
0100
1000
0100
,  // measure 34
0001
0100
0010
1000
0001
0000
0000
0000
,  // measure 35
1000
1000
0100
0100
0010
0010
0001
0001
,  // measure 36
1000
1000
0100
0100
0010
0010
1000
0000
,  // measure 37
0100
1000
0100
1000
0010
0001
0010
0001
,  // measure 38
0001
0100
0001
0100
0010
0100
0010
0000
,  // measure 39
0010
0010
0100
0100
1000
0001
1000
0001
,  // measure 40
0001
0010
0010
0100
1000
0001
1000
0000
,  // measure 41
0010
0010
0100
0100
1000
0001
1000
0001
,  // measure 42
0010
0010
0100
0100
1000
0001
1000
0000
,  // measure 43
0100
0010
1000
0001
,  // measure 44
0000
0100
0010
0000
1000
0000
0000
0100
,  // measure 45
0000
0010
0000
0001
0000
0100
0000
0010
,  // measure 46
0000
1000
0000
0100
0000
0010
0000
0001
,  // measure 47
0000
0100
0000
1000
0000
0100
0000
0010
,  // measure 48
0000
1000
0000
0100
0000
0010
0000
1000
,  // measure 49
0000
0100
0000
0010
0000
0001
0000
0100
,  // measure 50
0000
1000
0000
0100
0000
0010
1000
0000
,  // measure 51
0000
0001
0000
0100
0000
0010
0000
0000
,  // measure 52
1001
0110
1100
1100
,  // measure 53
0011
0000
0101
0000
1001
0110
1001
0000
,  // measure 54
0100
0010
1000
0100
,  // measure 55
0010
0000
0001
0000
1000
0100
1000
0000
,  // measure 56
0001
0100
0001
0000
0010
1000
0010
0000
,  // measure 57
1000
0001
1000
0000
0001
0100
0001
0000
,  // measure 58
0010
1000
0010
0000
1000
0100
1000
0000
,  // measure 59
0001
1000
0100
1000
0010
0100
0001
0000
,  // measure 60
1000
1000
0100
0100
,  // measure 61
0010
0010
1000
1000
,  // measure 62
1000
0100
0010
0100
1000
0100
0010
0100
,  // measure 63
1000
0100
0010
0100
1000
0100
1000
0000
,  // measure 64
0001
0100
0001
0100
0010
0100
0010
0100
,  // measure 65
0001
0100
0001
0100
0010
0100
0010
0000
,  // measure 66
0010
1000
0010
1000
0010
0100
0010
0100
,  // measure 67
0010
1000
0010
1000
0010
0000
0010
0000
,  // measure 68
0001
1000
0010
0100
0001
1000
0010
0100
,  // measure 69
1000
0100
0010
0001
1001
1001
0110
0000
,  // measure 70
1000
0100
0010
0001
0010
1000
0100
0001
,  // measure 71
0100
1000
0001
0100
1001
1001
0010
0000
,  // measure 72
1000
0100
0001
1000
0100
0001
1001
0000
,  // measure 73
0100
0010
1000
0001
0100
0010
1001
0000
,  // measure 74
0100
0001
1000
0010
0100
0001
1010
0000
,  // measure 75
0100
0001
1000
0010
0100
0000
0011
0000
,  // measure 76
0001
0100
0010
1000
0001
0100
0101
0000
,  // measure 77
0010
1000
0001
0100
0010
0001
1100
0000
,  // measure 78
0001
1000
0100
1000
0100
1000
0100
0010
,  // measure 79
1000
0001
0100
0000
1001
0000
0110
0000
,  // measure 80
1000
0100
1000
0100
0010
0100
0010
0100
,  // measure 81
0001
0100
0001
0100
0010
0100
0010
0000
,  // measure 82
0100
1000
0100
1000
0010
1000
0010
1000
,  // measure 83
0001
1000
0001
1000
0100
1000
0100
0000
,  // measure 84
0010
1000
0010
1000
0010
0100
0010
0100
,  // measure 85
0001
0010
0001
0001
1000
0001
0100
0000
,  // measure 86
0010
1000
0010
0100
0010
0100
0010
0100
,  // measure 87
0010
1000
0010
1000
1001
1001
0110
0000
,  // measure 88
1100
0000
0011
0000
0101
0101
1010
1100
,  // measure 89
0001
0110
0101
1100
0101
1010
1100
0000
,  // measure 90
0101
1010
0101
0001
1010
0101
1001
1010
,  // measure 91
0101
0101
1001
1001
0101
0110
1001
0000
,  // measure 92
0101
0110
1001
1100
0101
1010
1001
1100
,  // measure 93
0001
1010
0001
0101
0110
1001
0101
0000
,  // measure 94
1100
1001
0101
0110
1001
1001
0110
0101
,  // measure 95
1001
0110
1001
0101
1001
0110
1001
0000
,  // measure 96
2000
0000
0000
0000
0100
0000
0100
3000
,  // measure 97
0020
0000
0000
0000
0001
0000
0001
0030
,  // measure 98
2002
0000
0103
0100
,  // measure 99
0020
3000
0000
0000
0100
0030
1100
0000
;
