#TITLE:Wuki Wuki;
#SUBTITLE:(Speedo Mix);
#ARTIST:Jenny Rom;
#TITLETRANSLIT:;
#SUBTITLETRANSLIT:;
#ARTISTTRANSLIT:;
#CREDIT:;
#BANNER:WukiWuki.png;
#BACKGROUND:WukiWuki-bg.png;
#LYRICSPATH:;
#CDTITLE:!IzzyTitle.png;
#MUSIC:Wuki Wuki (DDR Edit).mp3;
#OFFSET:-0.060;
#SAMPLESTART:33.333;
#SAMPLELENGTH:12.000;
#SELECTABLE:YES;
#BPMS:0.000=180.000;
#STOPS:;
#BGCHANGES:;
// cache tags:
#FIRSTBEAT:0.500;
#LASTBEAT:324.000;
#SONGFILENAME:Songs/Bemani.se Megapack/(Izzy) Wuki Wuki (Speedo Mix)/Wuki Wuki.sm;
#HASMUSIC:1;
#HASBANNER:1;
#MUSICLENGTH:110.106;
// end cache tags

//---------------dance-single - ----------------
#NOTES:
     dance-single:
     :
     Hard:
     10:
     1.000,1.000,1.000,0.291,0.082,498.000,275.000,32.000,0.000,0.000:
0000
0010
0010
0010
1001
0000
0100
0100
,
1001
0000
1010
0000
1001
0001
0001
0001
,
0011
0000
1100
0000
0110
0010
0010
0010
,
0110
0011
0022
0000
,
0033
1000
1000
1000
1001
0000
0110
0010
,
0110
0000
0110
0000
1001
0000
1001
0110
,
0000
0011
0011
0101
1010
1100
1100
0110
,
1001
0000
0001
0011
0000
0000
1000
1100
,
0000
0000
0100
0110
0000
0000
0010
1010
,
0000
0000
1000
1100
0000
0000
0001
1001
,
0000
0000
0100
0110
0000
0000
0010
1001
,
0000
0000
0100
1001
0000
0000
1000
0011
,
0000
0000
0001
1100
0000
0000
1001
0110
,
0000
0000
1100
0011
0000
0000
0011
1100
,
0000
0000
0110
1001
0000
0000
0110
1001
,
0000
0000
0000
0000
1000
0100
0010
2200
,
0000
3300
0010
0100
0110
0110
0000
0000
,
0011
0000
0011
0000
0000
0000
0001
0010
,
0100
1000
0000
0000
1000
0100
0010
0001
,
0000
0000
0110
0110
0110
0110
0000
0000
,
1100
1100
1100
1100
0000
0000
0001
0000
,
0001
0000
0000
0000
0000
0000
0000
0000
1000
0100
1000
0010
1000
0010
0100
0001
,
1000
0100
0010
0001
1000
0100
1000
0001
0010
0001
0010
0100
1000
0100
1000
0001
,
0100
0010
1000
0010
0100
0001
1000
0100
1000
0000
1000
0000
0100
0000
0100
0000
,
0010
0010
0001
0001
0001
1001
1001
1001
,
0000
0110
0110
0110
0000
1100
1100
1100
,
0000
0011
0011
0011
0000
1010
1010
1010
,
0000
0101
0101
0101
0010
0010
0100
0100
,
0001
0001
1000
1000
0011
0011
0011
0011
,
0000
0011
0011
0011
0000
0011
0011
0011
,
0000
1100
0101
0101
0011
0011
1100
1001
,
0110
1100
0110
1001
0101
1000
1100
0010
,
0110
0001
0101
0100
0110
1000
1001
0100
,
1001
0010
0101
0001
1100
0001
0011
0100
,
0110
0100
0110
0220
0330
0220
0000
0000
,
0000
0000
0330
1001
0000
0100
0011
0100
,
1100
1000
1001
0001
0101
0010
1001
0100
,
0101
1000
0110
0010
1100
0010
0011
0100
,
0110
0001
1001
0100
1001
1001
0011
1100
,
1010
0101
0011
1100
0000
0011
0011
0011
,
0011
0000
0000
0110
0000
1100
0110
1100
,
0110
0000
0000
0101
0000
0101
1010
1010
,
0101
0000
1001
2002
3003
2002
3003
2002
,
3003
2002
3003
0100
0110
0010
0011
1000
,
0101
0100
1001
0010
0011
0100
1100
1000
,
1001
0010
0101
1000
1010
1000
0011
0100
,
0110
0010
0011
1000
1100
0100
1100
0001
,
1001
0100
0100
0100
0110
0010
0110
0100
,
0110
0010
1001
0220
0330
2002
0000
0000
,
0000
3003
1000
1100
0100
0110
0010
0011
,
0001
0011
0010
1001
0000
0001
0001
0001
,
0000
0001
0001
0001
1010
0100
1010
0001
,
0101
0001
0101
1000
1001
0100
0110
0001
,
1001
1000
0110
0000
0220
0000
0000
0330
,
2002
0000
0000
0000
0000
0000
3003
0000
2000
0000
3000
0000
0010
0100
0010
0100
,
0010
0100
0100
0100
1001
0000
1100
1100
,
1100
0000
0011
0000
0011
0000
0011
0011
,
0011
0000
1100
0000
0110
0000
1001
1001
,
1001
1001
2002
0000
,
3003
0010
0100
0010
0110
0000
0110
0110
,
0110
0000
1001
0000
1001
0000
0001
1000
,
0000
0100
0010
0010
0001
0001
1000
1000
,
0001
0000
0100
0110
0000
0000
0000
0000
,
0000
1000
1000
1000
1001
0100
0110
0001
,
0011
0001
0101
1000
1100
0100
0110
0010
,
0110
0001
1100
0010
1100
1000
0110
0100
,
0011
0100
0110
0001
2020
0000
0000
0000
,
3030
0100
0100
0100
0110
0100
0110
0001
,
0101
1000
1010
1000
1001
0100
1001
0010
,
0011
0010
0110
1000
0101
1000
1001
0001
,
1001
0010
0110
1000
2000
0000
0000
0000
,
3000
0000
0000
0000
0001
0001
0010
0010
,
0100
0100
1000
1000
1000
1001
1001
1001
,
0000
0110
0110
0110
0000
0011
0011
0011
,
0000
1100
1100
1100
0000
0101
0101
0101
,
0000
1010
1010
1010
0100
0100
0010
0010
,
1000
1000
0001
0001
1100
1100
1100
1100
,
0000
1100
1100
1100
0000
1100
1100
1100
,
0000
0011
1010
1010
1100
1100
0011
0110
,
1001
0011
1001
0110
2002
0000
0000
0000
,
0000
0000
0000
0000
,
3003
0000
0000
0000
;
