#TITLE:JET WORLD;
#SUBTITLE:;
#ARTIST:Mutsuhiko Izumi;
#TITLETRANSLIT:;
#SUBTITLETRANSLIT:;
#ARTISTTRANSLIT:;
#CREDIT:;
#BANNER:JET WORLD.png;
#BACKGROUND:JET WORLD-bg.png;
#LYRICSPATH:;
#CDTITLE:cdtitle_ponygon.bmp;
#MUSIC:JET WORLD (PONYGONPWNS EDIT).mp3;
#OFFSET:-0.070;
#SAMPLESTART:10.460;
#SAMPLELENGTH:12.000;
#SELECTABLE:YES;
#DISPLAYBPM:138.000;
#BPMS:0.000=137.990;
#STOPS:;
#BGCHANGES:;
// cache tags:
#FIRSTBEAT:0.000;
#LASTBEAT:200.000;
#SONGFILENAME:Songs/toune/JET WORLD (PONYGONPWNS EDIT)/JET WORLD.sm;
#HASMUSIC:1;
#HASBANNER:1;
#MUSICLENGTH:87.666;
// end cache tags

//---------------dance-single - ----------------
#NOTES:
     dance-single:
     :
     Beginner:
     5:
     0.562,0.656,1.000,0.810,0.000,133.000,119.000,71.000,8.000,28.000:
1M00
001M
M001
01M0
,
10M0
0M01
001M
M100
,
2020
3030
1010
0000
,
0202
0303
0101
0000
,
2020
3030
1010
0000
,
0202
0303
0101
0000
,
2002
3003
1001
0000
,
1010
0110
0011
0000
,
2200
3300
0110
0101
,
0000
1010
0000
0110
,
0011
0000
2020
3030
,
0220
0330
0202
0303
,
2020
3030
0220
0330
,
0220
0330
0202
0303
,
2002
3003
2020
3030
,
0011
0110
1010
0000
,
2200
3300
0220
0030
,
1310
0110
0011
0111
,
1110
0000
1101
1011
,
0000
2200
3300
0011
,
0220
0330
1011
1101
,
0000
0101
0000
1100
,
0110
0101
1110
0000
,
1010
0110
0011
0000
,
0110
0000
0011
0000
,
1100
0000
0110
0000
,
1011
0000
1010
0110
,
0011
0000
1001
0000
,
1001
0202
0303
1100
,
1010
2002
3003
0101
,
0011
2002
3003
1001
,
1100
2020
0000
3030
,
1100
0101
0110
0000
,
0110
1010
0011
0000
,
0101
1100
0110
0000
,
1010
0011
0110
0000
,
1101
0000
1010
1001
,
0000
0101
0000
1101
,
1011
0000
1100
0110
,
0101
1110
0111
0000
,
1001
0011
0202
0303
,
0011
1010
0220
0330
,
1001
1010
2200
3300
,
1110
0111
0111
1110
,
0111
0000
0000
0000
,
2022
0000
0000
3033
,
0202
1303
2200
3310
,
2020
3130
2200
3301
,
0022
0133
2200
3010
,
1311
2222
0000
0000
,
3333
0000
0000
0000
;

//---------------dance-single - ----------------
#NOTES:
     dance-single:
     :
     Easy:
     6:
     0.694,0.653,1.000,0.935,0.000,172.000,144.000,82.000,16.000,51.000:
MM11
1MM1
11MM
1MM1
,
11MM
MM11
11MM
1M1M
,
1100
1010
1001
1110
,
1001
0101
0011
1101
,
1100
1010
1001
1110
,
0101
0011
1001
1101
,
0111
0220
1330
2200
,
3301
0022
1033
0220
,
0331
0202
1303
0220
,
0331
0022
1033
1100
,
1010
0110
0011
1110
,
0101
1100
0110
1101
,
1010
0011
0110
1110
,
0100
0110
0101
1011
,
2020
3130
2020
3130
,
0220
0331
2020
3130
,
2002
3103
2020
3130
,
0202
0313
1010
0101
,
2202
0000
0000
3303
,
1010
0110
0101
1101
,
2022
0000
0000
3033
,
1010
0101
1010
0111
,
0202
0313
2020
3130
,
0202
0313
2020
3130
,
0202
0313
2002
3103
,
0202
0313
2020
3130
,
2202
0000
0000
3303
,
0222
0000
0000
0333
,
1100
1010
1001
0201
,
1301
0101
0011
0210
,
1310
1100
1001
0120
,
0131
2002
0000
3003
,
0011
0110
1100
0110
,
0011
0110
1100
0110
,
0011
0110
1100
0110
,
0011
0110
1100
0110
,
2202
0000
0000
3303
,
1010
0110
0110
1101
,
2022
0000
0000
3033
,
0110
1100
0011
0101
,
1001
0110
1001
0111
,
0101
1100
0011
1110
,
1001
0110
1100
1101
,
1010
0101
1010
1100
,
2202
0000
0000
3303
,
0222
0000
0000
0333
,
1020
0130
0021
0130
,
1020
0130
2001
3100
,
1020
0130
0011
0111
,
1111
2222
0000
3333
;

//---------------dance-single - ----------------
#NOTES:
     dance-single:
     :
     Medium:
     9:
     0.999,0.910,1.000,0.148,0.000,237.000,235.000,13.000,8.000,126.000:
M111
1M11
11M1
111M
,
1M11
111M
11M1
M111
,
0011
1100
0110
0000
0110
0000
1100
0000
,
0110
0011
1100
0000
1011
0000
0111
0000
,
0011
1100
1110
0000
0111
0000
0111
0000
,
0110
1001
1110
0000
1010
0101
1110
0000
,
0101
0110
1101
0000
1001
0110
1011
0000
,
0011
0011
1110
0000
1110
1010
0111
0000
,
0011
0101
1110
0000
1010
0101
0111
0000
,
1010
0011
1110
0000
0110
1001
1101
0000
,
0110
1001
1101
0000
0110
0000
0101
0000
,
1110
0011
1011
0000
0110
0000
0101
0000
,
1101
1010
0101
0000
0101
0000
0110
0000
,
1110
0011
1101
0000
0110
0000
0101
0000
,
1010
1100
0111
0000
0011
0110
1011
0000
,
0110
0101
1101
0000
1001
0110
1011
0000
,
1010
0101
0101
0000
0011
0101
1011
0000
,
0110
0101
1001
0000
1011
0000
1111
0000
,
2002
0000
0110
3113
,
0110
0101
1101
0000
0011
0101
1110
0000
,
2020
0000
0101
3131
,
1001
0110
0101
0101
,
0011
0110
1110
0000
1011
0000
1101
0000
,
1011
0110
1101
0000
0111
0000
1011
0000
,
1101
0101
1110
0000
1011
0000
1110
0000
,
1101
1100
0111
0000
1101
0000
0111
0000
,
0111
0000
1011
0000
1100
1010
1101
0000
,
1101
0000
1110
0000
0111
1110
1011
0000
,
0101
1010
1100
1010
,
0101
1001
0110
1001
,
0110
1001
0110
1100
,
0110
1001
0111
1111
0000
0000
0000
0000
,
1100
0110
0101
1110
,
0111
1011
1110
0111
,
1011
1100
0101
1110
,
1011
1110
1011
0111
,
2002
0000
0110
3113
,
0111
1110
1110
0000
1110
0111
1110
0000
,
2022
0000
0100
3133
,
1010
0111
1100
1111
,
0101
1011
1110
0000
0111
0000
1101
0000
,
1110
1011
1110
0000
0111
0000
1101
0000
,
1001
1010
1100
0000
0110
0000
0101
0000
,
1010
1011
1111
0000
1001
1110
1111
0000
,
1110
0000
1011
0000
0101
1001
1001
0000
,
0111
0000
1111
0000
1010
0111
1001
0000
,
1110
0111
1110
0111
,
1110
0111
1110
0111
,
1110
0111
1101
0111
,
1111
1111
1111
2222
0000
0000
0000
3333
;

//---------------dance-single - ----------------
#NOTES:
     dance-single:
     :
     Hard:
     12:
     1.000,1.000,1.000,0.502,0.165,329.000,309.000,44.000,24.000,307.000:
MMMM
MMMM
MMMM
1111
,
MMMM
MMMM
MMMM
1111
,
0111
1110
1011
0000
1011
1101
1101
1011
,
1110
1101
1011
0000
0111
1110
1011
0111
,
1110
1011
1110
0000
1011
1101
1110
0111
,
1110
0111
1110
0000
1101
1011
0111
1110
,
0111
1101
1110
0000
1011
0111
1110
0000
,
1110
1011
1110
1011
1011
1110
0111
0000
,
2222
0000
0000
0030
0010
0000
3313
0000
,
0111
1110
1101
1011
1110
0111
1110
0000
,
0111
1101
0111
0000
1110
1011
1110
1011
,
0111
1110
1101
0000
1110
1101
0111
1011
,
0111
1101
0111
0000
1101
0111
0111
1110
,
1011
1110
0111
0000
1110
1011
1011
1011
,
0111
1011
1100
0000
1011
1011
1110
0000
,
0111
1101
1110
1101
1011
1011
1110
0000
,
2222
0000
0000
0030
0010
0000
3313
0000
,
1110
0111
1011
0111
1110
0111
1110
0000
,
2222
0000
0000
0030
0010
0000
3313
0000
,
0111
0000
1101
0000
1110
0000
0111
1100
0000
0011
1110
0000
0111
0000
1110
0000
,
2222
0000
0000
0030
0010
0000
3313
0000
,
1011
0101
1101
0110
0000
0011
1101
0011
1011
1100
1010
0110
0000
1001
1101
0000
,
1011
1101
1011
1101
1011
1101
0001
1110
,
1011
1110
1011
1110
1011
1110
1011
1101
,
0111
1101
1011
1110
1101
0111
1011
1101
,
0111
1101
1011
1110
1101
0111
1101
1101
,
2222
0000
0000
0030
0010
0000
3313
0000
,
1111
0000
1111
0000
1011
1101
0111
0000
,
1011
0000
0111
0000
0111
0000
1101
0011
0000
1100
1011
0000
1101
0000
1101
0000
,
1101
0000
1110
0000
1011
0000
0111
1010
0000
0110
1110
0000
1101
0000
1011
0000
,
1110
0000
0111
0000
1110
0000
0111
1100
0000
0011
1110
0000
1011
0000
0111
0000
,
1111
1111
1111
2222
0000
0000
3333
0000
,
1110
1011
1110
1011
1110
1011
1110
1011
,
0111
1101
0111
1101
0111
1101
0111
1101
,
1110
1011
0111
1101
0111
1110
1101
0111
,
2222
0000
0000
0030
0010
0000
3313
0000
,
2222
0000
0000
0030
0010
0000
3313
0000
,
1110
0000
1011
0000
1101
0000
1011
0110
0000
1100
0111
0000
1111
0000
1111
0000
,
2222
0000
0000
0000
0000
0000
0000
0030
0010
0000
0000
0000
3313
0000
0000
0000
,
1111
0111
1111
1110
0000
0111
1111
0000
1111
0111
1111
1110
0000
1011
1111
0000
,
1101
1110
1101
1110
1101
1110
1101
1110
,
1011
1110
1011
1110
1011
1110
1011
1110
,
1011
1101
1011
1101
1011
1110
1011
1110
,
1011
1101
1011
1110
0111
1101
0111
1111
,
2222
0000
0000
0030
0010
0000
3313
0000
,
1111
0000
1111
0000
0111
1110
1101
0000
,
1101
0000
0111
0000
1101
0000
0111
0001
1100
0111
1111
0000
0111
0000
1101
0000
,
1110
0000
1101
0000
1110
0000
1101
1110
0000
1101
1110
0000
1101
0000
1110
0000
,
1111
0000
1111
0000
1111
0000
1111
1111
0000
1111
1111
0000
1111
0000
1111
0000
,
1111
1111
1111
2222
0000
0000
3333
0000
;
