#TITLE:Triumph Or Agony;
#SUBTITLE:;
#ARTIST:Rhapsody;
#TITLETRANSLIT:;
#SUBTITLETRANSLIT:;
#ARTISTTRANSLIT:;
#CREDIT:;
#BANNER:(cerdo_claro)Triumph Or Agony-BN.JPG;
#BACKGROUND:(cerdo_claro)Triumph Or Agony-BG.JPG;
#LYRICSPATH:;
#CDTITLE:cdtitle.png;
#MUSIC:(cerdo_claro)Triumph Or Agony.mp3;
#OFFSET:-11.851;
#SAMPLESTART:44.139;
#SAMPLELENGTH:15.800;
#SELECTABLE:YES;
#BPMS:0.000=83.000,20.000=166.000,60.000=83.000,76.000=166.000,140.000=83.000,148.000=166.000,164.000=83.000,172.000=166.000,188.000=83.000,206.000=166.000,210.000=83.000,224.000=166.000,292.000=83.000,300.000=166.000,316.000=83.000,324.000=166.000,340.000=83.000,356.000=166.000,388.000=83.000,394.000=166.000,410.000=83.000,416.000=166.000,432.000=83.000,438.000=166.000,474.000=83.000,482.000=166.000,498.000=83.000,514.000=166.000,546.000=83.000,562.000=166.000,594.000=83.000;
#STOPS:;
#BGCHANGES:;
// cache tags:
#FIRSTBEAT:0.000;
#LASTBEAT:602.000;
#SONGFILENAME:Songs/toune 2/(cerdo_claro)Triumph Or Agony/(cerdo_claro)Triumph Or Agony.sm;
#HASMUSIC:1;
#HASBANNER:1;
#MUSICLENGTH:302.889;
// end cache tags

//---------------dance-single - Blank----------------
#NOTES:
     dance-single:
     Blank:
     Hard:
     11:
     0.866,1.000,1.000,0.690,0.530,1292.000,335.000,209.000,0.000,71.000:

2100
3002
0203
0320
,
0231
2300
3120
0000
,
2130
3020
0231
2300
,
3012
0000
0000
1000
2000
0000
3003
0000
,
0012
0000
0000
0000
0000
0000
0000
0000
0000
0000
0000
0000
0100
0000
0000
0000
0200
0000
0000
0000
0303
0000
0000
0000
0001
0010
0100
1000
0010
0100
0001
1000
,
0001
0001
0011
1000
1000
0010
0101
1000
,
1000
0001
0110
1000
1000
0010
1100
0001
,
0001
1000
0110
1000
1000
0001
1010
0100
,
0100
0001
1001
0100
0100
0010
1100
1000
,
1000
0010
0011
0100
0100
0010
1100
1000
,
1000
0010
0101
1000
1000
0010
0101
0010
,
0010
0100
1100
0010
0010
0001
1010
0100
,
0100
0010
0011
1000
1000
0010
1100
0010
,
0010
0100
0011
1000
1000
0001
0101
1000
,
0001
0010
0100
1000
0100
0010
0001
1000
0010
0100
0001
0010
0100
1000
0010
0100
,
0021
0000
2030
3010
0210
0000
1300
0000
,
2010
0000
3200
0310
0201
0000
0310
0000
,
0021
0000
0230
0310
2100
0000
3012
0000
,
2103
0000
0000
0000
3200
0000
0000
0000
0320
0000
0000
0000
0032
0000
0000
0000
0113
0000
0000
0000
0000
0010
0100
0001
1000
0100
0010
0001
1000
0100
0010
0000
,
2100
0100
0100
0100
0100
0100
0100
0100
,
3012
0010
0010
0010
0010
0010
0010
0010
,
0213
0010
0010
0010
0010
0010
0010
0010
,
2310
0010
0010
0010
0010
0010
0010
0010
,
3120
0100
0100
0100
0100
0100
0100
0100
,
0132
0100
0100
0100
0100
0100
0100
0100
,
2103
0100
0100
0100
3120
0100
0132
0010
,
2013
0000
0010
0000
0010
0000
3001
0000
1000
0001
1000
0001
1000
0001
1000
0001
,
1000
0100
0010
0100
1000
0010
0100
0001
0010
0100
1000
0010
1000
0100
1000
0100
,
0011
1000
0010
0100
0001
0100
0001
1000
0010
1000
0001
0010
0100
1000
0010
1000
,
0110
0001
0010
0001
1000
0010
0100
0001
0100
0001
0100
0010
0100
0001
1000
0010
,
0101
1000
0010
0100
0001
1000
0001
1000
0010
1000
0010
0001
0100
0001
0100
0010
,
1100
0010
0100
0001
1000
0100
0010
0001
1000
0100
1000
0001
0100
0001
0010
0001
,
1100
0010
0001
1000
0010
0100
0001
1000
0100
1000
0010
1000
0001
0100
0001
0100
,
1010
0100
0001
0100
0001
0100
0010
1000
0100
0010
0001
0100
0010
1000
0010
0100
,
0011
1000
0010
0100
0001
0100
0010
1000
0100
0010
0001
0100
0010
0001
0100
0010
,
2001
0000
0000
0001
0001
0001
0001
0000
0000
0001
0000
0000
3102
0000
0000
1000
1000
1000
1000
0000
0000
1000
0000
0000
,
1103
0000
0000
0110
0110
0110
0110
0000
0000
1001
0000
0000
1001
0000
0000
0110
0110
0110
0110
0000
0000
1001
0100
0010
,
2001
0010
0100
0001
0100
0010
0001
3110
,
0102
1000
0010
0100
0010
1000
0100
1103
,
0210
0001
0010
0001
1000
0010
1000
0311
,
0120
1000
0001
0100
0001
0100
0001
1130
,
2001
0000
0000
0001
0001
0001
0001
0000
0000
0001
0000
0000
3102
0000
0000
1000
1000
1000
1000
0000
0000
1000
0000
0000
,
1103
0000
0000
0110
0110
0110
0110
0000
0000
1001
0000
0000
1001
0000
0000
0110
0110
0110
0110
0000
0000
1001
0100
0010
,
2001
0010
0100
0001
0100
0010
0001
3110
,
0102
1000
0010
0100
0010
1000
0100
1103
,
0210
0001
0010
0001
1000
0010
1000
0311
,
0120
1000
0001
0100
0001
0100
0001
1130
,
2100
3002
0203
0320
,
0231
2300
3120
0000
,
2130
3020
0231
2300
,
3012
0000
0000
1000
2000
0000
3003
0000
,
0012
0000
0000
0000
0000
0000
0000
0000
0000
0000
0000
0000
0000
0000
0000
0000
0000
0000
0100
0000
0000
0000
0000
0000
1003
0000
0000
0000
0010
0000
0000
0000
0100
0000
0000
0000
0001
0000
0000
0000
0100
0000
0001
0000
0000
0010
0000
0000
,
0100
1000
0010
0100
0001
1000
0001
1000
0021
0000
0000
0000
0130
0000
0100
0000
,
2010
0000
3001
0000
2100
0000
3020
0031
,
2100
0000
3010
0000
2100
0000
3020
0031
,
0012
0000
0203
0000
0312
0023
0230
2300
,
3202
0000
0000
0000
0303
0000
0001
0000
0001
0000
1100
0000
0010
0100
0001
1000
,
0012
0010
0010
0010
0010
0010
0010
0010
,
2103
0100
0100
0100
0100
0100
0100
0100
,
3120
0100
0100
0100
0100
0100
0100
0100
,
0132
0100
0100
0100
0100
0100
0100
0100
,
0213
0010
0010
0010
0010
0010
0010
0010
,
2310
0010
0010
0010
0010
0010
0010
0010
,
3012
0010
0010
0010
0213
0010
2310
0100
,
3102
0000
0100
0000
0100
0000
1003
0000
0001
1000
0001
1000
0001
1000
0001
1000
,
0001
0010
0100
0010
0001
0100
0010
1000
0100
0010
0001
0100
0001
0010
0001
0010
,
1100
0001
0100
0010
1000
0010
1000
0001
0100
0001
1000
0100
0010
0001
0100
0001
,
0110
1000
0100
1000
0001
0100
0010
1000
0010
1000
0010
0100
0010
1000
0001
0100
,
1010
0001
0100
0010
1000
0001
1000
0001
0100
0001
0100
1000
0010
1000
0010
0100
,
0011
0100
0010
1000
0001
0010
0100
1000
0001
0010
0001
1000
0010
1000
0100
1000
,
0011
0100
1000
0001
0100
0010
1000
0001
0010
0001
0100
0001
1000
0010
1000
0010
,
0101
0010
1000
0010
1000
0010
0100
0001
0010
0100
1000
0010
0100
0001
0100
0010
,
1100
0001
0100
0010
1000
0010
0100
0001
0010
0100
1000
0010
0100
1000
0010
0100
,
1002
0000
0000
1000
1000
1000
1000
0000
0000
1000
0000
0000
2013
0000
0000
0001
0001
0001
0001
0000
0000
0001
0000
0000
,
3011
0000
0000
0110
0110
0110
0110
0000
0000
1001
0000
0000
1001
0000
0000
0110
0110
0110
0110
0000
0000
1001
0010
0100
,
1002
0100
0010
1000
0010
0100
1000
0113
,
2010
0001
0100
0010
0100
0001
0010
3011
,
0120
1000
0100
1000
0001
0100
0001
1130
,
0210
0001
1000
0010
1000
0010
1000
0311
,
1002
0000
0000
1000
1000
1000
1000
0000
0000
1000
0000
0000
2013
0000
0000
0001
0001
0001
0001
0000
0000
0001
0000
0000
,
3011
0000
0000
0110
0110
0110
0110
0000
0000
1001
0000
0000
1001
0000
0000
0110
0110
0110
0110
0000
0000
1001
0010
0100
,
1002
0100
0010
1000
0010
0100
1000
0113
,
2010
0001
0100
0010
0100
0001
0010
3011
,
0120
1000
0100
1000
0001
0100
0001
1130
,
1000
0000
0000
0000
0100
0000
0000
0000
0010
0000
0000
0000
0001
0000
0000
0010
0000
0000
0100
0000
0000
1000
0000
0000
0010
0000
0000
0100
0000
0000
0001
0000
0000
1000
0000
0000
0010
0000
0000
0100
0000
0000
0001
0000
0000
1000
0000
0000
,
0021
0000
2030
3010
,
0021
0000
0000
1030
2000
0000
0000
3000
,
0012
0000
0000
0000
0023
0000
2030
3000
,
2100
0000
0000
0000
0000
0000
0000
0000
0000
0000
0000
0000
3020
0000
0000
0000
0032
0000
0000
0000
0000
0000
0000
0000
0003
0000
0000
0000
1000
0001
1000
0010
,
0101
0001
0011
1000
1000
0010
0101
1000
,
1000
0001
0110
1000
1000
0010
1100
0001
,
0001
1000
0110
1000
1000
0001
1010
0100
,
0100
0001
1001
0100
0100
0010
2100
0000
,
0010
0000
0000
3012
0000
0000
0100
0000
,
0010
0000
0000
2103
0000
0000
0100
0000
,
3220
0000
0000
0000
0000
0000
0000
0330
,
0001
0000
0000
0000
0010
0000
0000
0000
0100
0000
0000
0000
1000
0000
0000
0010
0000
0000
0100
0000
0000
0001
0000
0000
0010
0000
0000
0100
0000
0000
1000
0000
0000
0001
0000
0000
0100
0000
0000
0010
0000
0000
1000
0000
0000
0010
0000
0000
,
2100
3001
0012
1003
,
0220
0000
0000
0330
0101
1010
0110
0011
,
2020
3030
0101
0000
2020
3030
0101
0000
0202
0303
1010
0000
0220
0330
1010
0000
,
0022
0033
1100
0000
0110
0000
0101
0000
2200
3300
0011
0000
0110
0000
1010
0000
,
0202
0303
1010
0000
0202
0303
0110
0000
2002
3003
0110
0000
0202
0303
0110
0000
,
2020
3030
0101
0000
0110
0000
1001
0000
0102
0000
0000
0000
0103
0000
0000
0000
,
2010
0000
3001
0000
0220
0000
0000
0330
,
1010
0000
0101
0000
0110
0000
1100
0000
0202
0303
1010
0000
0202
0303
1010
0000
,
2020
3030
0101
0000
0220
0330
0101
0000
2200
3300
0011
0000
0110
0000
1010
0000
,
0022
0033
1100
0000
0110
0000
0101
0000
2020
3030
0101
0000
2020
3030
0110
0000
,
2002
3003
0110
0000
2020
3030
0110
0000
0202
0303
1010
0000
0110
0000
1001
0000
,
0012
0000
0000
1000
1003
0000
0000
0000
0011
0000
0110
0000
1100
0000
0110
0000
,
2100
0000
0000
0001
3001
0000
0000
0000
0011
0000
0000
0000
1010
0000
0000
0000
,
0101
0000
1010
0000
0011
1000
0010
0101
,
0101
1000
0010
0100
0011
0000
0110
0000
,
1100
0000
1001
0000
0110
1000
0010
0101
,
0101
0010
1000
0001
1100
0000
0110
0000
,
0101
0000
0000
0000
1001
0000
0000
0000
0001
0010
0100
1000
0010
0100
0001
1000
,
0001
0000
0010
0000
0100
0000
1000
0000
0010
0000
0100
0000
0001
0000
0000
1000
0000
0000
0001
0000
0000
0010
0000
0000
1000
0000
0100
0000
0010
0000
0001
0000
0100
0000
0010
0000
1000
0000
0000
0100
0000
0000
0010
0000
0000
0001
0000
0000
,
0010
0000
1000
0000
0001
0000
0100
0000
1000
0000
0001
0000
0010
0000
0000
1000
0000
0000
0001
0000
0000
0100
0000
0000
0010
0000
0001
0000
1000
0000
0010
0000
0001
0000
1000
0000
0100
0000
0000
0001
0000
0000
1000
0000
0000
0010
0000
0000
,
1000
0000
0100
0000
0010
0000
0001
0000
0100
0000
0010
0000
1000
0000
0000
0100
0000
0000
0010
0000
0000
0001
0000
0000
1000
0000
0100
0000
0010
0000
0001
0000
0100
0000
0010
0000
1000
0000
0000
0100
0000
0000
0010
0000
0000
0001
0000
0000
,
1000
0000
0100
0000
0010
0000
0001
0000
0100
0000
0010
0000
1000
0000
0000
0100
0000
0000
0010
0000
0000
0100
0000
0000
1002
0000
0000
0000
0000
0000
1000
0000
1000
0000
1000
0000
1000
0000
0000
0000
0000
0000
1000
0000
0000
0000
0000
0000
,
2013
0000
0000
0001
0001
0001
0001
0000
0000
0001
0000
0000
3011
0000
0000
0110
0110
0110
0110
0000
0000
1001
0000
0000
,
1001
0000
0000
0000
0000
0000
0110
0000
0110
0000
0110
0000
0110
0000
0000
0000
0000
0000
1001
0000
0010
0000
0100
0000
0011
0000
0000
0100
0000
0000
1000
0000
0000
0010
0000
0000
0100
0000
0000
0001
0000
0000
0010
0000
0000
0100
0000
0000
,
1000
0001
0010
0100
1000
0100
0010
0100
2000
0000
0000
0000
0000
0000
0000
3000
,
0001
0000
0010
0000
0100
0000
1000
0000
0000
0100
0000
0000
0010
0000
0000
0001
0000
0000
0100
0000
0000
0010
0000
0000
0200
0000
0000
0000
0000
0000
0000
0000
0000
0000
0000
0000
0000
0000
0000
0000
0000
0000
0000
0000
0000
0300
0000
0000
,
1000
0000
0100
0000
0010
0000
0001
0000
0000
0100
0000
0000
0010
0000
0000
1000
0000
0000
0001
0000
0000
0100
0000
0000
0010
0000
0000
0000
0000
0000
1000
0000
0000
0000
0000
0000
0001
0000
0000
0000
0000
0000
0100
0000
0000
0000
0000
0000
,
0010
0100
0010
1000
0012
0000
0000
0000
,
1000
0000
0010
0000
2103
0000
0000
0100
,
3120
0000
0000
0030
0102
0000
0000
0000
,
0100
0000
1000
0000
2103
0000
0000
0100
,
3100
0000
0000
0000
0000
0000
0000
0000
0000
0000
0000
0000
1000
0001
1000
0010
0101
0000
0000
0000
0010
0000
0000
0000
0011
0000
0000
0000
1000
0000
0000
0000
,
1000
0010
0101
1000
1000
0001
0110
1000
,
1000
0010
1100
0001
0001
1000
0110
1000
,
1000
0001
1010
0100
0100
0001
1001
0100
,
0100
0010
0102
0000
2103
0000
0000
3120
,
0000
0000
2130
0000
3102
0000
0000
0213
,
0000
1320
2032
0000
,
0000
0000
0000
0000
0000
0000
0000
0000
0000
3003
0000
0000
0000
0000
1000
0000
0100
0000
0010
0000
0001
0000
0100
0000
,
0010
1000
0001
0010
0100
1000
0021
0000
0000
0000
0000
0000
,
0032
0000
0013
0000
0021
0000
0000
1030
,
2000
0000
0000
3000
0210
0000
0000
0000
,
0320
0000
0032
0003
2001
0000
0000
3020
,
0230
0000
0000
0000
0000
0000
0000
0000
0300
0000
0000
0000
0001
1000
0001
0000
0011
0000
0000
0000
1000
0000
0000
0000
0011
0000
0000
0000
1000
0000
0000
0000
,
1000
0010
0101
1000
1000
0001
0110
1000
,
1000
0010
1100
0001
0001
1000
0110
1000
,
1000
0001
1010
0100
0100
0001
1001
0100
,
0100
0010
0201
0000
0302
0000
0000
2003
,
0000
0000
3010
0000
2100
0000
0000
3020
,
0000
0130
0220
0000
,
0000
0000
0000
0000
0000
0000
0000
0000
0000
0330
0000
0001
,
0010
1000
0001
0100
0010
1000
0102
0000
0000
0103
0000
0000
,
2100
3010
0022
0000
,
0000
0000
0000
0033
1001
0000
0000
0000
;
