#TITLE:夢想歌;
#SUBTITLE:(DJ Shimamura Remix);
#ARTIST:Suara;
#TITLETRANSLIT:Musou Ka;
#SUBTITLETRANSLIT:;
#ARTISTTRANSLIT:;
#CREDIT:Owem;
#BANNER:../banner.png;
#BACKGROUND:../bg.png;
#LYRICSPATH:;
#CDTITLE:../cdtitleowem.png;
#MUSIC:Musou Ka (DJ Shimamura Remix).ogg;
#OFFSET:-1.076;
#SAMPLESTART:170.488;
#SAMPLELENGTH:29.999;
#SELECTABLE:YES;
#BPMS:0.000=170.000,192.000=85.000,240.000=170.000,496.000=85.000,512.000=170.000;
#STOPS:;
#BGCHANGES:;
// cache tags:
#FIRSTBEAT:0.000;
#LASTBEAT:860.000;
#SONGFILENAME:Songs/Owem's Simfiles 08 - 1.2/Musou Ka - [Owem] v1.0.0/Musou Ka.sm;
#HASMUSIC:1;
#HASBANNER:1;
#MUSICLENGTH:333.296;
// end cache tags

//---------------dance-single - 14+ (Owem)----------------
#NOTES:
     dance-single:
     14+ (Owem):
     Challenge:
     14:
     1.000,1.000,0.111,0.759,1.000,2481.000,37.000,253.000,77.000,0.000:
1000
0000
0000
0000
0010
0000
0200
0300
0020
0030
2000
3000
0001
0000
0000
0000
0010
0000
0000
0000
0100
0000
0000
0000
10M0
0000
0000
0000
0001
0000
0000
0000
,
0100
0100
0010
1000
0001
1000
0100
0010
,
0001
0100
0010
0100
0001
0001
1000
0010
,
0100
0001
0100
0010
1000
0100
1000
0004
,
0103
0000
0000
0000
0010
0000
0200
0300
0020
0030
2000
3000
0001
0000
0000
0000
0010
0000
0000
0000
0001
0000
0000
0000
M100
0000
0000
0000
0010
0000
0000
0000
,
1000
1000
0001
0010
0100
1000
0001
1000
,
0010
0100
0001
0100
0010
1000
0000
1000
,
0001
0010
0100
1000
0010
0010
0100
0001
,
1MM1
0000
0000
0000
1000
0000
0002
0003
2000
3000
0020
0030
0100
0000
0000
0000
0001
0000
0000
0000
1000
0000
0000
0000
00M1
0000
0000
0000
0100
0000
0000
0000
,
0010
1000
0001
0100
0001
0010
0100
1000
,
0001
0010
0001
1000
0100
0010
0100
1000
,
0001
1000
0010
0100
0001
1000
0010
0010
,
0100
0001
1M00
0010
0100
0001
10M0
0100
,
0010
0001
1000
0100
0010
0001
0100
0010
,
2M00
3002
0023
0230
2300
0000
3020
0230
,
032M
0000
2030
0000
0000
0000
3002
0000
0000
0000
0103
0010
0100
0000
0001
0000
,
1000
0100
0010
0001
1000
0001
0100
0010
1000
0001
0100
0010
0100
0001
1000
0010
,
1000
0100
0010
0001
1000
0100
1000
0001
0100
0010
1000
0001
0100
0001
0010
0100
,
1000
0001
0010
0001
0100
0010
1000
0001
0100
0001
0010
0100
1000
0100
0010
0001
,
1000
0100
1000
0001
0010
0001
1000
0001
0100
0010
1000
0001
0100
0001
0010
0100
,
1000
0001
0010
0001
1000
0100
0010
0100
1000
0001
0010
0001
0100
0001
1000
0100
,
0010
0001
1000
0100
1000
0001
0100
0010
1000
0001
0100
0001
0010
0100
1000
0001
,
0010
0001
0100
0010
1000
0001
0100
0010
0100
0001
1000
0010
1000
0100
0010
0001
,
1000
0100
1000
0001
0100
0010
1000
0001
0010
0100
2000
0000
3000
0000
0100
0000
,
0010
0001
1000
0001
0100
0010
1000
0001
0100
0001
0010
0100
1000
0001
0010
0001
,
0100
0010
1000
0001
1000
0100
0010
0100
1000
0001
0010
0001
1000
0100
1000
0010
,
0100
0001
1000
0100
1000
0001
0100
0001
0010
0100
1000
0001
0100
0010
1000
0001
,
0100
0001
0010
0100
1000
0001
1000
0001
0100
0010
1000
0001
0100
0010
0100
0010
,
1000
0001
1000
0100
0010
0001
1000
0001
,
0100
0010
1000
0001
1000
0100
1000
0010
,
0100
0001
1000
0010
1000
0100
0010
0001
1000
0100
1000
0001
0010
0001
0100
0010
,
2000
0000
0000
0000
0000
0000
3002
0000
0023
0000
0000
0030
0200
0000
2300
0000
,
3010
0100
0010
1000
0001
0100
0001
0010
0100
1000
0001
0010
0001
0100
0010
1000
,
0001
1000
0100
0010
0100
1000
0001
0010
0001
1000
0100
0010
0001
1000
0100
1000
,
0001
1000
0010
0100
0001
1000
0100
1000
0010
0100
0001
0100
0010
1000
0001
0100
,
0001
0010
0100
1000
0001
0010
0001
0100
0010
1000
0001
1000
0100
0010
0100
1000
,
0001
0010
0001
0100
0010
1000
0001
0100
0001
0010
0100
1000
0001
1000
0010
0100
,
0001
1000
0100
1000
0010
0100
0001
1000
0010
1000
0100
0010
0001
1000
0100
1000
,
0001
0100
0010
1000
0001
0010
0001
1000
0100
0010
0100
1000
0001
1000
0010
0100
,
0002
0000
0100
0003
0020
0000
0100
0030
0002
0000
1000
0003
0020
0000
0000
0030
,
1000
0100
1000
0001
0100
0010
1000
0001
0100
0001
0010
0100
1000
0001
1000
0100
,
0010
0100
1000
0001
0100
0001
0100
0010
1000
0001
1000
0100
0010
0100
1000
0001
,
0010
0001
0100
0010
1000
0001
0100
0001
1000
0100
1000
0010
0100
0001
1000
0001
,
0010
0100
1000
0001
0010
0001
1000
0001
0100
0010
1000
0001
0100
0001
1000
0100
,
0010
0100
1000
0001
1000
0100
0010
0001
1000
0100
1000
0001
0010
0001
0100
0010
,
1000
0001
0100
0001
1000
0010
1000
0001
0100
0010
1000
0001
0010
0001
0100
0010
,
1000
0001
1000
0100
0010
0001
1000
0010
,
1000
0000
0000
0000
0000
0000
0000
0000
0000
0000
0000
0000
0001
0000
0000
0000
0000
0000
0000
0000
0000
0000
0000
0000
0100
0000
0000
0000
0000
0000
0000
0000
0000
0000
0000
0000
0010
0000
0000
0000
0000
0000
0000
0000
0000
0000
0000
0000
0100
0000
0000
0000
0000
0000
0000
0000
0000
0000
0000
0000
0001
0000
0000
0000
0000
0000
0000
0000
0000
0000
0000
0000
1000
0000
0000
0000
0000
0000
0000
0000
0000
0000
0000
0000
0010
0000
0000
0000
0000
0000
0000
0000
0000
0000
0000
0000
1000
0000
0000
0000
0000
0000
0000
0000
0000
0000
0001
0000
0000
0000
0000
0000
0000
0000
0000
0100
0000
0000
0000
0000
0000
0000
0000
0000
0000
0010
0000
0000
0000
0000
0000
0000
0000
0000
0100
0000
0000
0000
0000
0000
0000
0000
0000
0000
0001
0000
0000
0000
0000
0000
0000
0000
0000
0000
1000
0000
0000
0000
0000
0000
0000
0000
0000
0010
0000
0000
0000
0000
0000
0000
0000
0000
0000
1000
0000
0000
0000
0000
0000
0000
0000
0000
0001
0000
0000
0000
0000
0000
0000
0000
0000
0000
,
0100
0010
0100
M001
0000
1000
000M
0010
0100
001M
1000
0100
M000
0010
M000
0001
,
M000
0100
0010
100M
0000
0001
00M0
1000
0000
0100
0010
0001
0000
1000
0000
0000
,
M010
0100
0001
M100
0000
0010
0M00
1000
0001
1000
0100
0010
0M00
0001
M000
0100
,
000M
0010
1000
001M
0000
0100
M000
0001
0000
1000
0100
0020
0000
0000
0000
0000
,
0032
0000
1003
0010
0200
0300
0001
2000
3M00
00M0
0M00
0000
000M
0100
0010
0002
,
0203
0000
0300
0000
0010
0000
1000
0000
0002
0000
0000
0000
0003
0000
0200
0000
0000
0300
0000
0000
00M0
0000
0000
0000
0000
0000
00M0
0000
0000
0000
0010
0000
,
1000
0000
0010
0000
0100
0000
0001
0000
2000
0000
0000
3000
0100
0000
0020
0000
000M
0000
M030
0000
0M00
0000
0000
0000
0M00
0000
0001
0000
1000
0000
0010
0000
,
2000
0000
0000
3000
0010
0000
0100
0000
0002
0000
0000
0003
1000
0000
0200
0000
0000
0300
00M0
0000
000M
0000
0000
0000
00M0
0000
1000
0000
0100
0000
1000
0000
,
0020
0000
0000
0000
0230
0000
0001
0000
0000
0000
0310
0000
1000
0000
0010
0000
0100
0000
0001
0000
1000
0000
0200
0000
0000
0300
M000
0000
0010
0000
0001
0000
,
0200
0000
0000
0300
0010
0000
2000
0000
0000
3000
0010
0000
0100
0000
0002
0000
M000
0000
0M03
0000
00M0
0000
000M
0000
0000
0000
0000
0000
1000
0000
0010
0000
,
0200
0000
0000
0302
0000
0000
2003
0000
0000
3000
0100
0000
0020
0000
0000
0030
0002
0000
0000
2003
0000
0000
3020
0000
0000
0030
0100
0000
0002
0003
0000
0000
,
1000
0000
0100
0000
1000
0000
0020
0000
0000
0030
0100
0000
0001
0000
1000
0000
0010
0000
0100
0001
0100
0000
0020
0000
0000
0000
2030
0000
0000
0000
0000
3000
,
1M01
0001
1000
0001
0020
0000
0130
1000
,
0001
0200
0000
0320
0000
0030
0000
1000
,
0001
0000
0010
0000
0100
0000
0010
0000
0002
0000
0000
0003
0100
0000
0010
0000
,
2000
0000
3000
0000
0001
0000
0020
0000
0000
0030
0000
0000
0100
0000
1000
0000
,
0002
0000
0000
0000
0103
0000
0020
0000
0000
0030
1000
0000
0001
0000
0010
0000
,
0001
0000
1000
0010
1000
0000
0100
0000
0020
0000
0030
0000
0001
0000
0100
0000
,
0002
0000
0000
0003
0020
0000
0000
0030
0100
0000
1000
0000
0001
0000
2000
0000
,
0000
3000
0010
0000
0100
0000
0001
0000
0020
0000
0000
0030
0200
0300
0000
0000
,
1100
1000
0001
0100
0020
0000
1030
0001
,
0010
0000
0200
0000
0000
0000
2300
0000
0000
3000
0000
0000
0001
0000
0000
0000
,
1000
0000
0100
0000
0010
0000
0001
0000
0200
0000
0000
0300
0010
0000
1000
0000
,
0002
0003
0100
0020
0030
0000
1000
0100
,
0020
0000
0000
0030
0001
0000
0200
0000
0300
0000
0010
0000
1000
0000
0010
0000
,
0100
0000
0001
1000
0001
0000
0010
0000
0200
0000
0300
0000
1000
0000
0010
0000
,
0200
0000
0302
0000
1003
0010
0100
0020
,
1000
0000
0030
0000
0000
0000
0100
0000
0002
0000
0000
0003
1000
0000
0010
0000
,
201M
0000
0000
3200
0320
0000
0032
0203
,
0000
0320
2030
0000
0000
0000
3002
0023
,
0230
0000
0000
2300
3020
0000
0230
0302
,
0000
2003
3200
0000
0000
0000
0000
0320
,
0032
0000
0000
2003
3020
0000
0230
0302
,
0000
2003
3200
0000
0000
0000
0000
0000
,
0320
0000
0000
0032
2003
0000
3020
0230
,
0000
0302
2003
0000
0000
0000
0000
0000
,
302M
0230
0302
2003
3200
0310
0002
2003
,
3200
2300
3001
0200
0310
1000
0001
0100
,
0001
0000
0010
0000
0100
0000
1000
0010
1000
0000
0001
0000
0100
0000
0010
0000
,
0100
0000
0001
0000
1000
0000
0100
0010
0001
0000
1000
0000
0010
0000
1000
0000
,
0010
0000
0100
0000
0001
0000
1000
0100
1000
0000
0010
0000
0100
0000
0001
0000
,
1000
0000
0100
0000
0010
0000
0001
1000
0001
0000
0100
0000
0010
0000
1000
0000
,
0100
0000
0000
0000
0000
0000
0000
0000
0000
0000
0000
0000
0010
0000
0000
0000
0000
0000
0000
0000
0000
0000
0000
0000
0001
0000
0000
0000
0000
0000
0000
0000
0000
0000
0000
0000
1000
0000
0000
0000
0000
0000
0000
0000
0000
0000
0000
0000
0001
0000
0000
0000
0000
0000
0000
0000
0000
0000
0000
0000
0100
0000
0000
0000
0000
0000
0000
0000
0000
0000
0000
0000
0010
0000
0000
0000
0000
0000
0000
0000
0000
0000
0000
0000
1000
0000
0000
0000
0000
0000
0000
0000
0000
0000
0000
0000
0010
0000
0000
0000
0000
0000
0000
0000
0000
0000
0100
0000
0000
0000
0000
0000
0000
0000
0000
0001
0000
0000
0000
0000
0000
0000
0000
0000
0000
1000
0000
0000
0000
0000
0000
0000
0000
0000
0010
0000
0000
0000
0000
0000
0000
0000
0000
0000
1000
0000
0000
0000
0000
0000
0000
0000
0000
0000
0100
0000
0000
0000
0000
0000
0000
0000
0000
0010
0000
0000
0000
0000
0000
0000
0000
0000
0000
0001
0000
0000
0000
0000
0000
0000
0000
0000
1000
0000
0000
0000
0000
0000
0000
0000
0000
0000
,
0002
0000
0000
0003
0000
0000
1000
0000
0200
0000
0000
0300
0010
0000
0001
0000
,
1000
0010
0100
0001
1000
0100
1000
0001
0100
0001
0010
0100
1000
0001
1000
0010
,
0100
0001
1000
0100
1000
0001
0100
0010
1000
0001
0100
0001
0010
0100
1000
0001
,
0010
0001
1000
0100
0010
0100
1000
0001
1000
0010
0100
0001
1000
0100
1000
0100
,
0010
0001
1000
0001
0100
0010
1000
0001
1000
0001
0010
0100
1000
0001
1000
0100
,
1000
0010
0100
0001
1000
0001
0010
0100
1000
0001
0100
0001
1000
0010
0100
0001
,
1000
0100
1000
0001
0100
0010
1000
0001
0100
0001
0010
0100
1000
0001
0010
0001
,
1000
0100
1000
0001
1000
0010
0100
0001
1000
0001
0010
0100
1000
0001
0010
0001
,
1000
0100
0010
0100
1000
0001
1000
0010
0100
0001
1000
0010
1000
0000
0010
0000
,
0100
0001
1000
0010
1000
0100
0010
0001
1000
0100
1000
0001
0010
0001
0100
0010
,
1000
0001
1000
0100
0010
0100
1000
0001
0010
0001
1000
0100
0010
0001
1000
0001
,
1000
0100
0010
0001
1000
0001
0100
0010
0100
0001
1000
0100
1000
0001
0100
0001
,
0010
0100
1000
0001
1000
0010
0100
0001
1000
0100
1000
0001
0010
0001
1000
0010
,
1000
0001
0100
0010
1000
0001
0100
0001
0010
0100
1000
0001
0010
0001
1000
0100
,
1000
0001
1000
0010
0100
0001
1000
0100
0010
0100
1000
0001
1000
0010
0100
0001
,
1000
0100
1000
0001
0100
0001
0010
0100
1000
0001
0010
0001
1000
0010
1000
0001
,
0100
0000
0000
0000
0000
0000
0000
0000
0000
0000
0000
0000
0010
0000
0000
0000
0000
0000
0000
0000
0000
0000
0000
0000
1000
0000
0000
0000
0000
0000
0000
0000
0000
0000
0000
0000
0100
0000
0000
0000
0000
0000
0000
0000
0000
0000
0000
0000
1000
0000
0000
0000
0000
0000
0000
0000
0000
0000
0000
0000
0001
0000
0000
0000
0000
0000
0000
0000
0000
0000
0000
0000
0010
0000
0000
0000
0000
0000
0000
0000
0000
0000
0000
0000
0001
0000
0000
0000
0000
0000
0000
0000
0000
0000
0000
0000
0100
0000
0000
0000
0000
0000
0000
0000
0000
0000
0010
0000
0000
0000
0000
0000
0000
0000
0000
1000
0000
0000
0000
0000
0000
0000
0000
0000
0000
0001
0000
0000
0000
0000
0000
0000
0000
0000
0100
0000
0000
0000
0000
0000
0000
0000
0000
0000
0001
0000
0000
0000
0000
0000
0000
0000
0000
0000
0010
0000
0000
0000
0000
0000
0000
0000
0000
0100
0000
0000
0000
0000
0000
0000
0000
0000
0000
1000
0000
0000
0000
0000
0000
0000
0000
0000
0010
0000
0000
0000
0000
0000
0000
0000
0000
0000
,
0100
0001
1000
0010
1000
0100
0010
0001
1000
0100
1000
0001
0010
0001
0100
0010
,
1000
0001
0100
0010
0100
0001
1000
0100
0010
0100
1000
0001
0010
0001
1000
0100
,
0010
0100
1000
0001
0010
0001
0100
0010
1000
0001
0100
0001
1000
0100
0010
0001
,
1000
0100
1000
0001
0100
0001
1000
0010
0100
0001
0100
0010
1000
0001
1000
0010
,
0100
0001
1000
0100
1000
0001
0100
0001
0010
0100
1000
0001
0010
0001
1000
0100
,
1000
0010
0100
0001
1000
0010
1000
0001
1000
0100
0010
0001
0100
0001
1000
0100
,
1000
0010
1000
0001
0100
0001
0010
0100
1000
0001
0010
0001
0100
0010
1000
0001
,
0100
0010
0100
0001
1000
0100
0010
0001
1000
0100
1000
0010
0100
0000
0001
0000
,
1000
0100
1000
0001
0010
0001
0100
0010
1000
0001
0100
0010
0100
0001
1000
0010
,
1000
0001
1000
0100
0010
0100
1000
0001
0010
0001
0100
0010
1000
0001
0100
0001
,
0010
0100
1000
0001
0010
0001
1000
0100
1000
0001
1000
0010
0100
0001
0100
0010
,
1000
0100
1000
0001
0100
0001
0010
0100
1000
0001
1000
0010
0100
0001
0100
0010
,
1000
0100
0010
0100
1000
0001
0010
0001
0100
0001
1000
0100
0010
0001
1000
0001
,
0010
0100
1000
0001
0010
0001
0100
0010
1000
0001
0100
0001
1000
0100
0010
0001
,
1000
0100
1000
0001
0100
0010
1000
0001
0010
0001
0100
0010
1000
0001
0100
0001
,
2000
0000
0000
3000
0000
0000
0100
0000
0020
0000
0000
0000
0031
0000
0200
0000
,
M310
0100
0001
10M0
0000
0100
M000
0010
0001
0100
0001
1000
0M00
0010
000M
0100
,
M000
0001
0010
010M
0000
1000
0M00
00M1
0000
1000
0010
0100
0000
0001
0000
0000
,
10M0
0100
1000
001M
0000
0100
00M0
0001
1000
0001
0010
0100
000M
1000
0M00
0010
,
M000
0100
0001
M100
0000
0M10
000M
2000
0000
0000
0000
0000
0000
0010
0010
0000
,
3M2M
0000
0230
0000
0302
0000
2003
0000
3200
0000
0310
0001
2000
0000
3002
0003
,
0101
0000
0110
0000
0010
0000
0100
0000
0001
0000
1002
0000
2003
0000
3200
0300
,
0210
0000
0310
0000
0002
0000
0203
0000
0302
0003
0012
0000
0023
0000
0230
0300
,
1100
0000
1010
0000
0010
0000
0100
0000
0001
0000
1001
0000
1000
0000
0200
0300
,
0210
0000
0320
0000
0032
0000
0203
0000
0320
0000
1030
0002
1003
0000
0200
0300
,
0110
0000
0011
0000
0001
0000
1000
0000
0010
0000
1020
0000
2030
0000
3002
0003
,
0012
0000
0023
0000
0230
0000
2300
0000
3010
0000
0110
0000
0200
0000
0302
0003
,
0101
0000
1001
0000
1000
0000
0010
0000
0100
0000
0201
0000
0302
0000
2003
3000
,
1MM2
0000
0000
0000
1003
0000
0200
0000
0000
0300
0110
0000
0010
0000
0001
0000
,
1001
0000
1010
0000
0010
0000
0200
0000
0000
0300
0101
0000
0001
0000
1000
0000
,
1200
0000
0000
0300
0010
0000
0002
0000
0003
0000
0101
0000
0100
0000
0020
0030
,
1010
1010
1000
0001
0000
0101
0100
0020
,
1030
0000
0001
0100
0010
0000
2000
0000
0000
3000
0200
0000
0320
0000
0031
0000
,
2000
0000
3010
0200
0001
0300
0200
0000
0000
0300
0020
0000
2030
0000
3001
0000
,
2000
0000
3200
0000
0320
0000
0032
0000
0000
0003
0200
0000
0320
0000
2030
0000
,
3020
0000
0130
0001
0200
0300
0020
0000
0000
0000
2030
0000
0000
0000
3000
0000
,
1MM1
0001
1000
0010
0100
0000
0100
0001
,
1000
0100
0000
0010
0000
0000
0000
0001
,
0010
0100
1000
0010
0100
0000
0010
0100
,
0001
0000
1000
2000
3000
0000
0100
0010
,
0001
0000
1000
0001
0000
0100
0001
0010
,
0001
0000
1000
0100
1000
0000
0010
0000
0200
0000
0300
0000
0001
0000
1000
0000
,
0010
0000
0100
0000
0001
1000
0100
0010
,
0000
0000
0001
0000
0100
0000
0010
0000
1000
0000
0002
0000
0000
0000
0000
0003
,
10M2
2003
3020
2030
3020
0130
0020
0230
,
0302
0023
0031
0020
0130
1000
0100
1000
,
0020
2030
3020
2030
3002
1003
0002
2003
,
3002
0013
0002
0023
0031
1000
0020
2030
,
3020
0130
0020
0230
0310
0200
0320
0230
,
0302
0000
2003
3002
2003
0000
3002
0000
2003
0000
3001
0000
2000
0000
3002
0000
,
0203
0310
0200
0310
0200
0302
0203
0302
,
1003
0020
2030
3020
2030
3001
2000
3001
,
1MM1
1000
0010
0100
0001
1000
0100
1000
,
0001
0010
0001
0100
0010
1000
0001
0100
,
0001
1000
0100
0010
0001
1000
0010
1000
,
0001
0100
0010
1000
0001
0010
0001
1000
,
01M0
1000
0001
1000
0010
0100
0001
1000
,
01M0
1000
0001
0100
0010
1000
0001
0010
,
01M0
0000
0000
0000
0000
0000
0000
0000
0000
0000
0000
0000
1000
0000
0000
0000
0000
0000
0000
0000
0000
0000
0000
0000
0001
0000
0000
0000
0000
0000
0000
0000
0000
0000
0000
0000
1000
0000
0000
0000
0000
0000
0000
0000
0000
0000
0000
0000
0010
0000
0000
0000
0000
0000
0000
0000
0000
0000
0000
0000
0100
0000
0000
0000
0000
0000
0000
0000
0000
0000
0000
0000
0001
0000
0000
0000
0000
0000
0000
0000
0000
0000
0000
0000
1000
0000
0000
0000
0000
0000
0000
0000
0000
0000
0000
0000
0100
0000
0000
0000
0000
0000
0000
0000
0000
0000
0010
0000
0000
0000
0000
0000
0000
0000
0000
0001
0000
0000
0000
0000
0000
0000
0000
0000
0000
0100
0000
0000
0000
0000
0000
0000
0000
0000
0001
0000
0000
0000
0000
0000
0000
0000
0000
0000
1000
0000
0000
0000
0000
0000
0000
0000
0000
0000
0010
0000
0000
0000
0000
0000
0000
0000
0000
1000
0000
0000
0000
0000
0000
0000
0000
0000
0000
0001
0000
0000
0000
0000
0000
0000
0000
0000
0100
0000
0000
0000
0000
0000
0000
0000
0000
0000
,
0010
0000
1000
0001
1000
0000
0100
0000
0110
0000
0000
0012
0000
0003
0000
0000
,
100M
0100
0010
0001
0100
0001
1000
0010
0100
0001
1000
0100
1000
0001
0010
0001
,
0100
0010
1000
0001
0100
0010
0100
0001
1000
0100
0010
0001
1000
0100
1000
0001
,
0010
0001
0100
0010
1000
0001
0100
0001
1000
0010
1000
0001
1000
0100
0010
0100
,
1000
0001
0010
0001
0100
0010
1000
0001
0100
0001
1000
0010
1000
0100
0010
0001
,
1000
0100
1000
0001
0010
0001
0100
0010
1000
0010
0100
0001
1000
0100
0010
0100
,
1000
0001
0010
0001
1000
0001
0100
0010
1000
0001
0100
0001
0010
0100
1000
0001
,
0010
0001
1000
0100
0010
0001
1000
0100
1000
0010
1000
0001
0100
0001
0010
0100
,
1000
0001
1000
0010
0100
0001
1000
0010
1000
0100
0010
0001
1000
0000
0010
0000
,
0100
0001
1000
0010
1000
0100
1000
0001
0010
0001
0100
0010
1000
0001
0100
0001
,
1000
0100
0010
0100
1000
0001
0010
0001
0100
0010
1000
0001
0100
0010
0100
0001
,
1000
0100
1000
0010
0100
0001
1000
0001
0100
0010
1000
0001
0100
0001
0010
0100
,
1000
0001
0010
0001
0100
0010
1000
0001
0100
0010
0100
0001
1000
0100
0010
0100
,
1000
0001
0010
0001
1000
0100
1000
0001
1000
0010
0100
0001
0100
0010
1000
0001
,
0010
0001
1000
0100
1000
0001
0100
0001
0010
0100
1000
0001
0010
0001
0100
0010
,
1000
0001
0100
0010
0100
0001
1000
0100
0010
0001
1000
0100
1000
0001
0100
0010
,
0100
0000
0000
0000
0000
0000
0000
0000
0000
0000
0000
0000
0001
0000
0000
0000
0000
0000
0000
0000
0000
0000
0000
0000
1000
0000
0000
0000
0000
0000
0000
0000
0000
0000
0000
0000
0010
0000
0000
0000
0000
0000
0000
0000
0000
0000
0000
0000
1000
0000
0000
0000
0000
0000
0000
0000
0000
0000
0000
0000
0100
0000
0000
0000
0000
0000
0000
0000
0000
0000
0000
0000
0010
0000
0000
0000
0000
0000
0000
0000
0000
0000
0000
0000
0001
0000
0000
0000
0000
0000
0000
0000
0000
0000
0000
0000
1000
0000
0000
0000
0000
0000
0000
0000
0000
0000
0000
0000
0010
0000
0000
0000
0000
0000
0000
0000
0000
0000
0000
0000
1000
0000
0000
0000
0000
0000
0000
0000
0000
0000
0000
0000
0001
0000
0000
0000
0000
0000
0000
0000
0000
0000
0000
0000
0100
0000
0000
0000
0000
0000
0000
0000
0000
0000
0010
0000
0000
0000
0000
0000
0000
0000
0000
1000
0000
0000
0000
0000
0000
0000
0000
0000
0000
0001
0000
0000
0000
0000
0000
0000
0000
0000
1000
0000
0000
0000
0000
0000
0000
0000
0000
0000
,
0010
0100
0001
1000
0100
0010
0001
1000
0100
1000
0001
0010
0001
0100
0010
1000
,
0001
0100
0001
0010
0100
1000
0001
0010
0001
1000
0100
0010
0001
1000
0001
0100
,
0010
0100
0001
1000
0010
1000
0001
1000
0100
0010
0001
1000
0100
1000
0001
0100
,
0001
1000
0100
1000
0010
1000
0001
0100
0010
0100
0001
1000
0100
0010
0100
1000
,
0001
0100
0010
1000
0001
0100
0010
0100
0001
1000
0100
1000
0001
0100
0001
1000
,
0100
0010
0001
1000
0100
1000
0010
1000
0001
0100
0010
1000
0001
0100
0001
0010
,
0100
1000
0001
0010
0001
1000
0010
1000
0001
0100
0010
0100
0001
1000
0100
0010
,
0001
1000
0010
1000
0001
0100
0010
0100
0001
0000
0020
0000
0030
0000
0200
0000
,
1300
0001
1000
0010
0100
0001
1000
0100
0010
0100
1000
0001
0010
0001
0100
0001
,
1000
0010
1000
0100
0010
0001
1000
0100
1000
0001
0100
0010
1000
0001
0100
0001
,
0010
0100
1000
0001
0010
0001
0100
0010
1000
0001
0100
0010
0100
0001
1000
0100
,
0010
0001
1000
0001
0100
0010
1000
0001
0100
0001
0010
0100
1000
0001
0010
0001
,
1000
0100
0010
0001
1000
0001
0100
0010
0100
0001
1000
0100
1000
0001
0100
0001
,
1000
0001
0100
0010
0100
0001
0010
0001
1000
0100
0010
0001
1000
0100
1000
0001
,
0100
0010
1000
0001
1000
0100
0010
0001
1000
0100
1000
0010
0100
0001
1000
0001
,
0020
0000
0230
0000
2300
0000
0000
0000
0000
0000
3001
0100
0020
0000
0000
0000
,
1030
0001
0100
0010
0100
0001
1000
0010
1000
0100
0010
0001
1000
0100
1000
0001
,
0010
0001
0100
0010
1000
0001
1000
0100
0010
0001
1000
0100
1000
0001
0010
0001
,
0100
0010
1000
0001
0100
0010
0100
0001
1000
0100
0010
0001
1000
0001
0100
0010
,
1000
0001
0010
0001
0100
0010
1000
0001
0100
0001
1000
0100
1000
0010
0100
0001
,
0100
0010
1000
0001
1000
0100
0010
0001
1000
0100
1000
0001
0100
0010
1000
0001
,
0010
0001
0100
0010
1000
0001
1000
0100
0010
0001
1000
0100
1000
0010
1000
0001
,
0100
0010
1000
0001
0100
0001
1000
0001
0100
0010
0100
0001
0100
0010
1000
0001
,
0010
0001
1000
0100
0010
0001
1000
0100
1000
0001
0100
0010
1000
0000
0010
0000
,
0100
0001
1000
0010
1000
0100
0010
0001
1000
0100
1000
0001
0010
0001
0100
0010
,
1000
0001
1000
0100
0010
0100
1000
0001
0010
0001
1000
0001
0100
0010
0100
0001
,
1000
0010
1000
0100
0010
0001
1000
0100
1000
0001
0010
0001
0100
0010
1000
0001
,
0100
0001
1000
0010
1000
0001
1000
0100
0010
0100
1000
0001
0100
0010
0100
0010
,
1000
0001
1000
0100
0010
0100
1000
0001
,
1000
0010
0100
0001
0100
0010
1000
0001
,
1000
0100
0010
0001
0100
0001
1000
0010
0100
0001
1000
0001
0100
0010
1000
0010
,
0100
0000
0000
0000
;
