#TITLE:合体せよ！ストロングイェーガー！！;
#SUBTITLE:(Ryu Remix);
#ARTIST:L.E.D. Remixed by Ryu;
#TITLETRANSLIT:The Strong Jaeger;
#SUBTITLETRANSLIT:;
#ARTISTTRANSLIT:;
#CREDIT:;
#BANNER:The Strong Jaeger (Ryu Remix).png;
#BACKGROUND:The Strong Jaeger (Ryu Remix)-bg.png;
#LYRICSPATH:;
#CDTITLE:!bluemystic-cdtitle.png;
#MUSIC:beatmania IIDX 12 HAPPY SKY - The Strong Jaeger (Ryu Remix).mp3;
#OFFSET:-2.196;
#SAMPLESTART:82.706;
#SAMPLELENGTH:12.389;
#SELECTABLE:YES;
#BPMS:0.000=154.920,71.000=77.460,111.000=154.980;
#STOPS:64.000=1.162
,65.000=1.162
,66.000=1.162
,68.000=0.387
,70.000=5.809
;
#BGCHANGES:;
// cache tags:
#FIRSTBEAT:0.000;
#LASTBEAT:223.000;
#SONGFILENAME:Songs/Keyboard Collaboration II/Bluemystic - The Strong Jaeger (Ryu Remix)/The Strong Jaeger (Ryu Remix).sm;
#HASMUSIC:1;
#HASBANNER:1;
#MUSICLENGTH:116.796;
// end cache tags

//---------------dance-single - ----------------
#NOTES:
     dance-single:
     :
     Hard:
     11:
     0.994,1.000,1.000,0.753,0.955,599.000,126.000,88.000,0.000,1.000:  // measure 1
1001
0000
0000
0100
0000
0000
0010
0000
0000
0001
0000
0000
0100
0000
0100
0000
,  // measure 2
0010
0000
0000
1000
0000
0000
0001
0000
0000
0100
0000
0000
0010
1000
0010
0100
,  // measure 3
0001
0000
0000
0100
0000
0000
0001
0000
0000
1000
0000
0000
0001
0000
0001
0000
,  // measure 4
0100
0000
0000
0010
0000
0000
1000
0000
0000
0100
0000
0000
0010
0100
0010
0001
,  // measure 5
1100
0000
0000
1000
0000
0000
0001
0000
0000
0100
0000
0000
0001
0000
0001
0000
,  // measure 6
0100
0000
0000
0010
0000
0000
1000
0000
0000
0100
0000
0000
0010
0001
0100
0010
,  // measure 7
1000
0000
0000
0100
0000
0000
0010
0000
0000
0001
0000
0000
0100
0000
0100
0000
,  // measure 8
1001
0100
0011
1000
0101
0010
1001
1000
,  // measure 9
0110
1000
0100
0010
0001
0010
0100
1000
0001
0100
0010
1000
0001
0010
0200
0000
,  // measure 10
1300
0010
0100
0001
0010
0100
1000
0100
0010
0001
1000
0001
0010
0100
2000
0000
,  // measure 11
3010
0100
0010
1000
0100
1000
0001
0100
0001
0010
0100
0010
0001
0100
0002
0000
,  // measure 12
1003
0000
0100
0000
0001
0000
0100
0000
1000
0000
0010
0000
0100
0000
0001
0000
0100
0000
0010
0000
0001
0000
0010
0000
0100
0000
0001
0000
0020
0000
0000
0030
,  // measure 13
1001
0100
0001
1000
0010
0100
0002
0000
1003
0100
0010
0001
0010
0100
1000
1000
,  // measure 14
0101
0001
0100
0010
1000
0100
0020
0000
0031
0100
0001
0100
0010
1000
0001
0001
,  // measure 15
0110
0000
1000
1000
0101
0000
0010
0010
1001
0000
0001
0001
0110
0000
0100
0100
,  // measure 16
1001
0100
0010
0100
1001
0010
0100
0010
0101
1000
0010
1000
0101
0010
0100
0010
,  // measure 17
2002
3003
0000
0000
0000
0000
0000
0000
0022
0033
0000
0000
0000
0000
0000
0000
2020
3030
0000
0000
0000
0000
0000
0000
0220
0330
0000
0000
0000
0000
0000
0000
,  // measure 18
0011
0000
0000
0000
0000
0000
0000
0000
0101
0000
0000
0000
0000
0000
0000
0000
0220
0330
0000
0000
0000
0000
0000
0000
1001
0000
0000
0000
2000
0000
0000
0000
,  // measure 19
3200
0000
0320
0000
0032
0000
0203
0320
0000
2030
3200
0000
0300
0000
0020
0000
,  // measure 20
0032
0000
2003
0000
3020
0000
0230
0302
0000
0023
0230
0000
0300
0000
2000
0000
,  // measure 21
3002
0000
0203
0000
0320
0000
0230
0302
0000
0023
0230
0000
2300
0000
3002
0023
,  // measure 22
0000
0032
0203
0000
0320
0000
2030
3200
0000
2300
3022
0033
2020
3030
0200
0000
,  // measure 23
0320
0000
0000
0030
2002
0000
3003
0000
2020
0000
3030
0000
0200
0000
0000
0000
0302
0000
0000
0003
0022
0000
0033
0000
2200
0000
3300
0000
2000
0000
0000
0000
,  // measure 24
3020
0000
0000
0030
2002
0000
3003
0000
0022
0000
0033
0000
0200
0000
0000
0000
0302
0000
0000
0003
0022
0000
0033
0000
0101
0001
0000
0010
0110
0100
0000
0100
,  // measure 25
0101
0000
0000
0000
0000
0000
0001
0000
0000
0000
0000
0000
0000
0000
0000
0000
0000
0000
1000
0000
0000
0000
0000
0000
1001
0000
0000
0000
0000
0000
0001
0000
0000
0000
0000
0000
0000
0000
0000
0000
0000
0000
1000
0000
0000
0000
0000
0000
1010
0000
0000
0000
0000
0000
0010
0000
0000
0000
0000
0000
0000
0000
0000
0000
0000
0000
0001
0000
0000
0000
0000
0000
0011
0000
0000
0000
0000
0000
0010
0000
0000
0000
0000
0000
0000
0000
0000
0000
0000
0000
0100
0000
0000
0000
0000
0000
1100
0000
0000
0000
0000
0000
1000
0000
0000
0000
0000
0000
0000
0000
0000
0000
0000
0000
1000
0000
0000
0000
0000
0000
1001
0000
0000
0000
0000
0000
0001
0000
0000
0000
0000
0000
0100
0000
0000
0000
0000
0000
0001
0000
0000
0000
0000
0000
1000
0000
0000
0000
0000
0000
0000
0000
0100
0000
0000
0000
0000
0000
0000
0000
0010
0000
0000
0000
0000
0000
0000
0000
0001
0000
0000
0000
0000
0000
0000
0000
0010
0000
0000
0000
0000
0000
0000
0000
0100
0000
0000
0000
0000
0000
0000
0000
,  // measure 26
1000
0000
0000
0000
0000
0000
0000
0000
0001
0000
0000
0000
0000
0000
0000
0000
0100
0000
0000
0000
0000
0000
0000
0000
0010
0000
0000
0000
0000
0000
0000
0000
1000
0000
0000
0000
0000
0000
0000
0000
0010
0000
0000
0000
0000
0000
0000
0000
0100
0000
0000
0000
0000
0000
0000
0000
0001
0000
0000
0000
0000
0000
0000
0000
1000
0000
0000
0000
0000
0000
0000
0000
0100
0000
0000
0000
0000
0000
0000
0000
0010
0000
0000
0000
0000
0000
0000
0000
0001
0000
0000
0000
0000
0000
0000
0000
0100
0000
0000
0000
0000
0000
0000
0000
0010
0000
0000
0000
0000
0000
0000
0000
1000
0000
0000
0000
0000
0000
0000
0000
0001
0000
0000
0000
0000
0000
1000
0000
0000
0000
0000
0000
0001
0000
0000
0000
0000
0000
1000
0000
0000
0000
0000
0000
0001
0000
0000
0000
0000
0000
1000
0000
0000
0000
0000
0000
0100
0000
0000
0000
0000
0000
0010
0000
0000
0000
0000
0000
0001
0000
0000
0000
0000
0000
0100
0000
0000
0000
0000
0000
0010
0000
0000
0000
0000
0000
0100
0000
0000
0000
0000
0000
,  // measure 27
0001
0010
0100
1000
0010
0100
0010
1000
0010
0100
0001
0010
0100
1000
0100
0010
0001
0100
0010
1000
0002
0000
0000
0003
1001
0000
0100
0000
0011
0000
0100
0000
,  // measure 28
1010
0000
0001
0000
0110
0000
1000
0000
0101
0000
0000
0000
0000
0000
0000
0000
0001
0100
0010
1000
0100
0010
0001
0100
1001
0000
0000
0000
0100
0000
0000
0000
,  // measure 29
0011
1000
0110
0010
1010
0100
0011
0100
,  // measure 30
1010
1100
0010
0110
1100
0001
0010
0100
,  // measure 31
1001
0010
1100
0010
0101
0001
0101
0100
,  // measure 32
1010
0101
0010
0011
1010
0100
0010
1000
,  // measure 33
0101
0010
1001
1000
0110
0010
0101
0010
,  // measure 34
0011
0110
0001
1010
0011
0100
0101
0010
,  // measure 35
1100
0011
0010
0110
1100
0001
1001
0001
,  // measure 36
1010
0000
0101
0000
0001
0000
0110
0000
1010
0000
0100
0000
1001
0100
0010
0001
,  // measure 37
0000
0100
0010
1000
0100
0010
0001
0010
0100
1000
0001
0000
1000
0001
0100
0010
,  // measure 38
0000
1000
0001
1000
0010
0100
0001
0010
0100
1000
0001
0000
1000
0001
1000
0100
,  // measure 39
0000
0100
0010
0001
0100
0010
0100
0001
1000
0100
0010
0000
0001
1000
0001
0100
,  // measure 40
0000
0010
0100
0001
0010
0100
1000
0001
0100
0001
0010
0000
1001
0010
0100
0001
,  // measure 41
0000
1000
0100
0010
0001
0100
0010
0100
0001
1000
0100
0000
0010
0001
1000
0100
,  // measure 42
0000
0100
1000
0001
0100
0010
0100
0010
1000
0100
0010
0000
1001
0000
0100
0000
,  // measure 43
0011
0000
0101
0000
0010
0000
1100
0000
0101
0000
0010
0000
2200
0000
0000
3300
,  // measure 44
0022
0000
0000
0033
2200
0000
0000
0000
0000
0000
3300
0000
2200
0000
0000
3300
0022
0000
0000
0000
0000
0000
0033
0000
1001
0000
0000
0000
1000
0000
0100
0000
,  // measure 45
1000
0000
0001
0001
0100
0000
0110
0000
1010
0000
1001
0000
0101
0000
0001
0100
,  // measure 46
0001
0000
1000
1000
0100
0000
0010
0001
0000
0001
0100
0000
1010
0000
1000
0010
,  // measure 47
1000
0000
0000
0000
0000
0000
0001
0000
0000
0001
0000
0000
1001
0000
0000
0000
1100
0000
0000
0000
0110
0000
0000
0000
0011
0000
0000
0000
0101
0000
0000
0000
1010
0000
0000
0000
1100
0000
0000
0000
0011
0000
0000
0000
0110
0000
0000
0000
,  // measure 48
1001
0000
0011
0000
1010
0000
2002
0000
0000
0000
0000
0000
0000
0000
0000
0000
3003
0000
1001
0000
0000
0100
0000
0000
,  // measure 49
0001
0100
0001
0000
1000
0000
0000
0100
0010
0000
0001
0000
0100
0000
0000
0100
,  // measure 50
0010
0000
1000
0000
0001
0000
0000
1000
0001
0000
0100
0000
0001
0000
1000
0000
,  // measure 51
0100
0010
0100
0000
0010
0000
0000
0001
0100
0000
0010
0000
1000
0000
0000
0001
,  // measure 52
0100
0000
0010
0000
1000
0000
0000
0001
0100
0000
0010
0000
1001
0000
0100
0000
,  // measure 53
0010
0001
0010
0000
0001
0000
0000
1000
0100
0000
0010
0000
1001
0000
0000
0100
,  // measure 54
0010
0000
0001
0000
0100
0000
0000
0001
0100
0000
0010
0000
1001
0000
1100
0000
,  // measure 55
0011
0000
0110
0000
1100
0000
0001
0100
0001
0000
0001
0100
0001
0000
1001
0100
,  // measure 56
0000
0000
1001
0000
0001
0000
1010
0100
0000
0000
0110
0000
1001
0000
0000
0000
;
