#TITLE:Last Battle T260G;
#SUBTITLE:;
#ARTIST:伊藤賢治;
#TITLETRANSLIT:;
#SUBTITLETRANSLIT:;
#ARTISTTRANSLIT:ITO KENJI;
#CREDIT:;
#BANNER:ba.jpg;
#BACKGROUND:bg.jpg;
#LYRICSPATH:lyric.lrc;
#CDTITLE:cd.png;
#MUSIC:Last Battle -T260G.mp3;
#OFFSET:-0.680;
#SAMPLESTART:109.800;
#SAMPLELENGTH:16.400;
#SELECTABLE:YES;
#BPMS:0.000=147.360;
#STOPS:;
#BGCHANGES:;
// cache tags:
#FIRSTBEAT:0.000;
#LASTBEAT:352.000;
#SONGFILENAME:Songs/toune 2/(AS)Last Battle-T260G/t260.sm;
#HASMUSIC:1;
#HASBANNER:1;
#MUSICLENGTH:148.721;
// end cache tags

//---------------dance-single - ----------------
#NOTES:
     dance-single:
     :
     Hard:
     10:
     0.962,1.000,1.000,0.256,1.000,752.000,211.000,38.000,0.000,0.000:
1001
0100
0010
0100
1000
0010
0100
0010
1001
0010
0100
0010
0001
0010
0100
0010
,
1001
0100
0010
0100
1000
0100
0010
0100
1001
0010
0100
0010
0001
0010
0100
0010
,
1001
0100
0010
0100
1000
0100
0010
0100
1001
0010
0100
0010
0001
0010
0100
0010
,
1001
0100
0010
0100
1000
0100
0010
0100
1001
0010
0100
0010
0001
0010
0100
0010
,
1000
0100
0000
0002
0000
0000
0000
0003
0001
0010
0000
2000
0000
0000
0000
3000
,
1000
0100
0000
0002
0000
0000
0000
0003
0001
0010
0000
2000
0000
0000
0000
3000
,
1000
0100
0000
0002
0000
0000
0000
0003
0001
0010
0000
2000
0000
0000
0000
3000
,
1001
0000
0000
0000
0110
0000
0000
0000
1001
0100
0010
0100
0010
0100
0010
0100
,
1001
0000
0000
0110
0000
0010
1100
0000
0110
0000
0000
0011
0000
0001
0110
0000
,
1100
0000
0000
1010
0000
0010
0101
0000
1100
0000
0000
0011
0000
0001
0110
0000
,
1001
0000
0000
0011
0000
0010
1100
0000
1010
0000
0000
0011
0000
0010
0101
0000
,
0110
0000
0000
1001
0000
0100
0011
0000
0110
0000
0000
0110
0001
0010
0100
0010
,
1100
0000
0000
0011
0000
1000
0110
0000
1010
0000
0000
0110
0000
0100
0011
0000
,
1100
0000
0000
0110
0000
0001
1010
0000
0110
0000
0000
0011
0000
0010
1100
0000
,
1010
0000
0000
0110
0000
0100
0011
0000
1010
0000
0000
0101
0000
0100
0011
0000
,
1100
0000
0000
0000
0000
0000
0000
0000
0000
0000
0000
0000
0011
0000
0000
0000
0000
0000
0000
0000
1000
0000
0000
0000
0110
0000
0000
0000
0000
0000
0000
0000
0011
0000
0000
0000
0000
0000
0000
0000
0000
0000
0000
0000
0220
0000
0000
0000
0000
0000
0000
0000
0000
0000
0000
0000
0000
0000
0000
0000
0000
0000
0000
0330
,
1001
0000
0001
0000
0010
0000
0001
0000
1010
0000
0000
0110
0000
0000
0000
0000
,
0000
0000
1000
0000
0100
0000
1000
0000
0110
0000
0000
1001
0000
0000
0000
0000
,
0000
0000
0100
0000
0010
0000
0001
0000
0011
0000
0000
1010
0000
0000
0000
0000
,
0000
0000
0100
0000
0010
0000
1000
0000
0011
0000
0000
0010
0100
0010
1001
0000
,
0000
0000
0100
0000
0001
0000
0010
0000
1100
0000
0000
0110
0000
0000
0000
0000
,
0000
0000
0100
0000
0010
0000
0100
0000
1100
0000
0000
0011
0000
0000
0000
0000
,
0000
0000
0100
0000
0010
0000
0001
0000
0101
0000
0000
1001
0000
0000
0100
0000
,
0100
0010
0001
0010
0100
0001
1000
0001
0010
0100
0000
0010
0000
0010
0001
1000
,
0110
0000
1100
0000
0110
0000
0011
0000
0110
0000
0000
1001
0000
0000
0000
0000
,
0000
0000
1100
0000
0110
0000
0101
0000
0110
0000
0000
0011
0000
0000
0000
0000
,
0000
0000
0101
0000
1010
0000
0110
0000
0011
0000
0000
1010
0000
0000
0000
0000
,
0000
0000
1100
0000
0101
0000
0110
0000
0101
0000
0000
0110
0001
0010
1100
0000
,
0000
0000
0110
0000
1010
0000
0101
0000
0011
0000
0000
0101
0000
0000
0000
0000
,
0000
0000
1100
0000
1010
0000
1001
0000
0110
0000
0000
0011
0000
0000
0000
0000
,
0000
0000
0101
0000
0011
0000
1001
0000
0110
0000
0000
0011
0000
0000
0110
0000
,
0100
0001
0010
1000
0100
0000
0200
0000
0010
0001
1300
0010
0000
0010
0000
0000
,
1010
0101
0000
0101
0000
0000
0000
0000
1100
0110
0000
0110
0000
1000
0010
0000
,
1000
0100
0001
0100
0010
0001
0010
0100
0001
0100
0010
1000
0010
0100
0001
1000
,
0010
0100
0010
0001
0000
0100
1000
0100
0010
0000
1000
0001
0000
1000
0100
0010
,
0100
1000
0000
0110
0000
0110
0001
0000
0010
0100
1000
0010
0001
0100
0010
1000
,
0100
0001
1000
0010
0001
1000
0100
0010
1000
0010
0100
1000
0100
0010
0001
0010
,
1001
0000
0110
0000
1001
0000
0110
0000
1001
0000
0110
1001
0000
0110
1001
0000
,
1000
0100
0010
0001
0000
0001
0010
0100
0010
0000
0010
1000
0000
0010
0001
0010
,
0100
1000
0000
0100
0000
0010
0001
0000
0010
0100
0010
0001
0010
1000
0001
0100
,
0010
0100
1000
0010
0001
0010
0001
1000
0100
0000
0001
0010
0000
1000
0100
0000
,
2002
0000
0000
0000
3003
0000
0000
0000
0000
0001
0001
0000
1000
1000
0000
0000
,
0100
0010
0100
0010
0100
0010
0100
0000
0100
0000
0000
0010
0000
0000
0100
0000
,
0010
0000
0000
0000
0000
0000
0000
0000
0000
0000
0000
0000
0000
0000
0000
0000
0000
0000
0000
0000
0000
0000
0000
0000
0000
0000
0000
0000
0000
0000
0000
0000
0000
0000
0000
0000
0100
0000
0000
0000
0000
0000
0000
0000
0000
0000
0000
0000
0000
0000
0000
0000
0000
0000
0000
0000
0000
0000
0000
0000
0000
0000
0000
0000
0000
0000
0000
0000
0000
0000
0000
0000
0100
0000
0000
0000
0000
0000
0000
0000
0000
0000
0000
0000
0000
0000
0000
0000
0000
0000
0000
0000
0000
0000
0000
0000
0000
0000
0000
0000
0000
0000
0000
0000
0000
0000
0000
0000
0000
0000
0000
0000
0000
0000
0000
0000
0000
0000
0000
0000
0100
0000
0000
0000
0000
0000
0000
0000
0010
0000
0000
0000
0000
0000
0000
0000
0000
0000
0000
0000
0000
0000
0000
0000
0000
0000
0000
0000
0000
0000
0000
0000
0000
0000
0000
0000
0010
0000
0000
0000
0000
0000
0100
0000
0000
0000
0000
0000
0000
0000
0000
0000
0000
0000
0000
0000
0000
0000
0000
0000
0000
0000
0000
0000
0000
0000
0000
0000
0000
0000
0000
0000
,
0100
0000
0000
0000
0000
0000
0010
0000
0000
0000
0000
0000
0000
0000
0000
0000
0100
0000
0000
0000
0000
0000
0100
0010
0000
0000
0000
0000
0100
0000
0000
0000
,
0100
0000
0000
0000
0000
0000
0100
0010
0000
0000
0000
0000
0010
0000
0000
0000
0100
0010
0000
0000
0000
0000
0020
0000
0000
0000
0000
0000
0000
0000
0000
0000
,
0000
0000
0130
0000
0010
0000
0100
0000
0010
0000
0000
0100
0000
0000
0010
0000
,
0100
0000
0000
0100
0000
0000
0100
0000
0100
0000
0000
0010
0000
0000
0010
0000
,
0010
0000
0000
0100
0000
0000
0100
0010
0100
0010
0100
0010
0000
0110
0000
0000
,
2002
0000
0000
0000
0000
0000
0000
0000
0000
0000
0000
0000
0000
0000
0000
0000
0000
0000
0000
0000
0000
0000
0000
0000
0000
0000
0000
0000
0000
0000
0000
3003
0100
0000
0000
0000
0010
0000
0000
0000
0001
0000
0000
0000
0010
0000
0000
0000
0100
0000
0000
0000
1000
0000
0000
0000
0100
0000
0000
0000
0010
0000
0000
0000
,
0102
0010
0100
0010
0100
0010
0100
0000
0100
0000
0000
0010
0003
0000
0100
0000
,
2010
0000
0000
0000
0000
0000
0000
0000
0000
0000
0000
0000
0000
0000
0000
0000
0000
0000
0000
0000
0000
0000
0000
0000
0000
0000
0000
0000
0000
0000
0000
0000
0000
0000
0000
0000
0100
0000
0000
0000
0000
0000
0000
0000
0000
0000
0000
0000
0000
0000
0000
0000
0000
0000
0000
0000
0000
0000
0000
0000
0000
0000
0000
0000
0000
0000
0000
0000
0000
0000
0000
0000
0100
0000
0000
0000
0000
0000
0000
0000
0000
0000
0000
0000
0000
0000
0000
0000
0000
0000
0000
0000
0000
0000
0000
0000
0000
0000
0000
0000
0000
0000
0000
0000
0000
0000
0000
0000
0000
0000
0000
0000
0000
0000
0000
0000
0000
0000
0000
0000
0100
0000
0000
0000
0000
0000
0000
0000
0010
0000
0000
0000
0000
0000
0000
0000
0000
0000
0000
0000
0000
0000
0000
0000
3000
0000
0000
0000
0000
0000
0000
0000
0000
0000
0000
0000
0010
0000
0000
0000
0000
0000
0100
0000
0000
0000
0000
0000
0000
0000
0000
0000
0000
0000
0000
0000
0000
0000
0000
0000
0000
0000
0000
0000
0000
0000
0000
0000
0000
0000
0000
0000
,
0102
0000
0000
0000
0000
0000
0010
0000
0000
0000
0000
0000
0000
0000
0000
0000
0100
0000
0000
0000
0000
0000
0100
0010
0003
0000
0000
0000
0100
0000
0000
0000
,
2100
0000
0000
0000
0000
0000
0100
0010
0000
0000
0000
0000
0010
0000
0000
0000
0100
0010
0000
0000
0000
0000
0020
0000
3000
0000
0000
0000
0000
0000
0000
0000
,
0002
0000
0000
0000
0000
0000
0000
0030
0100
0000
0000
0000
0000
0000
0000
0000
0010
0000
0000
0000
0000
0000
0000
0000
0100
0000
0000
0000
0000
0000
0000
0000
0010
0000
0000
0000
0000
0000
0000
0000
0000
0000
0000
0000
0100
0000
0000
0000
0003
0000
0000
0000
0000
0000
0000
0000
0010
0000
0000
0000
0000
0000
0000
0000
,
2100
0000
0000
0100
0000
0000
0100
0000
0100
0000
0000
0010
3000
0000
0010
0000
,
0012
0000
0000
0100
0000
0000
0100
0010
0100
0010
0100
0010
0103
0010
0000
0000
,
2002
0000
0000
0000
0000
0000
0000
0000
0000
0000
0000
0000
0000
0000
0000
0000
0000
0000
0000
0000
0000
0000
0000
0000
0000
0000
0000
0000
0000
0000
0000
3003
0110
0000
0000
0000
1001
0000
0000
0000
0000
0000
0000
0000
0110
0000
0000
0000
0000
0000
0000
0000
0000
0000
0000
0000
0000
0000
0000
0000
0000
0000
0000
0000
,
0010
0100
0010
0001
0010
0100
0001
0010
0100
0010
0000
1100
0000
0010
0100
0000
,
1000
0100
1000
0101
0000
0100
0010
0001
0110
0000
0110
1000
0000
0010
0001
0010
,
0100
0011
0000
0110
0000
0001
1100
0000
0010
0100
0100
0010
0010
0000
0100
1000
,
1000
0001
0010
0010
0001
1000
0100
0010
1000
0010
0100
1001
0100
0010
0001
0110
,
1100
0000
0011
0000
0110
0000
1010
0000
0101
0000
0011
1100
0000
1100
0011
0000
,
1000
0100
1000
0011
0000
0110
1000
0100
0011
0000
1100
0010
0000
0010
0100
0010
,
0100
1001
0000
0110
0000
1010
0001
0000
0010
0100
0010
1000
0010
0100
0001
0100
,
0010
1001
0100
0010
0100
0010
0100
1001
0110
0000
0001
0011
0000
1000
1100
0000
,
2002
0000
0000
0000
3003
0000
0000
0000
0000
0011
0001
0000
1100
1000
0000
0000
,
1000
0001
0100
0001
1000
0100
0001
0000
0100
0000
0000
1000
0000
0000
1000
0000
,
0001
0000
0000
0000
0000
0000
0000
0000
0000
0000
0000
0000
0000
0000
0000
0000
0000
0000
0000
0000
0000
0000
0000
0000
0000
0000
0000
0000
0000
0000
0000
0000
0000
0000
0000
0000
0010
0000
0000
0000
0000
0000
0000
0000
0000
0000
0000
0000
0000
0000
0000
0000
0000
0000
0000
0000
0000
0000
0000
0000
0000
0000
0000
0000
0000
0000
0000
0000
0000
0000
0000
0000
1000
0000
0000
0000
0000
0000
0000
0000
0000
0000
0000
0000
0000
0000
0000
0000
0000
0000
0000
0000
0000
0000
0000
0000
0000
0000
0000
0000
0000
0000
0000
0000
0000
0000
0000
0000
0000
0000
0000
0000
0000
0000
0000
0000
0000
0000
0000
0000
1000
0000
0000
0000
0000
0000
0000
0000
0010
0000
0000
0000
0000
0000
0000
0000
0000
0000
0000
0000
0000
0000
0000
0000
0000
0000
0000
0000
0000
0000
0000
0000
0000
0000
0000
0000
0010
0000
0000
0000
0000
0000
0001
0000
0000
0000
0000
0000
0000
0000
0000
0000
0000
0000
0000
0000
0000
0000
0000
0000
0000
0000
0000
0000
0000
0000
0000
0000
0000
0000
0000
0000
,
0100
0000
0000
0000
0000
0000
0001
0000
0000
0000
0000
0000
0000
0000
0000
0000
0010
0000
0000
0000
0000
0000
0001
0100
0000
0000
0000
0000
0010
0000
0000
0000
,
0001
0000
0000
0000
0000
0000
0100
0010
0000
0000
0000
0000
0010
0000
0000
0000
0001
0010
0000
0000
0000
0000
0020
0000
0000
0000
0000
0000
0000
0000
0000
0000
,
0000
0000
0130
0000
1000
0000
0010
0000
0100
0000
0000
0010
0000
0000
0100
0000
,
0010
0000
0000
1000
0000
0000
0010
0000
0001
0000
0000
1000
0000
0000
1000
0000
,
1001
0000
0000
0110
0000
0000
0100
0010
1000
0010
0100
0011
0000
1100
0000
0000
,
2002
0000
0000
0000
0000
0000
0000
0000
0000
0000
0000
0000
0000
0000
0000
0000
0000
0000
0000
0000
0000
0000
0000
0000
0000
0000
0000
0000
0000
0000
0000
3003
0100
0000
0000
0000
0010
0000
0000
0000
0001
0000
0000
0000
0010
0000
0000
0000
0100
0000
0000
0000
1000
0000
0000
0000
0100
0000
0000
0000
0000
0000
0000
0000
,
1020
0001
0100
0001
1000
0100
0001
0000
0100
0000
0000
1000
0030
0000
1000
0000
,
0201
0000
0000
0000
0000
0000
0000
0000
0000
0000
0000
0000
0000
0000
0000
0000
0000
0000
0000
0000
0000
0000
0000
0000
0000
0000
0000
0000
0000
0000
0000
0000
0000
0000
0000
0000
0010
0000
0000
0000
0000
0000
0000
0000
0000
0000
0000
0000
0000
0000
0000
0000
0000
0000
0000
0000
0000
0000
0000
0000
0000
0000
0000
0000
0000
0000
0000
0000
0000
0000
0000
0000
1000
0000
0000
0000
0000
0000
0000
0000
0000
0000
0000
0000
0000
0000
0000
0000
0000
0000
0000
0000
0000
0000
0000
0000
0000
0000
0000
0000
0000
0000
0000
0000
0000
0000
0000
0000
0000
0000
0000
0000
0000
0000
0000
0000
0000
0000
0000
0000
1000
0000
0000
0000
0000
0000
0000
0000
0010
0000
0000
0000
0000
0000
0000
0000
0000
0000
0000
0000
0000
0000
0000
0000
0300
0000
0000
0000
0000
0000
0000
0000
0000
0000
0000
0000
0010
0000
0000
0000
0000
0000
0001
0000
0000
0000
0000
0000
0000
0000
0000
0000
0000
0000
0000
0000
0000
0000
0000
0000
0000
0000
0000
0000
0000
0000
0000
0000
0000
0000
0000
0000
,
2100
0000
0000
0000
0000
0000
0001
0000
0000
0000
0000
0000
0000
0000
0000
0000
0010
0000
0000
0000
0000
0000
0001
0100
3000
0000
0000
0000
0010
0000
0000
0000
,
2001
0000
0000
0000
0000
0000
0100
0010
0000
0000
0000
0000
0010
0000
0000
0000
0001
0010
0000
0000
0000
0000
0020
0000
3000
0000
0000
0000
0000
0000
0000
0000
,
0002
0000
0000
0000
0000
0000
0000
0030
0100
0000
0000
0000
0000
0000
0000
0000
1000
0000
0000
0000
0000
0000
0000
0000
0010
0000
0000
0000
0000
0000
0000
0000
0100
0000
0000
0000
0000
0000
0000
0000
0000
0000
0000
0000
0010
0000
0000
0000
0003
0000
0000
0000
0000
0000
0000
0000
0100
0000
0000
0000
0000
0000
0000
0000
,
0210
0000
0000
1000
0000
0000
0010
0000
0001
0000
0000
1000
0300
0000
1000
0000
,
1100
0000
0000
0110
0000
0000
1001
0000
0000
1001
0110
1001
0110
0000
0000
0000
,
1000
1000
0000
1000
0000
0000
1000
1000
0000
1000
0000
0000
1000
1000
0000
0000
,
1100
1100
0000
1100
0000
0000
1100
1100
0000
1100
0000
0000
1100
1100
0000
0000
,
1100
1000
0000
1100
0000
0000
1100
1000
0000
1100
0000
0000
1000
1010
0000
0000
,
1001
0100
0010
1000
0011
0100
1000
0010
0101
0010
0000
0110
0000
0110
1001
0110
,
2002
0000
0000
0000
,
0000
0000
0000
0000
,
3003
0000
0000
0000
;
