#TITLE:Majora's Mask Moon;
#SUBTITLE:;
#ARTIST:近藤浩治;
#TITLETRANSLIT:;
#SUBTITLETRANSLIT:;
#ARTISTTRANSLIT:Koji Kondo;
#CREDIT:;
#BANNER:BN.PNG;
#BACKGROUND:BG.bmp;
#LYRICSPATH:;
#CDTITLE:BG.bmp;
#MUSIC:Majora's Mask Moon.mp3;
#OFFSET:-2.400;
#SAMPLESTART:1.000;
#SAMPLELENGTH:12.000;
#SELECTABLE:YES;
#BPMS:0.000=89.980,4.000=359.920;
#STOPS:;
#BGCHANGES:4.000=white.bmp=1.000=0=0=1,
4.500=BG name.PNG=1.000=1=0=1,
260.000=BG Whole.PNG=1.000=1=0=1,
265.500=BG.bmp=1.000=1=0=1,
99999=-nosongbg-=1.000=0=0=0 // don't automatically add -songbackground-
;
// cache tags:
#FIRSTBEAT:4.000;
#LASTBEAT:268.000;
#SONGFILENAME:Songs/toune 2/Majoras Mask Moon/Majora's Mask Moon.sm;
#HASMUSIC:1;
#HASBANNER:1;
#MUSICLENGTH:52.924;
// end cache tags

//---------------dance-single - Majora----------------
#NOTES:
     dance-single:
     Majora:
     Hard:
     10:
     1.000,1.000,1.000,0.340,0.000,391.000,102.000,18.000,0.000,0.000:
0000
0000
0000
0000
,
1001
0000
1000
0010
0100
1000
0010
0100
,
0001
0100
1000
0100
0001
0100
1000
0100
,
0001
0010
0100
1000
0010
0100
1000
0100
,
0001
0010
0100
1000
0010
1000
0100
0000
,
1001
0011
0011
0011
,
0011
0011
0011
0011
,
1010
1100
1100
1100
,
1100
1100
1100
1100
,
1001
0000
0001
0010
0100
1000
0010
0100
,
1000
0010
0100
1000
0010
0100
0001
0100
,
0010
1000
0100
0010
0001
0100
1000
0100
,
0010
1000
0100
0010
0001
0100
0010
0000
,
1100
0101
0101
0101
,
0101
0101
0101
0101
,
0011
1010
1010
1010
,
1010
1010
1010
1010
,
1002
0000
1003
0100
0010
1000
0100
0010
,
0001
0100
1000
0000
2010
0000
3100
0010
,
0001
0010
0001
0100
1000
0010
0100
0000
,
1002
0000
0013
1000
0100
1000
0100
0010
,
1000
0010
0100
0000
2001
0000
3100
1000
,
0010
0100
0001
0010
0100
0010
1000
0000
,
1020
0000
0130
1000
0010
0100
0001
0010
,
0100
1000
0010
0000
0012
0000
0103
1000
,
0010
1000
0100
0010
1000
0100
0010
0000
,
2010
0000
3100
1000
0010
0100
0001
0010
,
0100
1000
0010
0000
0120
0000
0130
0010
,
1000
0100
0010
0100
0001
0010
0100
0000
,
1001
0000
0100
0010
0001
0010
0100
0010
,
1000
0010
0100
1000
0010
0100
0001
0100
,
0010
1000
0100
0010
1000
0100
0010
1000
,
0100
0010
0001
0100
1000
0100
0001
0000
,
0110
0011
1010
0011
,
1010
0011
1010
0011
,
1001
1100
1010
1100
,
1010
1100
1010
1100
,
1001
0000
0100
0010
0001
0100
1000
0100
,
0010
1000
0100
0010
0001
0100
1000
0100
,
0010
1000
0100
0010
0001
0100
1000
0100
,
0010
1000
0100
0010
0001
0100
1000
0000
,
0101
0110
1100
0101
,
0110
1100
0101
0110
,
1001
0011
0101
1001
,
0011
0101
1001
0011
,
1002
0000
0013
1000
0100
0010
0001
0100
,
1000
0100
0010
0000
1200
0000
1300
0100
,
0010
0100
0001
0100
0010
1000
0100
0000
,
2001
0000
3010
1000
0100
0010
0001
0100
,
0010
0100
0001
0000
1020
0000
0130
1000
,
0010
0100
0001
0010
0100
1000
0010
0000
,
2010
0000
3100
1000
0010
0100
0001
0010
,
0100
1000
0010
0000
0210
0000
0301
0100
,
1000
0100
0010
1000
0100
0010
1000
0000
,
2001
0000
3010
0100
0001
0010
0100
1000
,
0010
1000
0100
0000
1002
0000
0013
1000
,
0100
0010
0001
0100
1000
0100
0010
0000
,
1001
0000
0010
1000
0100
0010
0001
0100
,
1000
0100
0010
1000
0100
1000
0010
0100
,
0001
0100
1000
0100
0010
0100
0001
0100
,
1000
0100
0010
1000
0100
0010
0001
0000
,
1010
0101
0011
1010
,
0011
1100
0110
1001
,
0110
1100
1001
0110
,
1001
0011
1001
1010
,
2002
0000
0000
0000
,
0000
0000
0000
0000
,
3003
0000
0000
0000
;

//---------------dance-single - ----------------
#NOTES:
     dance-single:
     :
     Medium:
     8:
     0.931,1.000,1.000,0.038,0.000,257.000,86.000,2.000,0.000,0.000:
0000
0000
0000
0000
,
1001
1000
0100
0010
,
0001
1000
0001
1000
,
0001
0100
0010
1000
,
0001
0100
0010
0100
,
1001
0011
0011
0011
,
0011
0011
0011
0011
,
1010
1100
1100
1100
,
1100
1100
1100
1100
,
1001
0001
0100
0010
,
1000
0100
0010
0001
,
0010
0100
0001
1000
,
0010
0100
0001
0010
,
1100
0101
0101
0101
,
0101
0101
0101
0101
,
0011
1010
1010
1010
,
1010
1010
1010
1010
,
1000
1000
0010
0100
,
0001
1000
0010
0100
,
0001
0001
1000
0100
,
1000
0010
0100
0100
,
1000
0100
0001
0100
,
0010
0001
0100
1000
,
1000
0100
0010
0001
,
0100
0010
0010
0100
,
0010
0100
1000
0010
,
0010
0100
0010
0001
,
0100
0010
0100
0100
,
1000
0010
0001
0100
,
1001
0100
0001
0100
,
1000
0100
0010
0001
,
0010
0100
1000
0010
,
0100
0001
1000
0001
,
0110
0011
1010
0011
,
1010
0011
1010
0011
,
1001
1100
1010
1100
,
1010
1100
1010
1100
,
1001
0100
0001
1000
,
0010
0100
0001
1000
,
0010
0100
0001
1000
,
0010
0100
0001
1000
,
0101
0110
1100
0101
,
0110
1100
0101
0110
,
1001
0011
0101
1001
,
0011
0101
1001
0011
,
1000
0010
0100
0001
,
1000
0010
1000
1000
,
0010
0001
0010
0100
,
0001
0010
0100
0001
,
0010
0001
1000
0100
,
0010
0001
0100
0010
,
0010
0100
0010
0001
,
0100
0010
0010
0001
,
1000
0010
0100
1000
,
0001
0010
0001
0100
,
0010
0100
1000
0010
,
0100
0001
1000
0010
,
1001
0010
0100
0001
,
1000
0010
0100
0010
,
0001
1000
0010
0001
,
1000
0010
0100
0001
,
1010
0101
0011
1010
,
0011
1100
0110
1001
,
0110
1100
1001
0110
,
1001
0011
1001
1010
,
2002
0000
0000
0000
,
0000
0000
0000
0000
,
3003
0000
0000
0000
;

//---------------dance-single - ----------------
#NOTES:
     dance-single:
     :
     Easy:
     4:
     0.259,0.316,0.321,0.227,0.000,67.000,17.000,12.000,0.000,0.000:
0000
0000
0000
0000
,
1000
0000
0010
0000
,
0100
0000
0001
0000
,
1000
0000
0010
0000
,
0100
0000
0001
0000
,
2000
0000
0000
0000
,
0000
0000
0000
0000
,
0002
0000
0000
0000
,
3003
0000
0000
0000
,
0001
0000
0100
0000
,
0010
0000
1000
0000
,
0001
0000
0100
0000
,
0010
0000
1000
0000
,
0002
0000
0000
0000
,
0000
0000
0000
0000
,
2000
0000
0000
0000
,
3003
0000
0000
0000
,
1100
0000
0000
0000
,
0000
0000
0110
0000
,
0000
0000
0000
0000
,
0011
0000
0000
0000
,
0000
0000
1001
0000
,
0000
0000
0000
0000
,
0011
0000
0000
0000
,
0000
0000
0110
0000
,
0000
0000
0000
0000
,
1100
0000
0000
0000
,
0000
0000
1001
0000
,
0000
0000
0000
0000
,
0100
0000
0010
0000
,
0001
0000
1000
0000
,
0100
0000
0010
0000
,
0001
0000
1000
0000
,
0200
0000
0000
0000
,
0000
0000
0000
0000
,
2000
0000
0000
0000
,
3300
0000
0000
0000
,
1000
0000
0001
0000
,
0010
0000
0100
0000
,
1000
0000
0001
0000
,
0010
0000
0100
0000
,
2000
0000
0000
0000
,
0000
0000
0000
0000
,
0200
0000
0000
0000
,
3300
0000
0000
0000
,
0101
0000
0000
0000
,
0000
0000
0011
0000
,
0000
0000
0000
0000
,
1010
0000
0000
0000
,
0000
0000
1100
0000
,
0000
0000
0000
0000
,
1010
0000
0000
0000
,
0000
0000
0011
0000
,
0000
0000
0000
0000
,
0101
0000
0000
0000
,
0000
0000
1100
0000
,
0000
0000
0000
0000
,
0001
0000
0100
0000
,
0010
0000
1000
0000
,
0001
0000
0100
0000
,
0010
0000
1000
0000
,
0002
0000
0000
0000
,
0000
0000
0000
0000
,
2000
0000
0000
0000
,
3003
0000
0000
0000
,
2002
0000
0000
0000
,
0000
0000
0000
0000
,
3003
0000
0000
0000
;
