#TITLE:Streamline;
#SUBTITLE:;
#ARTIST:Pendulum;
#TITLETRANSLIT:;
#SUBTITLETRANSLIT:;
#ARTISTTRANSLIT:;
#CREDIT:;
#BANNER:streamlinebn.png;
#BACKGROUND:streamlinebg.png;
#LYRICSPATH:;
#CDTITLE:;
#MUSIC:streamline.ogg;
#OFFSET:0.354;
#SAMPLESTART:52.070;
#SAMPLELENGTH:22.070;
#SELECTABLE:YES;
#BPMS:0.000=174.000;
#STOPS:;
#BGCHANGES:;
// cache tags:
#FIRSTBEAT:56.000;
#LASTBEAT:804.000;
#SONGFILENAME:Songs/Pendulum/Streamline/streamline.sm;
#HASMUSIC:1;
#HASBANNER:1;
#MUSICLENGTH:300.000;
// end cache tags

//---------------dance-single - I. Pyles----------------
#NOTES:
     dance-single:
     I. Pyles:
     Beginner:
     1:
     0.021,0.033,0.000,0.000,0.000,44.000,0.000,0.000,0.000,0.000:

0000
0000
0000
0000
,
0000
0000
0000
0000
,
0000
0000
0000
0000
,
0000
0000
0000
0000
,
0000
0000
0000
0000
,
0000
0000
0000
0000
,
0000
0000
0000
0000
,
0000
0000
0000
0000
,
0000
0000
0000
0000
,
0000
0000
0000
0000
,
0000
0000
0000
0000
,
0000
0000
0000
0000
,
0000
0000
0000
0000
,
0000
0000
0000
0000
,
1000
0000
0000
0000
,
0000
0000
0000
0000
,
0000
0000
0000
0000
,
0000
0000
0000
0000
,
1000
0000
0000
0000
,
0000
0000
0000
0000
,
0000
0000
0000
0000
,
0000
0000
0000
0000
,
1000
0000
0000
0000
,
0000
0000
0000
0000
,
0000
0000
0000
0000
,
0000
0000
0000
0000
,
1000
0000
0000
0000
,
0000
0000
0000
0000
,
0000
0000
0000
0000
,
0000
0000
0000
0000
,
0010
0000
0000
0000
,
0000
0000
0000
0000
,
0000
0000
0000
0000
,
0000
0000
0000
0000
,
0100
0000
0000
0000
,
0000
0000
0000
0000
,
0000
0000
0000
0000
,
0000
0000
0000
0000
,
1000
0000
0000
0000
,
0000
0000
0000
0000
,
0000
0000
0000
0000
,
0000
0000
0000
0000
,
1000
0000
0000
0000
,
0000
0000
0000
0000
,
0000
0000
0000
0000
,
0000
0000
0000
0000
,
0001
0000
0000
0000
,
0000
0000
0000
0000
,
0000
0000
0000
0000
,
0000
0000
0000
0000
,
0100
0000
0000
0000
,
0000
0000
0000
0000
,
0000
0000
0000
0000
,
0000
0000
0000
0000
,
0010
0000
0000
0000
,
0000
0000
0000
0000
,
0000
0000
0000
0000
,
0000
0000
0000
0000
,
0010
0000
0000
0000
,
0000
0000
0000
0000
,
0000
0000
0000
0000
,
0000
0000
0000
0000
,
0010
0000
0000
0000
,
0000
0000
0000
0000
,
0000
0000
0000
0000
,
0000
0000
0000
0000
,
1000
0000
0000
0000
,
0000
0000
0000
0000
,
0000
0000
0000
0000
,
0000
0000
0000
0000
,
0010
0000
0000
0000
,
0000
0000
0000
0000
,
0000
0000
0000
0000
,
0000
0000
0000
0000
,
1000
0000
0000
0000
,
0000
0000
0000
0000
,
0000
0000
0000
0000
,
0000
0000
0000
0000
,
0100
0000
0000
0000
,
0000
0000
0000
0000
,
0000
0000
0000
0000
,
0000
0000
0000
0000
,
1000
0000
0000
0000
,
0000
0000
0000
0000
,
0000
0000
0000
0000
,
0000
0000
0000
0000
,
0010
0000
0000
0000
,
0000
0000
0000
0000
,
0000
0000
0000
0000
,
0000
0000
0000
0000
,
0010
0000
0000
0000
,
0000
0000
0000
0000
,
0000
0000
0000
0000
,
0000
0000
0000
0000
,
1000
0000
0000
0000
,
0000
0000
0000
0000
,
0000
0000
0000
0000
,
0000
0000
0000
0000
,
0100
0000
0000
0000
,
0000
0000
0000
0000
,
0000
0000
0000
0000
,
0000
0000
0000
0000
,
0100
0000
0000
0000
,
0000
0000
0000
0000
,
0000
0000
0000
0000
,
0000
0000
0000
0000
,
1000
0000
0000
0000
,
0000
0000
0000
0000
,
0000
0000
0000
0000
,
0000
0000
0000
0000
,
1000
0000
0000
0000
,
0000
0000
0000
0000
,
0000
0000
0000
0000
,
0000
0000
0000
0000
,
1000
0000
0000
0000
,
0000
0000
0000
0000
,
0000
0000
0000
0000
,
0000
0000
0000
0000
,
0010
0000
0000
0000
,
0000
0000
0000
0000
,
0000
0000
0000
0000
,
0000
0000
0000
0000
,
0000
0000
0000
0000
,
0000
0000
0000
0000
,
0000
0000
0000
0000
,
0000
0000
0000
0000
,
0000
0000
0000
0000
,
0000
0000
0000
0000
,
0000
0000
0000
0000
,
0000
0000
0000
0000
,
0000
0000
0000
0000
,
0000
0000
0000
0000
,
0000
0000
0000
0000
,
0000
0000
0000
0000
,
1000
0000
0000
0000
,
0000
0000
0000
0000
,
0000
0000
0000
0000
,
0000
0000
0000
0000
,
1000
0000
0000
0000
,
0000
0000
0000
0000
,
0000
0000
0000
0000
,
0000
0000
0000
0000
,
0010
0000
0000
0000
,
0000
0000
0000
0000
,
0000
0000
0000
0000
,
0000
0000
0000
0000
,
0010
0000
0000
0000
,
0000
0000
0000
0000
,
0000
0000
0000
0000
,
0000
0000
0000
0000
,
0100
0000
0000
0000
,
0000
0000
0000
0000
,
0000
0000
0000
0000
,
0000
0000
0000
0000
,
1000
0000
0000
0000
,
0000
0000
0000
0000
,
0000
0000
0000
0000
,
0000
0000
0000
0000
,
0010
0000
0000
0000
,
0000
0000
0000
0000
,
0000
0000
0000
0000
,
0000
0000
0000
0000
,
0010
0000
0000
0000
,
0000
0000
0000
0000
,
0000
0000
0000
0000
,
0000
0000
0000
0000
,
1000
0000
0000
0000
,
0000
0000
0000
0000
,
0000
0000
0000
0000
,
0000
0000
0000
0000
,
1000
0000
0000
0000
,
0000
0000
0000
0000
,
0000
0000
0000
0000
,
0000
0000
0000
0000
,
0010
0000
0000
0000
,
0000
0000
0000
0000
,
0000
0000
0000
0000
,
0000
0000
0000
0000
,
0100
0000
0000
0000
,
0000
0000
0000
0000
,
0000
0000
0000
0000
,
0000
0000
0000
0000
,
0010
0000
0000
0000
,
0000
0000
0000
0000
,
0000
0000
0000
0000
,
0000
0000
0000
0000
,
0010
0000
0000
0000
,
0000
0000
0000
0000
,
0000
0000
0000
0000
,
0000
0000
0000
0000
,
0100
0000
0000
0000
,
0000
0000
0000
0000
,
0000
0000
0000
0000
,
0000
0000
0000
0000
,
0001
0000
0000
0000
,
0000
0000
0000
0000
,
0000
0000
0000
0000
,
0000
0000
0000
0000
,
1000
0000
0000
0000
;

//---------------dance-single - I. Pyles----------------
#NOTES:
     dance-single:
     I. Pyles:
     Easy:
     10:
     0.490,0.603,0.047,0.277,0.180,931.000,14.000,83.000,91.000,0.000:



0000
0000
0000
0000
,
0000
0000
0000
0000
,
0000
0000
0000
0000
,
0000
0000
0000
0000
,
0000
0000
0000
0000
,
0000
0000
0000
0000
,
0000
0000
0000
0000
,
0000
0000
0000
0000
,
0000
0000
0000
0000
,
0000
0000
0000
0000
,
0000
0000
0000
0000
,
0000
0000
0000
0000
,
0000
0000
0000
0000
,
0000
0000
0000
0000
,
0010
00M0
0000
0010
00M0
0000
0000
0000
,
2000
0000
0000
0000
0000
0000
0000
0000
0000
0000
0000
0000
0000
0000
0000
0000
0000
0000
0000
0000
0000
0000
0000
0000
0000
0000
0000
0000
0000
0000
0000
0000
0000
0000
0000
0000
0000
0000
0000
0000
0000
0000
0000
0000
0000
0000
0000
0000
0000
0000
0000
0000
0000
0000
0000
0000
0000
0000
0000
0000
0000
0000
0000
3000
,
1000
M000
0000
1000
M000
0000
0000
0000
,
0002
0000
0000
0000
0000
0000
0000
0000
0000
0000
0000
0000
0000
0000
0000
0000
0000
0000
0000
0000
0000
0000
0000
0000
0000
0000
0000
0000
0000
0000
0000
0000
0000
0000
0000
0000
0000
0000
0000
0000
0000
0000
0000
0000
0000
0000
0000
0000
0000
0000
0000
0000
0000
0000
0000
0000
0000
0000
0000
0000
0000
0000
0000
0003
,
0100
0000
0010
0000
0000
0100
0010
0000
,
0100
0000
0000
0100
0010
0000
0000
0010
0000
0010
0100
0000
0001
0000
0000
0000
,
0010
0000
0100
0000
0000
0010
0100
0000
,
1000
0000
0000
0000
,
0001
0000
0000
0000
1000
0000
0000
0000
0000
0000
0001
0000
1000
0000
0001
0100
,
0001
0000
0100
0001
1000
0000
0001
1000
0001
1000
0001
0000
1000
0000
0000
0000
,
0001
0000
1000
0000
0000
0001
1000
0000
,
0001
0000
0100
0010
1000
0000
0010
1000
0000
0010
1000
0000
1001
0000
0000
0000
,
1000
0000
0000
0000
0001
0000
0000
0000
0000
0000
1000
0000
0001
0000
1000
0010
,
1000
0000
0010
1000
0001
0000
1000
0001
1000
0001
1000
0000
0001
0000
0000
0000
,
1000
0000
0000
0000
0001
0000
0000
0000
0000
0000
1000
0000
0001
0000
1000
0001
,
0100
0010
2000
0000
3020
0000
0130
0001
,
1000
0000
0000
0000
0001
0000
0000
0000
0000
0000
1000
0000
0001
0000
1000
0010
,
1000
0000
0010
1000
0001
0000
1000
0001
1000
0001
1000
0000
0001
0000
0000
0000
,
1000
0000
0001
0000
0000
1000
0001
0000
,
1000
0000
0010
0100
0001
0000
0100
0001
0000
0100
0001
0000
1001
0000
0000
0000
,
1000
0000
0000
0000
0001
0000
0000
0000
0000
0000
1000
0000
0001
0000
1000
0100
,
1000
0000
0100
1000
0001
0000
1000
0001
1000
0001
1000
0000
0001
0000
1000
0000
,
0100
0000
0000
0M00
0000
0000
0100
0000
0000
0000
0010
0000
0002
0000
0000
0000
,
0000
0000
0000
0000
0000
0000
0000
0003
,
1000
0100
0010
0000
0001
0100
0010
0000
,
1000
0100
0010
0001
0100
0010
1000
0001
,
1000
0010
0100
0000
0001
0010
0100
0000
,
1000
0010
0100
0001
0010
0100
1000
0001
,
0010
0100
1000
0000
0010
0100
0001
0000
,
1000
0100
1000
0001
0010
0001
1000
0001
,
0100
0010
1000
0000
0100
0010
0001
0000
,
0100
0010
1000
0001
1000
0010
1000
0001
,
1000
0100
0010
0100
1000
0010
0100
0010
,
1000
0100
0010
0100
1000
0010
0100
0001
,
0010
0100
1000
0001
0100
0010
1000
0001
,
0010
0100
1000
0001
0010
0001
0100
0001
,
2000
0000
0000
0000
,
3020
0000
0000
0000
,
0230
0000
0000
0000
,
0301
0000
1000
0010
1000
0000
0001
1000
0000
0001
1000
0000
1001
0000
0000
0000
,
1000
0000
0000
0000
0001
0000
0000
0000
0000
0000
1000
0000
0001
0000
1000
0100
,
1000
0000
0001
0000
0010
0000
0100
1000
0100
1000
0100
0000
0010
0000
0000
0000
,
0001
0000
1000
0000
0000
0001
1000
0000
,
0001
0000
1000
0010
1000
0000
0010
1000
0000
0010
1000
0000
1001
0000
0000
0000
,
0001
0000
0000
0000
1000
0000
0000
0000
0000
0000
0001
0000
1000
0000
0001
0010
,
0001
0000
1000
0000
0100
0000
0010
0001
0010
0001
0010
0000
0100
0000
0000
0000
,
1000
0000
0001
0000
0000
1000
0001
0000
,
1000
0000
0001
0100
0001
0000
0100
0001
0000
0100
0001
0000
1001
0000
0000
0000
,
1000
0000
0000
0000
0001
0000
0000
0000
0000
0000
1000
0000
0001
0000
1000
0010
,
1000
0000
0001
0000
0100
0000
0010
1000
0010
1000
0010
0000
0100
0000
0000
0000
,
0001
0000
1000
0000
0000
0001
1000
0000
,
0001
0000
1000
0100
1000
0000
0100
1000
0000
0100
1000
0000
1001
0000
0000
0000
,
0001
0000
0000
0000
1000
0000
0000
0000
0000
0000
0001
0000
1000
0000
0001
0100
,
0001
0000
1000
0000
0010
0000
0100
0001
0100
0001
0100
0000
0010
0000
0000
0000
,
1000
0000
0001
0000
0000
1000
0001
0000
,
0200
0000
0000
0300
,
0001
0000
0000
0000
1000
0000
0000
0000
0000
0000
0001
0000
1000
0000
0001
0100
,
0001
0000
0100
0001
1000
0000
0001
1000
0001
1000
0001
0000
1000
0000
0000
0000
,
0001
0000
1000
0000
0000
0001
1000
0000
,
0001
0000
0100
0010
1000
0000
0010
1000
0000
0010
1000
0000
1001
0000
0000
0000
,
1000
0000
0000
0000
0001
0000
0000
0000
0000
0000
1000
0000
0001
0000
1000
0010
,
1000
0000
0010
1000
0001
0000
1000
0001
1000
0001
1000
0000
0001
0000
0000
0000
,
1000
0000
0000
0000
0001
0000
0000
0000
0000
0000
1000
0000
0001
0000
1000
0001
,
0100
0010
2000
0000
3020
0000
0130
0001
,
1000
0000
0000
0000
0001
0000
0000
0000
0000
0000
1000
0000
0001
0000
1000
0010
,
1000
0000
0010
1000
0001
0000
1000
0001
1000
0001
1000
0000
0001
0000
0000
0000
,
1000
0000
0001
0000
0000
1000
0001
0000
,
1000
0000
0010
0100
0001
0000
0100
0001
0000
0100
0001
0000
1001
0000
0000
0000
,
1000
0000
0000
0000
0001
0000
0000
0000
0000
0000
1000
0000
0001
0000
1000
0100
,
1000
0000
0100
1000
0001
0000
1000
0001
1000
0001
1000
0000
0001
0000
1000
0000
,
0100
0000
0000
0000
0010
0000
0001
1000
0001
0000
1000
0000
0010
0000
1000
0000
,
0200
0000
0000
0300
,
1000
0100
0010
0000
0001
0100
0010
0000
,
1000
0100
0010
0001
0100
0010
1000
0001
,
1000
0010
0100
0000
0001
0010
0100
0000
,
1000
0010
0100
0001
0010
0100
1000
0001
,
0010
0100
1000
0000
0010
0100
0001
0000
,
1000
0100
1000
0001
0010
0001
1000
0001
,
0100
0010
1000
0000
0100
0010
0001
0000
,
0100
0010
1000
0001
1000
0010
1000
0001
,
1000
0100
0010
0100
1000
0010
0100
0010
,
1000
0100
0010
0100
1000
0010
0100
0001
,
0010
0100
1000
0001
0100
0010
1000
0001
,
0010
0100
1000
0001
0010
0001
0100
0001
,
2000
0000
0000
0000
,
3020
0000
0000
0000
,
0230
0000
0000
0000
,
0301
0000
1000
0010
1000
0000
0001
1000
0000
0001
1000
0000
1001
0000
0000
0000
,
1000
0000
0000
0000
0001
0000
0000
0000
0000
0000
1000
0000
0001
0000
1000
0100
,
1000
0000
0001
0000
0010
0000
0100
1000
0100
1000
0100
0000
0010
0000
0000
0000
,
0001
0000
1000
0000
0000
0001
1000
0000
,
0001
0000
1000
0010
1000
0000
0010
1000
0000
0010
1000
0000
1001
0000
0000
0000
,
0001
0000
0000
0000
1000
0000
0000
0000
0000
0000
0001
0000
1000
0000
0001
0010
,
0001
0000
1000
0000
0100
0000
0010
0001
0010
0001
0010
0000
0100
0000
0000
0000
,
1000
0000
0001
0000
0000
1000
0001
0000
,
1000
0000
0001
0100
0001
0000
0100
0001
0000
0100
0001
0000
1001
0000
0000
0000
,
1000
0000
0000
0000
0001
0000
0000
0000
0000
0000
1000
0000
0001
0000
1000
0010
,
1000
0000
0001
0000
0100
0000
0010
1000
0010
1000
0010
0000
0100
0000
0000
0000
,
0001
0000
1000
0000
0000
0001
1000
0000
,
0001
0000
1000
0100
1000
0000
0100
1000
0000
0100
1000
0000
1001
0000
0000
0000
,
0001
0000
0000
0000
1000
0000
0000
0000
0000
0000
0001
0000
1000
0000
0001
0100
,
0001
0000
1000
0000
0010
0000
0100
0001
0100
0001
0100
0000
0010
0000
1000
0000
,
0020
0000
0030
0000
0000
0000
0000
0000
0000
0000
0000
0000
0000
0000
0000
0000
0020
0000
0000
0030
0000
0000
0000
0000
0000
0000
0000
0000
0000
0000
0000
0000
0020
0000
0000
0000
0030
0000
0000
0000
0000
0000
0000
0000
0000
0000
0000
0000
0020
0000
0000
0000
0000
0030
0000
0000
0000
0000
0000
0000
0000
0000
0000
0000
,
0020
0000
0000
0000
0000
0000
0030
0000
0000
0000
0000
0000
0000
0000
0000
0000
0020
0000
0000
0000
0000
0000
0000
0030
M00M
0000
0000
0000
0000
0000
0000
0000
M02M
0000
0000
0000
0000
0000
0000
0000
M03M
0000
0000
0000
0000
0000
0000
0000
M02M
0000
0000
0000
0000
0000
0000
0000
M00M
0030
0000
0000
0000
0000
0000
0000
,
MMMM
0000
0000
0000
0000
0000
0000
0000
0000
0000
0000
0000
0000
0000
0000
0000
0000
0000
0000
0000
0000
0000
0000
0000
0000
0000
0000
0000
0000
0000
0000
0000
0000
0000
0000
0000
0000
0000
0000
0000
0000
0000
0000
0000
0000
0000
0000
0000
0020
0030
0000
0000
0000
0000
0000
0000
0000
0000
0000
0000
0000
0000
0000
0000
,
0020
0000
0030
0000
0000
0000
0000
0000
0000
0000
0000
0000
0000
0000
0000
0000
0020
0000
0000
0030
0000
0000
0000
0000
0000
0000
0000
0000
0000
0000
0000
0000
0020
0000
0000
0000
0030
0000
0000
0000
0000
0000
0000
0000
0000
0000
0000
0000
0020
0000
0000
0000
0000
0030
0000
0000
0000
0000
0000
0000
0000
0000
0000
0000
,
0020
0000
0000
0000
0000
0000
0030
0000
M00M
0000
0000
0000
0000
0000
0000
0000
M02M
0000
0000
0000
0000
0000
0000
0030
M00M
0000
0000
0000
0000
0000
0000
0000
M02M
0000
0000
0000
0000
0000
0000
0000
M03M
0000
0000
0000
0000
0000
0000
0000
M02M
0000
0000
0000
0000
0000
0000
0000
M00M
0030
0000
0000
0000
0000
0000
0000
,
MMMM
0000
0000
0000
,
0000
0000
0000
0000
0000
0000
0000
0000
0000
0000
0000
0000
0000
0000
0000
0000
0000
0000
0000
0000
0000
0000
0000
0000
0000
0000
0000
0000
0000
0000
0000
0000
0000
0000
0000
0000
0000
0000
0000
0000
0000
0000
0000
0000
0000
0000
0000
0000
0020
0030
0000
0000
0000
0000
0000
0000
0000
0000
0000
0000
0000
0000
0000
0000
,
0020
0000
0030
0000
0000
0000
0000
0000
0000
0000
0000
0000
0000
0000
0000
0000
0020
0000
0000
0030
0000
0000
0000
0000
0000
0000
0000
0000
0000
0000
0000
0000
0020
0000
0000
0000
0030
0000
0000
0000
0000
0000
0000
0000
0000
0000
0000
0000
0020
0000
0000
0000
0000
0030
0000
0000
0000
0000
0000
0000
0000
0000
0000
0000
,
0020
0000
0000
0000
0000
0000
0030
0000
M00M
0000
0000
0000
0000
0000
0000
0000
M02M
0000
0000
0000
0000
0000
0000
0030
M00M
0000
0000
0000
0000
0000
0000
0000
M02M
0000
0000
0000
0000
0000
0000
0000
M03M
0000
0000
0000
0000
0000
0000
0000
M02M
0000
0000
0000
0000
0000
0000
0000
M00M
0030
0000
0000
0000
0000
0000
0000
,
MMMM
0000
0000
0000
,
0000
0000
0000
0000
0000
0000
0000
0000
0000
0000
0000
0000
0000
0000
0000
0000
0000
0000
0000
0000
0000
0000
0000
0000
0000
0000
0000
0000
0000
0000
0000
0000
0000
0000
0000
0000
0000
0000
0000
0000
0000
0000
0000
0000
0000
0000
0000
0000
0020
0030
0000
0000
0000
0000
0000
0000
0000
0000
0000
0000
0000
0000
0000
0000
,
0020
0000
0030
0000
0000
0000
0000
0000
0000
0000
0000
0000
0000
0000
0000
0000
0020
0000
0000
0030
0000
0000
0000
0000
0000
0000
0000
0000
0000
0000
0000
0000
0020
0000
0000
0000
0030
0000
0000
0000
0000
0000
0000
0000
0000
0000
0000
0000
0020
0000
0000
0000
0000
0030
0000
0000
0000
0000
0000
0000
0000
0000
0000
0000
,
0020
0000
0000
0000
0000
0000
0030
0000
M00M
0000
0000
0000
0000
0000
0000
0000
M02M
0000
0000
0000
0000
0000
0000
0030
M00M
0000
0000
0000
0000
0000
0000
0000
M02M
0000
0000
0000
0000
0000
0000
0000
M03M
0000
0000
0000
0000
0000
0000
0000
M02M
0000
0000
0000
0000
0000
0000
0000
M00M
0030
0000
0000
0000
0000
0000
0000
,
MMMM
0000
0000
0000
,
0000
0000
0000
0000
,
0000
0000
0000
0000
,
0000
0000
0000
0000
,
0000
M00M
M00M
M00M
M00M
M00M
M00M
M00M
,
MMMM
0000
0000
0000
,
0000
2000
0000
0000
0000
3200
0000
0000
,
0320
0000
0000
0032
0000
0000
0203
0000
,
0000
0000
0000
0000
,
0000
0000
0000
0000
,
0300
0020
0000
0000
0000
2030
0000
0000
,
3200
0000
0000
0320
0000
0000
0032
0000
,
0000
0203
0000
0000
0320
0000
0000
2030
,
0000
0000
0000
0000
,
3000
0002
0000
0000
0000
0023
0000
0000
,
0230
0000
0000
2300
0000
0000
3002
0000
,
0000
2003
0000
0000
3020
0000
0000
0000
,
0230
0000
0000
0000
,
0302
0000
0000
0000
,
0023
0000
0000
0000
,
0031
0000
1000
0000
0000
1000
0001
0000
,
1000
0000
0001
0000
0000
1000
0100
0100
,
0010
0001
0100
0010
,
1000
0000
0001
0000
0000
1000
0001
0001
,
0100
0010
0000
0010
0100
0001
0010
0100
,
1000
0000
0001
0000
0000
1000
0010
0010
,
0100
0001
0010
0100
,
1000
0000
0001
0000
0000
1000
0001
0001
,
0010
0100
0000
0100
0010
0001
0100
0010
,
1000
0000
0001
0000
0000
1000
0100
0100
,
0010
0001
0100
0010
,
1000
0000
0001
0000
0000
1000
0001
0001
,
0100
0010
0000
0010
0100
0001
0010
0100
,
2000
0000
0000
0000
,
3020
0000
0000
0000
,
0230
0000
0000
0000
,
0301
0000
0100
0010
1000
0000
0010
1000
0000
0001
1000
0000
1001
0000
0000
0000
,
0001
0000
1000
0000
0000
0001
0010
0010
,
0100
1000
0010
0100
,
0001
0000
1000
0000
0000
0001
1000
1000
,
0010
0100
0000
0100
0010
1000
0100
0010
,
0001
0000
1000
0000
0000
0001
0100
0100
,
0010
1000
0100
0010
,
0001
0000
1000
0000
0000
0001
1000
1000
,
0100
0010
0000
0010
0100
1000
0010
0100
,
0001
0000
1000
0000
0000
0001
0010
0010
,
0100
1000
0010
0100
,
0001
0000
1000
0000
0000
0001
1000
1000
,
0010
0100
0000
0100
0010
1000
0100
0010
,
0002
0000
0000
0000
,
0203
0000
0000
0000
,
0320
0000
0000
0000
,
1030
0000
0010
0100
0001
0000
0100
0001
0000
1000
0001
0000
1001
0000
0000
0000
,
1000
0000
0001
0000
0000
1000
0100
0100
,
0010
0001
0100
0010
,
1000
0000
0001
0000
0000
1000
0001
0001
,
0100
0010
0000
0010
0100
0001
0010
0100
,
1000
0000
0001
0000
0000
1000
0010
0010
,
0100
0001
0010
0100
,
1000
0000
0001
0000
0000
1000
0001
0001
,
0010
0100
0000
0100
0010
0001
0100
0010
,
1000
0000
0001
0000
0000
1000
0100
0100
,
0010
0001
0100
0010
,
1000
0000
0001
0000
0000
1000
0001
0001
,
0100
0010
0000
0010
0100
0001
0010
0100
,
2000
0000
0000
0000
,
3020
0000
0000
0000
,
0230
0000
0000
0000
,
0310
0000
0000
0100
0010
0000
0000
0010
0000
0010
0100
0000
0001
0000
0000
0000
,
0020
0000
0000
0000
,
0000
0000
0000
0000
,
0000
0000
0000
0000
,
0030
0000
0000
0000
;

//---------------dance-single - I. Pyles----------------
#NOTES:
     dance-single:
     I. Pyles:
     Medium:
     13:
     0.836,1.000,0.360,0.277,0.943,1565.000,108.000,83.000,91.000,0.000:





0000
0000
0000
0000
,
0000
0000
0000
0000
,
0000
0000
0000
0000
,
0000
0000
0000
0000
,
0000
0000
0000
0000
,
0000
0000
0000
0000
,
0000
0000
0000
0000
,
0000
0000
0000
0000
,
0000
0000
0000
0000
,
0000
0000
0000
0000
,
0000
0000
0000
0000
,
0000
0000
0000
0000
,
0000
0000
0000
0000
,
0000
0000
0000
0000
,
0010
00M0
0000
0010
00M0
0000
0000
0000
,
2000
0000
0000
0000
0000
0000
0000
0000
0000
0000
0000
0000
0000
0000
0000
0000
0000
0000
0000
0000
0000
0000
0000
0000
0000
0000
0000
0000
0000
0000
0000
0000
0000
0000
0000
0000
0000
0000
0000
0000
0000
0000
0000
0000
0000
0000
0000
0000
0000
0000
0000
0000
0000
0000
0000
0000
0000
0000
0000
0000
0000
0000
0000
3000
,
1000
M000
0000
1000
M000
0000
0000
0000
,
0002
0000
0000
0000
0000
0000
0000
0000
0000
0000
0000
0000
0000
0000
0000
0000
0000
0000
0000
0000
0000
0000
0000
0000
0000
0000
0000
0000
0000
0000
0000
0000
0000
0000
0000
0000
0000
0000
0000
0000
0000
0000
0000
0000
0000
0000
0000
0000
0000
0000
0000
0000
0000
0000
0000
0000
0000
0000
0000
0000
0000
0000
0000
0003
,
0100
0000
0010
0000
0000
0100
0010
0000
,
0100
0000
0000
0100
0010
0000
0000
0010
0000
0010
0100
0000
0001
0000
0000
0000
,
0010
0000
0100
0000
0000
0010
0100
0000
,
1000
0000
0000
0000
,
0001
0000
0000
0000
1001
0000
0000
0000
0000
0000
0001
0000
1001
0000
0001
0100
,
0010
0000
0100
0001
1000
0000
0100
1000
0001
1000
0010
0000
1010
0000
1000
0000
,
0001
0000
0000
0000
1001
0000
0001
1000
0100
0000
0010
0000
0110
0000
0010
0001
,
1000
0000
0010
0100
0001
0000
0100
0001
0000
0100
0001
0000
1001
0000
0000
0000
,
1000
0000
0000
0000
1001
0000
0000
0000
0000
0000
1000
0000
1001
0000
1000
0010
,
0100
0000
0010
1000
0001
0000
0010
0001
1000
0001
0100
0000
0101
0000
0001
0000
,
1000
0000
0000
0000
1001
0000
1000
0001
0010
0000
0100
0000
0110
0000
0100
1000
,
0001
0000
0100
0010
2000
0000
0000
0000
3020
0000
0000
0000
0130
0000
0001
0000
,
1000
0000
0000
0000
1010
0000
0000
0000
0000
0000
1000
0000
1010
0000
1000
0010
,
0100
0000
0010
1000
0001
0000
0010
0100
0010
0001
1000
0000
1001
0000
1000
0000
,
0001
0000
0000
0000
0011
0000
0001
1000
0100
0000
0010
0000
0110
0000
0100
1000
,
0001
0000
0100
0010
1000
0000
0010
1000
0000
0010
1000
0000
1001
0000
0000
0000
,
0001
0000
0000
0000
0101
0000
0000
0000
0000
0000
0001
0000
0101
0000
0001
0100
,
0010
0000
0100
0001
1000
0000
0100
0010
0100
1000
0001
0000
1001
0000
1000
0000
,
0100
0000
0000
0M00
0000
0000
0100
0000
0000
0000
0010
0000
0002
0000
0000
0000
,
0000
0000
0000
0000
0000
0000
0000
0003
,
1000
0100
0010
0001
1000
0100
0010
0001
1000
0100
1000
0001
0100
0010
0100
0001
,
0010
0100
1000
0001
0010
0100
1000
0001
1000
0010
1000
0001
0010
0100
0010
0001
,
1000
0010
0100
0001
1000
0010
0100
0001
1000
0010
1000
0001
0010
0100
0010
0001
,
0100
0010
1000
0001
0100
0010
1000
0001
1000
0100
1000
0001
0100
0010
0100
0001
,
1000
0100
0010
0001
1000
0100
0010
0001
1000
0100
1000
0001
0100
0010
0100
0001
,
0010
0100
1000
0001
0010
0100
1000
0001
1000
0010
1000
0001
0010
0100
0010
0001
,
1000
0010
0100
0001
1000
0010
0100
0001
1000
0010
1000
0001
0010
0100
0010
0001
,
0100
0010
1000
0001
0100
0010
1000
0001
1000
0100
1000
0001
0100
0010
0100
0001
,
1000
0100
1000
0001
0010
0100
0010
0001
1000
0100
1000
0001
0010
0100
0010
0001
,
1000
0100
1000
0001
0010
0100
0010
0001
1000
0100
1000
0001
0010
0100
1000
0010
,
0100
0001
0100
0010
1000
0001
0010
0100
0010
0001
0010
0100
1000
0001
0100
0010
,
0100
0001
0100
0010
1000
0001
0010
0100
0010
0001
0010
0100
1000
0001
0100
0010
,
2000
0000
0000
0000
,
3020
0000
0000
0000
,
0230
0000
0000
0000
,
0301
0000
0100
0010
1000
0000
0010
1000
0000
0001
1000
0000
1001
0000
0001
0000
,
1000
0000
0000
0000
1001
0000
0001
0100
0010
0000
1000
0000
1001
0000
1000
0010
,
0100
0000
0010
1000
0001
0000
0010
0001
1000
0001
0100
0000
0101
0000
0001
0000
,
1000
0000
0000
0000
1001
0000
1000
0001
0010
0000
0100
0000
0110
0000
0100
1000
,
0001
0000
0100
0010
1000
0000
0010
1000
0000
0010
1000
0000
1001
0000
0000
0000
,
0001
0000
0000
0000
1010
0000
1000
0010
0100
0000
0001
0000
0011
0000
0001
0010
,
0100
0000
0010
0001
1000
0000
0010
0100
0010
1000
0001
0000
1001
0000
0001
0000
,
1000
0000
0000
0000
1010
0000
1000
0001
0100
0000
0010
0000
0110
0000
0100
0001
,
1000
0000
0100
0010
0001
0000
0010
0001
0000
0010
0001
0000
1001
0000
0000
0000
,
1000
0000
0000
0000
1001
0000
0001
0010
0100
0000
1000
0000
1001
0000
1000
0100
,
0010
0000
0100
1000
0001
0000
0100
0001
1000
0001
0010
0000
0011
0000
0001
0000
,
1000
0000
0000
0000
1001
0000
1000
0001
0100
0000
0010
0000
0110
0000
0010
1000
,
0001
0000
0010
0100
1000
0000
0100
1000
0000
0100
1000
0000
1001
0000
0000
0000
,
0001
0000
0000
0000
1100
0000
1000
0100
0010
0000
0001
0000
0101
0000
0001
0100
,
0010
0000
0100
0001
1000
0000
0100
0010
0100
1000
0001
0000
1001
0000
0001
0000
,
1000
0000
0000
0000
1100
0000
1000
0001
0010
0000
0100
0000
0110
0000
0010
0001
,
0200
0000
0000
0300
,
0001
0000
0000
0000
1001
0000
0000
0000
0000
0000
0001
0000
1001
0000
0001
0100
,
0010
0000
0100
0001
1000
0000
0100
1000
0001
1000
0010
0000
1010
0000
1000
0000
,
0001
0000
0000
0000
1001
0000
0001
1000
0100
0000
0010
0000
0110
0000
0010
0001
,
1000
0000
0010
0100
0001
0000
0100
0001
0000
0100
0001
0000
1001
0000
0000
0000
,
1000
0000
0000
0000
1001
0000
0000
0000
0000
0000
1000
0000
1001
0000
1000
0010
,
0100
0000
0010
1000
0001
0000
0010
0001
1000
0001
0100
0000
0101
0000
0001
0000
,
1000
0000
0000
0000
1001
0000
1000
0001
0010
0000
0100
0000
0110
0000
0100
1000
,
0001
0000
0100
0010
2000
0000
0000
0000
3020
0000
0000
0000
0130
0000
0001
0000
,
1000
0000
0000
0000
1010
0000
0000
0000
0000
0000
1000
0000
1010
0000
1000
0010
,
0100
0000
0010
1000
0001
0000
0010
0100
0010
0001
1000
0000
1001
0000
1000
0000
,
0001
0000
0000
0000
0011
0000
0001
1000
0100
0000
0010
0000
0110
0000
0100
1000
,
0001
0000
0100
0010
1000
0000
0010
1000
0000
0010
1000
0000
1001
0000
0000
0000
,
0001
0000
0000
0000
0101
0000
0000
0000
0000
0000
0001
0000
0101
0000
0001
0100
,
0010
0000
0100
0001
1000
0000
0100
0010
0100
1000
0001
0000
1001
0000
0001
0000
,
1000
0000
0000
0000
1100
0000
1000
0001
0010
0000
0100
0000
0110
0000
0010
0001
,
0200
0000
0000
0300
,
0001
0010
0100
1000
0001
0010
0100
1000
0001
0010
0001
1000
0010
0100
0010
1000
,
0100
0010
0001
1000
0100
0010
0001
1000
0001
0100
0001
1000
0100
0010
0100
1000
,
0001
0100
0010
1000
0001
0100
0010
1000
0001
0100
0001
1000
0100
0010
0100
1000
,
0010
0100
0001
1000
0010
0100
0001
1000
0001
0010
0001
1000
0010
0100
0010
1000
,
0001
0010
0100
1000
0001
0010
0100
1000
0001
0010
0001
1000
0010
0100
0010
1000
,
0100
0010
0001
1000
0100
0010
0001
1000
0001
0100
0001
1000
0100
0010
0100
1000
,
0001
0100
0010
1000
0001
0100
0010
1000
0001
0100
0001
1000
0100
0010
0100
1000
,
0010
0100
0001
1000
0010
0100
0001
1000
0001
0010
0001
1000
0010
0100
0010
1000
,
0001
0010
0001
1000
0010
0100
0010
1000
0001
0010
0001
1000
0010
0100
0010
1000
,
0001
0010
0001
1000
0010
0100
0010
1000
0001
0010
0001
1000
0100
0010
0001
0100
,
0010
1000
0010
0100
0001
1000
0100
0010
0100
1000
0100
0010
0001
1000
0010
0100
,
0010
1000
0010
0100
0001
1000
0100
0010
0100
1000
0100
0010
0001
1000
0010
0100
,
0002
0000
0000
0000
,
0203
0000
0000
0000
,
0320
0000
0000
0000
,
1030
0000
0010
0100
0001
0000
0100
0001
0000
1000
0001
0000
1001
0000
1000
0000
,
0001
0000
0000
0000
1001
0000
1000
0010
0100
0000
0001
0000
1001
0000
0001
0100
,
0010
0000
0100
0001
1000
0000
0100
1000
0001
1000
0010
0000
1010
0000
1000
0000
,
0001
0000
0000
0000
1001
0000
0001
1000
0100
0000
0010
0000
0110
0000
0010
0001
,
1000
0000
0010
0100
0001
0000
0100
0001
0000
0100
0001
0000
1001
0000
0000
0000
,
1000
0000
0000
0000
0101
0000
0001
0100
0010
0000
1000
0000
1100
0000
1000
0100
,
0010
0000
0100
1000
0001
0000
0100
0010
0100
0001
1000
0000
1001
0000
1000
0000
,
0001
0000
0000
0000
0101
0000
0001
1000
0010
0000
0100
0000
0110
0000
0010
1000
,
0001
0000
0010
0100
1000
0000
0100
1000
0000
0100
1000
0000
1001
0000
0000
0000
,
0001
0000
0000
0000
1001
0000
1000
0100
0010
0000
0001
0000
1001
0000
0001
0010
,
0100
0000
0010
0001
1000
0000
0010
1000
0001
1000
0100
0000
1100
0000
1000
0000
,
0001
0000
0000
0000
1001
0000
0001
1000
0010
0000
0100
0000
0110
0000
0100
0001
,
1000
0000
0100
0010
0001
0000
0010
0001
0000
0010
0001
0000
1001
0000
0000
0000
,
1000
0000
0000
0000
0011
0000
0001
0010
0100
0000
1000
0000
1010
0000
1000
0010
,
0100
0000
0010
1000
0001
0000
0010
0100
0010
0001
1000
0000
1001
0000
1000
0001
,
0020
0000
0030
0000
0000
0000
0000
0000
0000
0000
0000
0000
0000
0000
0000
0000
0020
0000
0000
0030
0000
0000
0000
0000
0000
0000
0000
0000
0000
0000
0000
0000
0020
0000
0000
0000
0030
0000
0000
0000
0000
0000
0000
0000
0000
0000
0000
0000
0020
0000
0000
0000
0000
0030
0000
0000
0000
0000
0000
0000
0000
0000
0000
0000
,
0020
0000
0000
0000
0000
0000
0030
0000
0000
0000
0000
0000
0000
0000
0000
0000
0020
0000
0000
0000
0000
0000
0000
0030
M00M
0000
0000
0000
0000
0000
0000
0000
M02M
0000
0000
0000
0000
0000
0000
0000
M03M
0000
0000
0000
0000
0000
0000
0000
M02M
0000
0000
0000
0000
0000
0000
0000
M00M
0030
0000
0000
0000
0000
0000
0000
,
MMMM
0000
0000
0000
0000
0000
0000
0000
0000
0000
0000
0000
0000
0000
0000
0000
0000
0000
0000
0000
0000
0000
0000
0000
0000
0000
0000
0000
0000
0000
0000
0000
0000
0000
0000
0000
0000
0000
0000
0000
0000
0000
0000
0000
0000
0000
0000
0000
0020
0030
0000
0000
0000
0000
0000
0000
0000
0000
0000
0000
0000
0000
0000
0000
,
0020
0000
0030
0000
0000
0000
0000
0000
0000
0000
0000
0000
0000
0000
0000
0000
0020
0000
0000
0030
0000
0000
0000
0000
0000
0000
0000
0000
0000
0000
0000
0000
0020
0000
0000
0000
0030
0000
0000
0000
0000
0000
0000
0000
0000
0000
0000
0000
0020
0000
0000
0000
0000
0030
0000
0000
0000
0000
0000
0000
0000
0000
0000
0000
,
0020
0000
0000
0000
0000
0000
0030
0000
M00M
0000
0000
0000
0000
0000
0000
0000
M02M
0000
0000
0000
0000
0000
0000
0030
M00M
0000
0000
0000
0000
0000
0000
0000
M02M
0000
0000
0000
0000
0000
0000
0000
M03M
0000
0000
0000
0000
0000
0000
0000
M02M
0000
0000
0000
0000
0000
0000
0000
M00M
0030
0000
0000
0000
0000
0000
0000
,
MMMM
0000
0000
0000
,
0000
0000
0000
0000
0000
0000
0000
0000
0000
0000
0000
0000
0000
0000
0000
0000
0000
0000
0000
0000
0000
0000
0000
0000
0000
0000
0000
0000
0000
0000
0000
0000
0000
0000
0000
0000
0000
0000
0000
0000
0000
0000
0000
0000
0000
0000
0000
0000
0020
0030
0000
0000
0000
0000
0000
0000
0000
0000
0000
0000
0000
0000
0000
0000
,
0020
0000
0030
0000
0000
0000
0000
0000
0000
0000
0000
0000
0000
0000
0000
0000
0020
0000
0000
0030
0000
0000
0000
0000
0000
0000
0000
0000
0000
0000
0000
0000
0020
0000
0000
0000
0030
0000
0000
0000
0000
0000
0000
0000
0000
0000
0000
0000
0020
0000
0000
0000
0000
0030
0000
0000
0000
0000
0000
0000
0000
0000
0000
0000
,
0020
0000
0000
0000
0000
0000
0030
0000
M00M
0000
0000
0000
0000
0000
0000
0000
M02M
0000
0000
0000
0000
0000
0000
0030
M00M
0000
0000
0000
0000
0000
0000
0000
M02M
0000
0000
0000
0000
0000
0000
0000
M03M
0000
0000
0000
0000
0000
0000
0000
M02M
0000
0000
0000
0000
0000
0000
0000
M00M
0030
0000
0000
0000
0000
0000
0000
,
MMMM
0000
0000
0000
,
0000
0000
0000
0000
0000
0000
0000
0000
0000
0000
0000
0000
0000
0000
0000
0000
0000
0000
0000
0000
0000
0000
0000
0000
0000
0000
0000
0000
0000
0000
0000
0000
0000
0000
0000
0000
0000
0000
0000
0000
0000
0000
0000
0000
0000
0000
0000
0000
0020
0030
0000
0000
0000
0000
0000
0000
0000
0000
0000
0000
0000
0000
0000
0000
,
0020
0000
0030
0000
0000
0000
0000
0000
0000
0000
0000
0000
0000
0000
0000
0000
0020
0000
0000
0030
0000
0000
0000
0000
0000
0000
0000
0000
0000
0000
0000
0000
0020
0000
0000
0000
0030
0000
0000
0000
0000
0000
0000
0000
0000
0000
0000
0000
0020
0000
0000
0000
0000
0030
0000
0000
0000
0000
0000
0000
0000
0000
0000
0000
,
0020
0000
0000
0000
0000
0000
0030
0000
M00M
0000
0000
0000
0000
0000
0000
0000
M02M
0000
0000
0000
0000
0000
0000
0030
M00M
0000
0000
0000
0000
0000
0000
0000
M02M
0000
0000
0000
0000
0000
0000
0000
M03M
0000
0000
0000
0000
0000
0000
0000
M02M
0000
0000
0000
0000
0000
0000
0000
M00M
0030
0000
0000
0000
0000
0000
0000
,
MMMM
0000
0000
0000
,
0000
0000
0000
0000
,
0000
0000
0000
0000
,
0000
0000
0000
0000
,
0000
M00M
M00M
M00M
M00M
M00M
M00M
M00M
,
MMMM
0000
0000
0000
,
0000
2000
0000
0000
0000
3200
0000
0000
,
0320
0000
0000
0032
0000
0000
0203
0000
,
0000
0000
0000
0000
,
0000
0000
0000
0000
,
0300
0020
0000
0000
0000
2030
0000
0000
,
3200
0000
0000
0320
0000
0000
0032
0000
,
0000
0203
0000
0000
0320
0000
0000
2030
,
0000
0000
0000
0000
,
3000
0002
0000
0000
0000
0023
0000
0000
,
0230
0000
0000
2300
0000
0000
3002
0000
,
0000
2003
0000
0000
3020
0000
0000
0000
,
0230
0000
0000
0000
,
0302
0000
0000
0000
,
0023
0000
0000
0000
,
0031
0000
1000
0000
0000
1000
0001
0000
,
1000
0100
0010
0001
1000
0100
0010
0001
1000
0100
1000
0001
0100
0010
0100
0001
,
0010
0100
1000
0001
0010
0100
1000
0001
1000
0010
1000
0001
0010
0100
0010
0001
,
1000
0010
0100
0001
1000
0010
0100
0001
1000
0010
1000
0001
0010
0100
0010
0001
,
0100
0010
1000
0001
0100
0010
1000
0001
1000
0100
1000
0001
0100
0010
0100
0001
,
1000
0100
0010
0001
1000
0100
0010
0001
1000
0100
1000
0001
0100
0010
0100
0001
,
0010
0100
1000
0001
0010
0100
1000
0001
1000
0010
1000
0001
0010
0100
0010
0001
,
1000
0010
0100
0001
1000
0010
0100
0001
1000
0010
1000
0001
0010
0100
0010
0001
,
0100
0010
1000
0001
0100
0010
1000
0001
1000
0100
1000
0001
0100
0010
0100
0001
,
1000
0000
0000
0000
1001
0000
0001
0100
0010
0000
1000
0000
1001
0000
1000
0010
,
0100
0000
0010
1000
0001
0000
0010
0001
1000
0001
0100
0000
0101
0000
0001
0000
,
1000
0000
0000
0000
1001
0000
1000
0001
0010
0000
0100
0000
0110
0000
0100
1000
,
0001
0000
0100
0010
1000
0000
0010
1000
0000
0010
1000
0000
1001
0000
1000
0000
,
0002
0000
0000
0000
,
0203
0000
0000
0000
,
0320
0000
0000
0000
,
1030
0000
0010
0100
0001
0000
0100
0001
0000
1000
0001
0000
1001
0000
1000
0000
,
0001
0100
0010
1000
0001
0100
0010
1000
0001
0100
0001
1000
0100
0010
0100
1000
,
0010
0100
0001
1000
0010
0100
0001
1000
0001
0010
0001
1000
0010
0100
0010
1000
,
0001
0010
0100
1000
0001
0010
0100
1000
0001
0010
0001
1000
0010
0100
0010
1000
,
0100
0010
0001
1000
0100
0010
0001
1000
0001
0100
0001
1000
0100
0010
0100
1000
,
0001
0100
0010
1000
0001
0100
0010
1000
0001
0100
0001
1000
0100
0010
0100
1000
,
0010
0100
0001
1000
0010
0100
0001
1000
0001
0010
0001
1000
0010
0100
0010
1000
,
0001
0010
0100
1000
0001
0010
0100
1000
0001
0010
0001
1000
0010
0100
0010
1000
,
0100
0010
0001
1000
0100
0010
0001
1000
0001
0100
0001
1000
0100
0010
0100
1000
,
0001
0000
0000
0000
1001
0000
1000
0010
0100
0000
0001
0000
1001
0000
0001
0100
,
0010
0000
0100
0001
1000
0000
0100
1000
0001
1000
0010
0000
1010
0000
1000
0000
,
0001
0000
0000
0000
1001
0000
0001
1000
0100
0000
0010
0000
0110
0000
0010
0001
,
1000
0000
0010
0100
0001
0000
0100
0001
0000
0100
0001
0000
1001
0000
0001
0000
,
2000
0000
0000
0000
,
3200
0000
0000
0000
,
0320
0000
0000
0000
,
0031
0000
0100
0010
1000
0000
0010
1000
0000
0001
1000
0000
1001
0000
0001
0000
,
1000
0100
0010
0001
1000
0100
0010
0001
1000
0100
1000
0001
0100
0010
0100
0001
,
0010
0100
1000
0001
0010
0100
1000
0001
1000
0010
1000
0001
0010
0100
0010
0001
,
1000
0010
0100
0001
1000
0010
0100
0001
1000
0010
1000
0001
0010
0100
0010
0001
,
0100
0010
1000
0001
0100
0010
1000
0001
1000
0100
1000
0001
0100
0010
0100
0001
,
1000
0100
0010
0001
1000
0100
0010
0001
1000
0100
1000
0001
0100
0010
0100
0001
,
0010
0100
1000
0001
0010
0100
1000
0001
1000
0010
1000
0001
0010
0100
0010
0001
,
1000
0010
0100
0001
1000
0010
0100
0001
1000
0010
1000
0001
0010
0100
0010
0001
,
0100
0010
1000
0001
0100
0010
1000
0001
1000
0100
1000
0001
0100
0010
0100
0001
,
1000
0000
0000
0000
1001
0000
0001
0100
0010
0000
1000
0000
1001
0000
1000
0010
,
0100
0000
0010
1000
0001
0000
0010
0001
1000
0001
0100
0000
0101
0000
0001
0000
,
1000
0000
0000
0000
1001
0000
1000
0001
0010
0000
0100
0000
0110
0000
0100
1000
,
0001
0000
0100
0010
1000
0000
0010
1000
0000
0010
1000
0000
1001
0000
1000
0000
,
0002
0000
0000
0000
,
0203
0000
0000
0000
,
0320
0000
0000
0000
,
0130
0000
0000
0100
0010
0000
0000
0010
0000
0010
0100
0000
0001
0000
0000
0000
,
0020
0000
0000
0000
,
0000
0000
0000
0000
,
0000
0000
0000
0000
,
0030
0000
0000
0000
;

//---------------dance-single - I. Pyles----------------
#NOTES:
     dance-single:
     I. Pyles:
     Hard:
     14:
     0.977,1.000,0.287,0.227,1.000,1898.000,86.000,68.000,91.000,0.000:








0000
0000
0000
0000
,
0000
0000
0000
0000
,
0000
0000
0000
0000
,
0000
0000
0000
0000
,
0000
0000
0000
0000
,
0000
0000
0000
0000
,
0000
0000
0000
0000
,
0000
0000
0000
0000
,
0000
0000
0000
0000
,
0000
0000
0000
0000
,
0000
0000
0000
0000
,
0000
0000
0000
0000
,
0000
0000
0000
0000
,
0000
0000
0000
0000
,
0010
00M0
0000
0010
00M0
0000
0000
0000
,
2000
0000
0000
0000
0000
0000
0000
0000
0000
0000
0000
0000
0000
0000
0000
0000
0000
0000
0000
0000
0000
0000
0000
0000
0000
0000
0000
0000
0000
0000
0000
0000
0000
0000
0000
0000
0000
0000
0000
0000
0000
0000
0000
0000
0000
0000
0000
0000
0000
0000
0000
0000
0000
0000
0000
0000
0000
0000
0000
0000
0000
0000
0000
3000
,
1000
M000
0000
1000
M000
0000
0000
0000
,
0002
0000
0000
0000
0000
0000
0000
0000
0000
0000
0000
0000
0000
0000
0000
0000
0000
0000
0000
0000
0000
0000
0000
0000
0000
0000
0000
0000
0000
0000
0000
0000
0000
0000
0000
0000
0000
0000
0000
0000
0000
0000
0000
0000
0000
0000
0000
0000
0000
0000
0000
0000
0000
0000
0000
0000
0000
0000
0000
0000
0000
0000
0000
0003
,
0100
0000
0010
0000
0000
0100
0010
0000
,
0100
0000
0000
0100
0010
0000
0000
0010
0000
0010
0100
0000
0001
0000
0000
0000
,
0010
0000
0100
0000
0000
0010
0100
0000
,
1000
0000
0000
0000
,
0001
0000
0000
0000
1001
0000
0000
0000
0000
0000
0001
0000
1001
0000
0001
0100
,
0010
0000
0100
0001
1000
0000
0100
1000
0001
1000
0010
0000
1010
0000
1000
0000
,
0001
0000
0000
0000
1001
0000
0001
1000
0100
0000
0010
0000
0110
0000
0010
0001
,
1000
0000
0010
0100
0001
0000
0100
0001
0000
0100
0001
0000
1001
0000
0000
0000
,
1000
0000
0000
0000
1001
0000
0000
0000
0000
0000
1000
0000
1001
0000
1000
0010
,
0100
0000
0010
1000
0001
0000
0010
0001
1000
0001
0100
0000
0101
0000
0001
0000
,
1000
0000
0000
0000
1001
0000
1000
0001
0010
0000
0100
0000
0110
0000
0100
1000
,
0001
0000
0100
0010
2000
0000
0000
0000
3020
0000
0000
0000
0130
0000
0001
0000
,
1000
0000
0000
0000
1010
0000
0000
0000
0000
0000
1000
0000
1010
0000
1000
0010
,
0100
0000
0010
1000
0001
0000
0010
0100
0010
0001
1000
0000
1001
0000
1000
0000
,
0001
0000
0000
0000
0011
0000
0001
1000
0100
0000
0010
0000
0110
0000
0100
1000
,
0001
0000
0100
0010
1000
0000
0010
1000
0000
0010
1000
0000
1001
0000
0000
0000
,
0001
0000
0000
0000
0101
0000
0000
0000
0000
0000
0001
0000
0101
0000
0001
0100
,
0010
0000
0100
0001
1000
0000
0100
0010
0100
1000
0001
0000
1001
0000
1000
0000
,
0100
0000
0000
0M00
0000
0000
0100
0000
0000
0000
0010
0000
0002
0000
0000
0000
,
0000
0000
0000
0000
0000
0000
0000
0003
,
1000
0100
0010
0001
1000
0100
0010
0001
1000
0100
1000
0001
0100
0010
0100
0001
,
0010
0100
1000
0001
0010
0100
1000
0001
1000
0010
1000
0001
0010
0100
0010
0001
,
1000
0010
0100
0001
1000
0010
0100
0001
1000
0010
1000
0001
0010
0100
0010
0001
,
0100
0010
1000
0001
0100
0010
1000
0001
1000
0100
1000
0001
0100
0010
0100
0001
,
1000
0100
0010
0001
1000
0100
0010
0001
1000
0100
1000
0001
0100
0010
0100
0001
,
0010
0100
1000
0001
0010
0100
1000
0001
1000
0010
1000
0001
0010
0100
0010
0001
,
1000
0010
0100
0001
1000
0010
0100
0001
1000
0010
1000
0001
0010
0100
0010
0001
,
0100
0010
1000
0001
0100
0010
1000
0001
1000
0100
1000
0001
0100
0010
0100
0001
,
1000
0100
1000
0001
0010
0100
0010
0001
1000
0100
1000
0001
0010
0100
0010
0001
,
1000
0100
1000
0001
0010
0100
0010
0001
1000
0100
1000
0001
0010
0100
1000
0010
,
0100
0001
0100
0010
1000
0001
0010
0100
0010
0001
0010
0100
1000
0001
0100
0010
,
0100
0001
0100
0010
1000
0001
0010
0100
0010
0001
0010
0100
1000
0001
0100
0010
,
1000
0001
1000
0001
1000
0100
1000
0100
1000
0001
1000
0001
1000
0100
1000
0100
,
0010
0001
0010
0001
0010
0100
0010
0100
0010
0001
0010
0001
0010
0100
0010
0100
,
1000
0010
1000
0010
0100
0010
0100
0010
1000
0010
1000
0010
0100
0010
0100
0010
,
1000
0100
0010
0001
1000
0001
1000
0100
1000
0010
0100
0001
1000
0001
0010
0100
,
1000
0000
0000
0000
1001
0000
0001
0100
0010
0000
1000
0000
1001
0000
1000
0010
,
0100
0000
0010
1000
0001
0000
0010
0001
1000
0001
0100
0000
0101
0000
0001
0000
,
1000
0000
0000
0000
1001
0000
1000
0001
0010
0000
0100
0000
0110
0000
0100
1000
,
0001
0000
0100
0010
1000
0000
0010
1000
0000
0010
1000
0000
1001
0000
0000
0000
,
0001
0000
0000
0000
1010
0000
1000
0010
0100
0000
0001
0000
0011
0000
0001
0010
,
0100
0000
0010
0001
1000
0000
0010
0100
0010
1000
0001
0000
1001
0000
0001
0000
,
1000
0000
0000
0000
1010
0000
1000
0001
0100
0000
0010
0000
0110
0000
0100
0001
,
1000
0000
0100
0010
0001
0000
0010
0001
0000
0010
0001
0000
1001
0000
0000
0000
,
1000
0000
0000
0000
1001
0000
0001
0010
0100
0000
1000
0000
1001
0000
1000
0100
,
0010
0000
0100
1000
0001
0000
0100
0001
1000
0001
0010
0000
0011
0000
0001
0000
,
1000
0000
0000
0000
1001
0000
1000
0001
0100
0000
0010
0000
0110
0000
0010
1000
,
0001
0000
0010
0100
1000
0000
0100
1000
0000
0100
1000
0000
1001
0000
0000
0000
,
0001
0000
0000
0000
1100
0000
1000
0100
0010
0000
0001
0000
0101
0000
0001
0100
,
0010
0000
0100
0001
1000
0000
0100
0010
0100
1000
0001
0000
1001
0000
0001
0000
,
1000
0000
0000
0000
1100
0000
1000
0001
0010
0000
0100
0000
0110
0000
0010
0001
,
0200
0000
0000
0300
,
0001
0000
0000
0000
1001
0000
0000
0000
0000
0000
0001
0000
1001
0000
0001
0100
,
0010
0000
0100
0001
1000
0000
0100
1000
0001
1000
0010
0000
1010
0000
1000
0000
,
0001
0000
0000
0000
1001
0000
0001
1000
0100
0000
0010
0000
0110
0000
0010
0001
,
1000
0000
0010
0100
0001
0000
0100
0001
0000
0100
0001
0000
1001
0000
0000
0000
,
1000
0000
0000
0000
1001
0000
0000
0000
0000
0000
1000
0000
1001
0000
1000
0010
,
0100
0000
0010
1000
0001
0000
0010
0001
1000
0001
0100
0000
0101
0000
0001
0000
,
1000
0000
0000
0000
1001
0000
1000
0001
0010
0000
0100
0000
0110
0000
0100
1000
,
0001
0000
0100
0010
2000
0000
0000
0000
3020
0000
0000
0000
0130
0000
0001
0000
,
1000
0000
0000
0000
1010
0000
0000
0000
0000
0000
1000
0000
1010
0000
1000
0010
,
0100
0000
0010
1000
0001
0000
0010
0100
0010
0001
1000
0000
1001
0000
1000
0000
,
0001
0000
0000
0000
0011
0000
0001
1000
0100
0000
0010
0000
0110
0000
0100
1000
,
0001
0000
0100
0010
1000
0000
0010
1000
0000
0010
1000
0000
1001
0000
0000
0000
,
0001
0000
0000
0000
0101
0000
0000
0000
0000
0000
0001
0000
0101
0000
0001
0100
,
0010
0000
0100
0001
1000
0000
0100
0010
0100
1000
0001
0000
1001
0000
0001
0000
,
1000
0000
0000
0000
1100
0000
1000
0001
0010
0000
0100
0000
0110
0000
0010
0001
,
0200
0000
0000
0300
,
0001
0010
0100
1000
0001
0010
0100
1000
0001
0010
0001
1000
0010
0100
0010
1000
,
0100
0010
0001
1000
0100
0010
0001
1000
0001
0100
0001
1000
0100
0010
0100
1000
,
0001
0100
0010
1000
0001
0100
0010
1000
0001
0100
0001
1000
0100
0010
0100
1000
,
0010
0100
0001
1000
0010
0100
0001
1000
0001
0010
0001
1000
0010
0100
0010
1000
,
0001
0010
0100
1000
0001
0010
0100
1000
0001
0010
0001
1000
0010
0100
0010
1000
,
0100
0010
0001
1000
0100
0010
0001
1000
0001
0100
0001
1000
0100
0010
0100
1000
,
0001
0100
0010
1000
0001
0100
0010
1000
0001
0100
0001
1000
0100
0010
0100
1000
,
0010
0100
0001
1000
0010
0100
0001
1000
0001
0010
0001
1000
0010
0100
0010
1000
,
0001
0010
0001
1000
0010
0100
0010
1000
0001
0010
0001
1000
0010
0100
0010
1000
,
0001
0010
0001
1000
0010
0100
0010
1000
0001
0010
0001
1000
0100
0010
0001
0100
,
0010
1000
0010
0100
0001
1000
0100
0010
0100
1000
0100
0010
0001
1000
0010
0100
,
0010
1000
0010
0100
0001
1000
0100
0010
0100
1000
0100
0010
0001
1000
0010
0100
,
0001
1000
0001
1000
0001
0010
0001
0010
0001
1000
0001
1000
0001
0010
0001
0010
,
0100
1000
0100
1000
0100
0010
0100
0010
0100
1000
0100
1000
0100
0010
0100
0010
,
0001
0100
0001
0100
0010
0100
0010
0100
0001
0100
0001
0100
0010
0100
0010
0100
,
0001
0010
0100
1000
0001
1000
0001
0010
0001
0100
0010
1000
0001
1000
0100
0010
,
0001
0000
0000
0000
1001
0000
1000
0010
0100
0000
0001
0000
1001
0000
0001
0100
,
0010
0000
0100
0001
1000
0000
0100
1000
0001
1000
0010
0000
1010
0000
1000
0000
,
0001
0000
0000
0000
1001
0000
0001
1000
0100
0000
0010
0000
0110
0000
0010
0001
,
1000
0000
0010
0100
0001
0000
0100
0001
0000
0100
0001
0000
1001
0000
0000
0000
,
1000
0000
0000
0000
0101
0000
0001
0100
0010
0000
1000
0000
1100
0000
1000
0100
,
0010
0000
0100
1000
0001
0000
0100
0010
0100
0001
1000
0000
1001
0000
1000
0000
,
0001
0000
0000
0000
0101
0000
0001
1000
0010
0000
0100
0000
0110
0000
0010
1000
,
0001
0000
0010
0100
1000
0000
0100
1000
0000
0100
1000
0000
1001
0000
0000
0000
,
0001
0000
0000
0000
1001
0000
1000
0100
0010
0000
0001
0000
1001
0000
0001
0010
,
0100
0000
0010
0001
1000
0000
0010
1000
0001
1000
0100
0000
1100
0000
1000
0000
,
0001
0000
0000
0000
1001
0000
0001
1000
0010
0000
0100
0000
0110
0000
0100
0001
,
1000
0000
0100
0010
0001
0000
0010
0001
0000
0010
0001
0000
1001
0000
0000
0000
,
1000
0000
0000
0000
0011
0000
0001
0010
0100
0000
1000
0000
1010
0000
1000
0010
,
0100
0000
0010
1000
0001
0000
0010
0100
0010
0001
1000
0000
1001
0000
1000
0001
,
0020
0000
0030
0000
0000
0000
0000
0000
0000
0000
0000
0000
0000
0000
0000
0000
0020
0000
0000
0030
0000
0000
0000
0000
0000
0000
0000
0000
0000
0000
0000
0000
0020
0000
0000
0000
0030
0000
0000
0000
0000
0000
0000
0000
0000
0000
0000
0000
0020
0000
0000
0000
0000
0030
0000
0000
0000
0000
0000
0000
0000
0000
0000
0000
,
0020
0000
0000
0000
0000
0000
0030
0000
0000
0000
0000
0000
0000
0000
0000
0000
0020
0000
0000
0000
0000
0000
0000
0030
M00M
0000
0000
0000
0000
0000
0000
0000
M02M
0000
0000
0000
0000
0000
0000
0000
M03M
0000
0000
0000
0000
0000
0000
0000
M02M
0000
0000
0000
0000
0000
0000
0000
M00M
0030
0000
0000
0000
0000
0000
0000
,
MMMM
0000
0000
0000
0000
0000
0000
0000
0000
0000
0000
0000
0000
0000
0000
0000
0000
0000
0000
0000
0000
0000
0000
0000
0000
0000
0000
0000
0000
0000
0000
0000
0000
0000
0000
0000
0000
0000
0000
0000
0000
0000
0000
0000
0000
0000
0000
0000
0020
0030
0000
0000
0000
0000
0000
0000
0000
0000
0000
0000
0000
0000
0000
0000
,
0020
0000
0030
0000
0000
0000
0000
0000
0000
0000
0000
0000
0000
0000
0000
0000
0020
0000
0000
0030
0000
0000
0000
0000
0000
0000
0000
0000
0000
0000
0000
0000
0020
0000
0000
0000
0030
0000
0000
0000
0000
0000
0000
0000
0000
0000
0000
0000
0020
0000
0000
0000
0000
0030
0000
0000
0000
0000
0000
0000
0000
0000
0000
0000
,
0020
0000
0000
0000
0000
0000
0030
0000
M00M
0000
0000
0000
0000
0000
0000
0000
M02M
0000
0000
0000
0000
0000
0000
0030
M00M
0000
0000
0000
0000
0000
0000
0000
M02M
0000
0000
0000
0000
0000
0000
0000
M03M
0000
0000
0000
0000
0000
0000
0000
M02M
0000
0000
0000
0000
0000
0000
0000
M00M
0030
0000
0000
0000
0000
0000
0000
,
MMMM
0000
0000
0000
,
0000
0000
0000
0000
0000
0000
0000
0000
0000
0000
0000
0000
0000
0000
0000
0000
0000
0000
0000
0000
0000
0000
0000
0000
0000
0000
0000
0000
0000
0000
0000
0000
0000
0000
0000
0000
0000
0000
0000
0000
0000
0000
0000
0000
0000
0000
0000
0000
0020
0030
0000
0000
0000
0000
0000
0000
0000
0000
0000
0000
0000
0000
0000
0000
,
0020
0000
0030
0000
0000
0000
0000
0000
0000
0000
0000
0000
0000
0000
0000
0000
0020
0000
0000
0030
0000
0000
0000
0000
0000
0000
0000
0000
0000
0000
0000
0000
0020
0000
0000
0000
0030
0000
0000
0000
0000
0000
0000
0000
0000
0000
0000
0000
0020
0000
0000
0000
0000
0030
0000
0000
0000
0000
0000
0000
0000
0000
0000
0000
,
0020
0000
0000
0000
0000
0000
0030
0000
M00M
0000
0000
0000
0000
0000
0000
0000
M02M
0000
0000
0000
0000
0000
0000
0030
M00M
0000
0000
0000
0000
0000
0000
0000
M02M
0000
0000
0000
0000
0000
0000
0000
M03M
0000
0000
0000
0000
0000
0000
0000
M02M
0000
0000
0000
0000
0000
0000
0000
M00M
0030
0000
0000
0000
0000
0000
0000
,
MMMM
0000
0000
0000
,
0000
0000
0000
0000
0000
0000
0000
0000
0000
0000
0000
0000
0000
0000
0000
0000
0000
0000
0000
0000
0000
0000
0000
0000
0000
0000
0000
0000
0000
0000
0000
0000
0000
0000
0000
0000
0000
0000
0000
0000
0000
0000
0000
0000
0000
0000
0000
0000
0020
0030
0000
0000
0000
0000
0000
0000
0000
0000
0000
0000
0000
0000
0000
0000
,
0020
0000
0030
0000
0000
0000
0000
0000
0000
0000
0000
0000
0000
0000
0000
0000
0020
0000
0000
0030
0000
0000
0000
0000
0000
0000
0000
0000
0000
0000
0000
0000
0020
0000
0000
0000
0030
0000
0000
0000
0000
0000
0000
0000
0000
0000
0000
0000
0020
0000
0000
0000
0000
0030
0000
0000
0000
0000
0000
0000
0000
0000
0000
0000
,
0020
0000
0000
0000
0000
0000
0030
0000
M00M
0000
0000
0000
0000
0000
0000
0000
M02M
0000
0000
0000
0000
0000
0000
0030
M00M
0000
0000
0000
0000
0000
0000
0000
M02M
0000
0000
0000
0000
0000
0000
0000
M03M
0000
0000
0000
0000
0000
0000
0000
M02M
0000
0000
0000
0000
0000
0000
0000
M00M
0030
0000
0000
0000
0000
0000
0000
,
MMMM
0000
0000
0000
,
0000
0000
0000
0000
,
0000
0000
0000
0000
,
0000
0000
0000
0000
,
0000
M00M
M00M
M00M
M00M
M00M
M00M
M00M
,
MMMM
0000
0000
0000
,
0000
2000
0000
0000
0000
3200
0000
0000
,
0320
0000
0000
0032
0000
0000
0203
0000
,
0000
0000
0000
0000
,
0000
0000
0000
0000
,
0300
0020
0000
0000
0000
2030
0000
0000
,
3200
0000
0000
0320
0000
0000
0032
0000
,
0000
0203
0000
0000
0320
0000
0000
2030
,
0000
0000
0000
0000
,
3000
0002
0000
0000
0000
0023
0000
0000
,
0230
0000
0000
2300
0000
0000
3002
0000
,
0000
2003
0000
0000
3020
0000
0000
0000
,
0230
0000
0000
0000
,
0302
0000
0000
0000
,
0023
0000
0000
0000
,
0031
0000
1000
0000
0000
1000
0001
0000
,
1000
0100
0010
0001
1000
0100
0010
0001
1000
0100
1000
0001
0100
0010
0100
0001
,
0010
0100
1000
0001
0010
0100
1000
0001
1000
0010
1000
0001
0010
0100
0010
0001
,
1000
0010
0100
0001
1000
0010
0100
0001
1000
0010
1000
0001
0010
0100
0010
0001
,
0100
0010
1000
0001
0100
0010
1000
0001
1000
0100
1000
0001
0100
0010
0100
0001
,
1000
0100
0010
0001
1000
0100
0010
0001
1000
0100
1000
0001
0100
0010
0100
0001
,
0010
0100
1000
0001
0010
0100
1000
0001
1000
0010
1000
0001
0010
0100
0010
0001
,
1000
0010
0100
0001
1000
0010
0100
0001
1000
0010
1000
0001
0010
0100
0010
0001
,
0100
0010
1000
0001
0100
0010
1000
0001
1000
0100
1000
0001
0100
0010
0100
0001
,
0010
0001
1000
0001
0100
0010
1000
0010
1000
0001
0010
0001
0100
0001
1000
0001
,
0010
0001
1000
0001
0100
0010
1000
0010
1000
0001
0010
0001
0100
0010
1000
0001
,
0100
0001
1000
0001
0010
0100
1000
0100
1000
0001
0100
0001
0010
0001
1000
0001
,
0100
0001
1000
0001
0010
0100
1000
0100
1000
0001
0100
0001
0010
0100
0010
0001
,
1000
0001
1000
0001
1000
0100
1000
0100
1000
0001
1000
0001
1000
0100
1000
0100
,
0010
0001
0010
0001
0010
0100
0010
0100
0010
0001
0010
0001
0010
0100
0010
0100
,
1000
0010
1000
0010
0100
0010
0100
0010
1000
0010
1000
0010
0100
0010
0100
0010
,
1000
0100
0010
0001
1000
0010
0100
0001
1000
0100
1000
0001
0100
0010
0100
0001
,
1000
0010
0100
0001
1000
0010
0100
0001
1000
0010
1000
0001
0010
0100
0010
0001
,
0100
0010
1000
0001
0100
0010
1000
0001
1000
0100
1000
0001
0100
0010
0100
0001
,
1000
0100
0010
0001
1000
0100
0010
0001
1000
0100
1000
0001
0100
0010
0100
0001
,
0010
0100
1000
0001
0010
0100
1000
0001
1000
0010
1000
0001
0010
0100
0010
0001
,
1000
0010
0100
0001
1000
0010
0100
0001
1000
0010
1000
0001
0010
0100
0010
0001
,
0100
0010
1000
0001
0100
0010
1000
0001
1000
0100
1000
0001
0100
0010
0100
0001
,
1000
0100
0010
0001
1000
0100
0010
0001
1000
0100
1000
0001
0100
0010
0100
0001
,
0010
0100
1000
0001
0010
0100
1000
0001
1000
0010
1000
0001
0010
0100
0010
0001
,
0100
0001
1000
0001
0010
0100
1000
0100
1000
0001
0100
0001
0010
0001
1000
0001
,
0100
0001
1000
0001
0010
0100
1000
0100
1000
0001
0100
0001
0010
0100
1000
0001
,
0010
0001
1000
0001
0100
0010
1000
0010
1000
0001
0010
0001
0100
0001
1000
0001
,
0010
0001
1000
0001
0100
0010
1000
0010
1000
0001
0010
0001
0100
0010
0100
0001
,
1000
0001
1000
0001
1000
0010
1000
0010
1000
0001
1000
0001
1000
0010
1000
0010
,
0100
0001
0100
0001
0100
0010
0100
0010
0100
0001
0100
0001
0100
0010
0100
0010
,
1000
0100
1000
0100
0010
0100
0010
0100
1000
0100
1000
0100
0010
0100
0010
0100
,
1000
0010
0100
0001
1000
0100
0010
0001
1000
0010
1000
0001
0010
0100
0010
0001
,
1000
0100
0010
0001
1000
0100
0010
0001
1000
0100
1000
0001
0100
0010
0100
0001
,
0010
0100
1000
0001
0010
0100
1000
0001
1000
0010
1000
0001
0010
0100
0010
0001
,
1000
0010
0100
0001
1000
0010
0100
0001
1000
0010
1000
0001
0010
0100
0010
0001
,
0100
0010
1000
0001
0100
0010
1000
0001
1000
0100
1000
0001
0100
0010
0100
0001
,
1000
0100
0010
0001
1000
0100
0010
0001
1000
0100
1000
0001
0100
0010
0100
0001
,
0010
0100
1000
0001
0010
0100
1000
0001
1000
0010
1000
0001
0010
0100
0010
0001
,
1000
0010
0100
0001
1000
0010
0100
0001
1000
0010
1000
0001
0010
0100
0010
0001
,
0100
0010
1000
0001
0100
0010
1000
0001
1000
0100
1000
0001
0100
0010
0100
0001
,
0010
0001
1000
0001
0100
0010
1000
0010
1000
0001
0010
0001
0100
0001
1000
0001
,
0010
0001
1000
0001
0100
0010
1000
0010
1000
0001
0010
0001
0100
0010
1000
0001
,
0100
0001
1000
0001
0010
0100
1000
0100
1000
0001
0100
0001
0010
0001
1000
0001
,
0100
0001
1000
0001
0010
0100
1000
0100
1000
0001
0100
0001
0010
0100
0010
0001
,
1000
0001
1000
0001
1000
0100
1000
0100
1000
0001
1000
0001
1000
0100
1000
0100
,
0010
0001
0010
0001
0010
0100
0010
0100
0010
0001
0010
0001
0010
0100
0010
0100
,
1000
0010
1000
0010
0100
0010
0100
0010
1000
0010
1000
0010
0100
0010
0100
0010
,
1000
0100
0010
0001
1000
0010
0100
0001
1000
0100
1000
0001
0100
0010
0100
0001
,
2000
0000
0000
0000
,
0000
0000
0000
0000
,
0000
0000
0000
0000
,
3000
0000
0000
0000
;

//---------------dance-single - I. Pyles----------------
#NOTES:
     dance-single:
     I. Pyles:
     Challenge:
     15:
     1.000,1.000,0.000,0.217,1.000,2311.000,0.000,65.000,91.000,0.000:












0000
0000
0000
0000
,
0000
0000
0000
0000
,
0000
0000
0000
0000
,
0000
0000
0000
0000
,
0000
0000
0000
0000
,
0000
0000
0000
0000
,
0000
0000
0000
0000
,
0000
0000
0000
0000
,
0000
0000
0000
0000
,
0000
0000
0000
0000
,
0000
0000
0000
0000
,
0000
0000
0000
0000
,
0000
0000
0000
0000
,
0000
0000
0000
0000
,
0010
00M0
0000
0010
00M0
0000
0000
0000
,
2000
0000
0000
0000
0000
0000
0000
0000
0000
0000
0000
0000
0000
0000
0000
0000
0000
0000
0000
0000
0000
0000
0000
0000
0000
0000
0000
0000
0000
0000
0000
0000
0000
0000
0000
0000
0000
0000
0000
0000
0000
0000
0000
0000
0000
0000
0000
0000
0000
0000
0000
0000
0000
0000
0000
0000
0000
0000
0000
0000
0000
0000
0000
3000
,
1000
M000
0000
1000
M000
0000
0000
0000
,
0002
0000
0000
0000
0000
0000
0000
0000
0000
0000
0000
0000
0000
0000
0000
0000
0000
0000
0000
0000
0000
0000
0000
0000
0000
0000
0000
0000
0000
0000
0000
0000
0000
0000
0000
0000
0000
0000
0000
0000
0000
0000
0000
0000
0000
0000
0000
0000
0000
0000
0000
0000
0000
0000
0000
0000
0000
0000
0000
0000
0000
0000
0000
0003
,
0100
0000
0010
0000
0000
0100
0010
0000
,
0100
0000
0000
0100
0010
0000
0000
0010
0000
0010
0100
0000
0001
0000
0000
0000
,
0010
0000
0100
0000
0000
0010
0100
0000
,
1000
0000
0000
0000
,
0001
0100
0010
1000
0100
0010
0100
1000
0001
0100
0010
0100
0001
1000
0100
1000
,
0001
0100
0010
0100
0001
0010
0100
1000
0001
1000
0010
1000
0010
0100
0001
0010
,
0001
1000
0010
0100
0001
0010
0100
1000
0100
1000
0001
0100
0001
0100
0010
1000
,
0010
1000
0100
0010
0100
0010
0001
1000
0001
1000
0010
0100
0010
1000
0001
1000
,
0100
0010
0001
1000
0010
0100
0010
1000
0001
0010
0100
0010
0001
1000
0010
1000
,
0001
0010
0100
0010
0001
0100
0010
1000
0001
1000
0100
1000
0100
0010
0001
0100
,
0001
1000
0100
0010
0001
0100
0010
0100
0001
1000
0100
0010
0001
1000
0010
0100
,
0001
1000
0100
1000
0001
0100
0010
0100
0001
1000
0100
1000
0001
0100
0010
0100
,
0001
1000
0001
0010
0001
1000
0001
0100
0010
1000
0001
1000
0100
0010
0001
0100
,
0010
1000
0001
1000
0100
1000
0001
0100
0010
0100
0001
0010
0001
1000
0100
1000
,
0010
0100
0001
1000
0100
1000
0001
0100
0001
0100
0010
1000
0100
1000
0001
0010
,
0001
0010
0100
1000
0100
1000
0010
0100
0010
0100
0001
1000
0001
0010
0100
1000
,
0001
1000
0001
0100
0001
1000
0001
0010
0100
1000
0001
1000
0010
0100
0001
0010
,
0100
1000
0001
1000
0010
1000
0001
0010
0100
0010
0001
0100
0001
1000
0010
1000
,
0100
0000
0000
0M00
0000
0000
0100
0000
0000
0000
0010
0000
0002
0000
0000
0000
,
0000
0000
0000
0000
0000
0000
0000
0003
,
1000
0100
0010
0001
1000
0100
0010
0001
1000
0100
1000
0001
0100
0010
0100
0001
,
0010
0100
1000
0001
0010
0100
1000
0001
1000
0010
1000
0001
0010
0100
0010
0001
,
1000
0010
0100
0001
1000
0010
0100
0001
1000
0010
1000
0001
0010
0100
0010
0001
,
0100
0010
1000
0001
0100
0010
1000
0001
1000
0100
1000
0001
0100
0010
0100
0001
,
1000
0100
0010
0001
1000
0100
0010
0001
1000
0100
1000
0001
0100
0010
0100
0001
,
0010
0100
1000
0001
0010
0100
1000
0001
1000
0010
1000
0001
0010
0100
0010
0001
,
1000
0010
0100
0001
1000
0010
0100
0001
1000
0010
1000
0001
0010
0100
0010
0001
,
0100
0010
1000
0001
0100
0010
1000
0001
1000
0100
1000
0001
0100
0010
0100
0001
,
1000
0100
1000
0001
0010
0100
0010
0001
1000
0100
1000
0001
0010
0100
0010
0001
,
1000
0100
1000
0001
0010
0100
0010
0001
1000
0100
1000
0001
0010
0100
1000
0010
,
0100
0001
0100
0010
1000
0001
0010
0100
0010
0001
0010
0100
1000
0001
0100
0010
,
0100
0001
0100
0010
1000
0001
0010
0100
0010
0001
0010
0100
1000
0001
0100
0010
,
1000
0001
1000
0001
1000
0100
1000
0100
1000
0001
1000
0001
1000
0100
1000
0100
,
0010
0001
0010
0001
0010
0100
0010
0100
0010
0001
0010
0001
0010
0100
0010
0100
,
1000
0010
1000
0010
0100
0010
0100
0010
1000
0010
1000
0010
0100
0010
0100
0010
,
1000
0100
0010
0001
1000
0001
1000
0100
1000
0010
0100
0001
1000
0001
1000
0100
,
0010
0001
1000
0001
0100
0010
1000
0010
1000
0001
0010
0001
0100
0001
1000
0001
,
0010
0001
1000
0001
0100
0010
1000
0010
1000
0001
0010
0001
0100
0010
1000
0001
,
0100
0001
1000
0001
0010
0100
1000
0100
1000
0001
0100
0001
0010
0001
1000
0001
,
0100
0001
1000
0001
0010
0100
1000
0100
1000
0001
0100
0001
0010
0100
1000
0001
,
0010
0001
1000
0001
0100
0010
1000
0010
1000
0001
0010
0001
0100
0001
1000
0001
,
0010
0001
1000
0001
0100
0010
1000
0010
1000
0001
0010
0001
0100
0010
1000
0001
,
0100
0001
1000
0001
0010
0100
1000
0100
1000
0001
0100
0001
0010
0001
1000
0001
,
0100
0001
1000
0001
0010
0100
1000
0100
1000
0001
0100
0001
0010
0100
1000
0001
,
0010
0100
1000
0001
0100
0001
1000
0010
1000
0001
0010
0001
0100
0001
1000
0001
,
0010
0100
1000
0001
0100
0001
1000
0010
1000
0001
0010
0001
0100
0001
1000
0001
,
0100
0010
1000
0001
0010
0001
1000
0100
1000
0001
0100
0001
0010
0001
1000
0001
,
0100
0010
1000
0001
0010
0001
1000
0100
1000
0001
0100
0001
0010
0001
1000
0001
,
0010
0100
1000
0001
0100
0001
1000
0010
1000
0001
0010
0001
0100
0001
1000
0001
,
0010
0100
1000
0001
0100
0001
1000
0010
1000
0001
0010
0001
0100
0001
1000
0001
,
0100
0010
1000
0001
0010
0001
1000
0100
1000
0001
0100
0001
0010
0001
1000
0001
,
0200
0000
0000
0300
,
1000
0010
0100
0001
0010
0100
0010
0001
1000
0010
0100
0010
1000
0001
0010
0001
,
1000
0010
0100
0010
1000
0100
0010
0001
1000
0001
0100
0001
0100
0010
1000
0100
,
1000
0001
0100
0010
1000
0100
0010
0001
0010
0001
1000
0010
1000
0010
0100
0001
,
0100
0001
0010
0100
0010
0100
1000
0001
1000
0001
0100
0010
0100
0001
1000
0001
,
0010
0100
1000
0001
0100
0010
0100
0001
1000
0100
0010
0100
1000
0001
0100
0001
,
1000
0100
0010
0100
1000
0010
0100
0001
1000
0001
0010
0001
0010
0100
1000
0010
,
1000
0001
0010
0100
1000
0010
0100
0010
1000
0001
0010
0100
1000
0001
0100
0010
,
1000
0001
0010
0001
1000
0010
0100
0010
1000
0001
0010
0001
1000
0010
0100
0010
,
1000
0001
1000
0100
1000
0001
1000
0010
0100
0001
1000
0001
0010
0100
1000
0010
,
0100
0001
1000
0001
0010
0001
1000
0010
0100
0010
1000
0100
1000
0001
0010
0001
,
0100
0010
1000
0001
0010
0001
1000
0010
1000
0010
0100
0001
0010
0001
1000
0100
,
1000
0100
0010
0001
0010
0001
0100
0010
0100
0010
1000
0001
1000
0100
0010
0001
,
1000
0001
1000
0010
1000
0001
1000
0100
0010
0001
1000
0001
0100
0010
1000
0100
,
0010
0001
1000
0001
0100
0001
1000
0100
0010
0100
1000
0010
1000
0001
0100
0001
,
0010
0100
1000
0001
1000
0100
1000
0001
0100
0001
1000
0100
0010
0001
1000
0010
,
0200
0000
0000
0300
,
0001
0010
0100
1000
0001
0010
0100
1000
0001
0010
0001
1000
0010
0100
0010
1000
,
0100
0010
0001
1000
0100
0010
0001
1000
0001
0100
0001
1000
0100
0010
0100
1000
,
0001
0100
0010
1000
0001
0100
0010
1000
0001
0100
0001
1000
0100
0010
0100
1000
,
0010
0100
0001
1000
0010
0100
0001
1000
0001
0010
0001
1000
0010
0100
0010
1000
,
0001
0010
0100
1000
0001
0010
0100
1000
0001
0010
0001
1000
0010
0100
0010
1000
,
0100
0010
0001
1000
0100
0010
0001
1000
0001
0100
0001
1000
0100
0010
0100
1000
,
0001
0100
0010
1000
0001
0100
0010
1000
0001
0100
0001
1000
0100
0010
0100
1000
,
0010
0100
0001
1000
0010
0100
0001
1000
0001
0010
0001
1000
0010
0100
0010
1000
,
0001
0010
0001
1000
0010
0100
0010
1000
0001
0010
0001
1000
0010
0100
0010
1000
,
0001
0010
0001
1000
0010
0100
0010
1000
0001
0010
0001
1000
0100
0010
0001
0100
,
0010
1000
0010
0100
0001
1000
0100
0010
0100
1000
0100
0010
0001
1000
0010
0100
,
0010
1000
0010
0100
0001
1000
0100
0010
0100
1000
0100
0010
0001
1000
0010
0100
,
0001
1000
0001
1000
0001
0010
0001
0010
0001
1000
0001
1000
0001
0010
0001
0010
,
0100
1000
0100
1000
0100
0010
0100
0010
0100
1000
0100
1000
0100
0010
0100
0010
,
0001
0100
0001
0100
0010
0100
0010
0100
0001
0100
0001
0100
0010
0100
0010
0100
,
0001
0010
0100
1000
0001
1000
0001
0010
0001
0100
0010
1000
0001
1000
0001
0010
,
0100
1000
0001
1000
0010
0100
0001
0100
0001
1000
0100
1000
0010
1000
0001
1000
,
0100
1000
0001
1000
0010
0100
0001
0100
0001
1000
0100
1000
0010
0100
0001
1000
,
0010
1000
0001
1000
0100
0010
0001
0010
0001
1000
0010
1000
0100
1000
0001
1000
,
0010
1000
0001
1000
0100
0010
0001
0010
0001
1000
0010
1000
0100
0010
0001
1000
,
0100
1000
0001
1000
0010
0100
0001
0100
0001
1000
0100
1000
0010
1000
0001
1000
,
0100
1000
0001
1000
0010
0100
0001
0100
0001
1000
0100
1000
0010
0100
0001
1000
,
0010
1000
0001
1000
0100
0010
0001
0010
0001
1000
0010
1000
0100
1000
0001
1000
,
0010
1000
0001
1000
0100
0010
0001
0010
0001
1000
0010
1000
0100
0010
0001
1000
,
0100
0010
0001
1000
0010
1000
0001
0100
0001
1000
0100
1000
0010
1000
0001
1000
,
0100
0010
0001
1000
0010
1000
0001
0100
0001
1000
0100
1000
0010
1000
0001
1000
,
0010
0100
0001
1000
0100
1000
0001
0010
0001
1000
0010
1000
0100
1000
0001
1000
,
0010
0100
0001
1000
0100
1000
0001
0010
0001
1000
0010
1000
0100
1000
0001
1000
,
0100
0010
0001
1000
0010
1000
0001
0100
0001
1000
0100
1000
0010
1000
0001
1000
,
0100
0000
0000
0000
0010
0000
0000
0000
0001
0000
0000
0000
1000
0000
0000
0000
0010
0000
0000
0000
1000
0000
0000
0000
0001
0000
0000
0000
0100
0000
0000
0000
0001
0000
0000
0000
1000
0000
0000
0000
0100
0000
0000
0000
1000
0000
0000
0000
0020
0030
0000
0000
0100
0000
0000
0000
0001
0000
0000
0000
1000
0000
0000
0000
,
0020
0000
0030
0000
0100
0000
0000
0000
0001
0000
0000
0000
1000
0000
0000
0000
0020
0000
0000
0030
0100
0000
0000
0000
0001
0000
0000
0000
1000
0000
0000
0000
0020
0000
0000
0000
0130
0000
0000
0000
0001
0000
0000
0000
1000
0000
0000
0000
0020
0000
0000
0000
0100
0030
0000
0000
0001
0000
0000
0000
1000
0000
0000
0000
,
0020
0000
0000
0000
0000
0000
0030
0000
0000
0000
0000
0000
0000
0000
0000
0000
0020
0000
0000
0000
0000
0000
0000
0030
M00M
0000
0000
0000
0000
0000
0000
0000
M02M
0000
0000
0000
0000
0000
0000
0000
M03M
0000
0000
0000
0000
0000
0000
0000
M02M
0000
0000
0000
0000
0000
0000
0000
M00M
0030
0000
0000
0000
0000
0000
0000
,
MMMM
0000
0000
0000
0000
0000
0000
0000
0000
0000
0000
0000
0000
0000
0000
0000
0000
0000
0000
0000
0000
0000
0000
0000
0000
0000
0000
0000
0000
0000
0000
0000
0000
0000
0000
0000
0000
0000
0000
0000
0000
0000
0000
0000
0000
0000
0000
0000
0020
0030
0000
0000
0000
0000
0000
0000
0000
0000
0000
0000
0000
0000
0000
0000
,
0020
0000
0030
0000
0000
0000
0000
0000
0000
0000
0000
0000
0000
0000
0000
0000
0020
0000
0000
0030
0000
0000
0000
0000
0000
0000
0000
0000
0000
0000
0000
0000
0020
0000
0000
0000
0030
0000
0000
0000
0000
0000
0000
0000
0000
0000
0000
0000
0020
0000
0000
0000
0000
0030
0000
0000
0000
0000
0000
0000
0000
0000
0000
0000
,
0020
0000
0000
0000
0000
0000
0030
0000
M00M
0000
0000
0000
0000
0000
0000
0000
M02M
0000
0000
0000
0000
0000
0000
0030
M00M
0000
0000
0000
0000
0000
0000
0000
M02M
0000
0000
0000
0000
0000
0000
0000
M03M
0000
0000
0000
0000
0000
0000
0000
M02M
0000
0000
0000
0000
0000
0000
0000
M00M
0030
0000
0000
0000
0000
0000
0000
,
MMMM
0000
0000
0000
,
0000
0000
0000
0000
0000
0000
0000
0000
0000
0000
0000
0000
0000
0000
0000
0000
0000
0000
0000
0000
0000
0000
0000
0000
0000
0000
0000
0000
0000
0000
0000
0000
0000
0000
0000
0000
0000
0000
0000
0000
0000
0000
0000
0000
0000
0000
0000
0000
0020
0030
0000
0000
0000
0000
0000
0000
0000
0000
0000
0000
0000
0000
0000
0000
,
0020
0000
0030
0000
0000
0000
0000
0000
0000
0000
0000
0000
0000
0000
0000
0000
0020
0000
0000
0030
0000
0000
0000
0000
0000
0000
0000
0000
0000
0000
0000
0000
0020
0000
0000
0000
0030
0000
0000
0000
0000
0000
0000
0000
0000
0000
0000
0000
0020
0000
0000
0000
0000
0030
0000
0000
0000
0000
0000
0000
0000
0000
0000
0000
,
0020
0000
0000
0000
0000
0000
0030
0000
M00M
0000
0000
0000
0000
0000
0000
0000
M02M
0000
0000
0000
0000
0000
0000
0030
M00M
0000
0000
0000
0000
0000
0000
0000
M02M
0000
0000
0000
0000
0000
0000
0000
M03M
0000
0000
0000
0000
0000
0000
0000
M02M
0000
0000
0000
0000
0000
0000
0000
M00M
0030
0000
0000
0000
0000
0000
0000
,
MMMM
0000
0000
0000
,
0000
0000
0000
0000
0000
0000
0000
0000
0000
0000
0000
0000
0000
0000
0000
0000
0000
0000
0000
0000
0000
0000
0000
0000
0000
0000
0000
0000
0000
0000
0000
0000
0000
0000
0000
0000
0000
0000
0000
0000
0000
0000
0000
0000
0000
0000
0000
0000
0020
0030
0000
0000
0000
0000
0000
0000
0000
0000
0000
0000
0000
0000
0000
0000
,
0020
0000
0030
0000
0000
0000
0000
0000
0000
0000
0000
0000
0000
0000
0000
0000
0020
0000
0000
0030
0000
0000
0000
0000
0000
0000
0000
0000
0000
0000
0000
0000
0020
0000
0000
0000
0030
0000
0000
0000
0000
0000
0000
0000
0000
0000
0000
0000
0020
0000
0000
0000
0000
0030
0000
0000
0000
0000
0000
0000
0000
0000
0000
0000
,
0020
0000
0000
0000
0000
0000
0030
0000
M00M
0000
0000
0000
0000
0000
0000
0000
M02M
0000
0000
0000
0000
0000
0000
0030
M00M
0000
0000
0000
0000
0000
0000
0000
M02M
0000
0000
0000
0000
0000
0000
0000
M03M
0000
0000
0000
0000
0000
0000
0000
M02M
0000
0000
0000
0000
0000
0000
0000
M00M
0030
0000
0000
0000
0000
0000
0000
,
MMMM
0000
0000
0000
,
0000
0000
0000
0000
,
0000
0000
0000
0000
,
0000
0000
0000
0000
,
0000
M00M
M00M
M00M
M00M
M00M
M00M
M00M
,
MMMM
0000
0000
0000
,
0000
2000
0000
0000
0000
3200
0000
0000
,
0320
0000
0000
0032
0000
0000
0203
0000
,
0000
0000
0000
0000
,
0000
0000
0000
0000
,
0300
0020
0000
0000
0000
2030
0000
0000
,
3200
0000
0000
0320
0000
0000
0032
0000
,
0000
0203
0000
0000
0320
0000
0000
2030
,
0000
0000
0000
0000
,
3000
0002
0000
0000
0000
0023
0000
0000
,
0230
0000
0000
2300
0000
0000
3002
0000
,
0000
2003
0000
0000
3020
0000
0000
0000
,
0230
0000
0000
0000
,
0302
0000
0000
0000
,
0023
0000
0000
0000
,
0031
0000
1000
0000
0000
1000
0001
0000
,
1000
0100
0010
0001
1000
0100
0010
0001
1000
0100
1000
0001
0100
0010
0100
0001
,
0010
0100
1000
0001
0010
0100
1000
0001
1000
0010
1000
0001
0010
0100
0010
0001
,
1000
0010
0100
0001
1000
0010
0100
0001
1000
0010
1000
0001
0010
0100
0010
0001
,
0100
0010
1000
0001
0100
0010
1000
0001
1000
0100
1000
0001
0100
0010
0100
0001
,
1000
0100
0010
0001
1000
0100
0010
0001
1000
0100
1000
0001
0100
0010
0100
0001
,
0010
0100
1000
0001
0010
0100
1000
0001
1000
0010
1000
0001
0010
0100
0010
0001
,
1000
0010
0100
0001
1000
0010
0100
0001
1000
0010
1000
0001
0010
0100
0010
0001
,
0100
0010
1000
0001
0100
0010
1000
0001
1000
0100
1000
0001
0100
0010
0100
0001
,
0010
0001
1000
0001
0100
0010
1000
0010
1000
0001
0010
0001
0100
0001
1000
0001
,
0010
0001
1000
0001
0100
0010
1000
0010
1000
0001
0010
0001
0100
0010
1000
0001
,
0100
0001
1000
0001
0010
0100
1000
0100
1000
0001
0100
0001
0010
0001
1000
0001
,
0100
0001
1000
0001
0010
0100
1000
0100
1000
0001
0100
0001
0010
0100
0010
0001
,
1000
0001
1000
0001
1000
0100
1000
0100
1000
0001
1000
0001
1000
0100
1000
0100
,
0010
0001
0010
0001
0010
0100
0010
0100
0010
0001
0010
0001
0010
0100
0010
0100
,
1000
0010
1000
0010
0100
0010
0100
0010
1000
0010
1000
0010
0100
0010
0100
0010
,
1000
0100
0010
0001
1000
0010
0100
0001
1000
0100
1000
0001
0100
0010
0100
0001
,
1000
0010
0100
0001
1000
0010
0100
0001
1000
0010
1000
0001
0010
0100
0010
0001
,
0100
0010
1000
0001
0100
0010
1000
0001
1000
0100
1000
0001
0100
0010
0100
0001
,
1000
0100
0010
0001
1000
0100
0010
0001
1000
0100
1000
0001
0100
0010
0100
0001
,
0010
0100
1000
0001
0010
0100
1000
0001
1000
0010
1000
0001
0010
0100
0010
0001
,
1000
0010
0100
0001
1000
0010
0100
0001
1000
0010
1000
0001
0010
0100
0010
0001
,
0100
0010
1000
0001
0100
0010
1000
0001
1000
0100
1000
0001
0100
0010
0100
0001
,
1000
0100
0010
0001
1000
0100
0010
0001
1000
0100
1000
0001
0100
0010
0100
0001
,
0010
0100
1000
0001
0010
0100
1000
0001
1000
0010
1000
0001
0010
0100
0010
0001
,
0100
0001
1000
0001
0010
0100
1000
0100
1000
0001
0100
0001
0010
0001
1000
0001
,
0100
0001
1000
0001
0010
0100
1000
0100
1000
0001
0100
0001
0010
0100
1000
0001
,
0010
0001
1000
0001
0100
0010
1000
0010
1000
0001
0010
0001
0100
0001
1000
0001
,
0010
0001
1000
0001
0100
0010
1000
0010
1000
0001
0010
0001
0100
0010
0100
0001
,
1000
0001
1000
0001
1000
0010
1000
0010
1000
0001
1000
0001
1000
0010
1000
0010
,
0100
0001
0100
0001
0100
0010
0100
0010
0100
0001
0100
0001
0100
0010
0100
0010
,
1000
0100
1000
0100
0010
0100
0010
0100
1000
0100
1000
0100
0010
0100
0010
0100
,
1000
0010
0100
0001
1000
0100
0010
0001
1000
0010
1000
0001
0010
0100
0010
0001
,
1000
0100
0010
0001
1000
0100
0010
0001
1000
0100
1000
0001
0100
0010
0100
0001
,
0010
0100
1000
0001
0010
0100
1000
0001
1000
0010
1000
0001
0010
0100
0010
0001
,
1000
0010
0100
0001
1000
0010
0100
0001
1000
0010
1000
0001
0010
0100
0010
0001
,
0100
0010
1000
0001
0100
0010
1000
0001
1000
0100
1000
0001
0100
0010
0100
0001
,
1000
0100
0010
0001
1000
0100
0010
0001
1000
0100
1000
0001
0100
0010
0100
0001
,
0010
0100
1000
0001
0010
0100
1000
0001
1000
0010
1000
0001
0010
0100
0010
0001
,
1000
0010
0100
0001
1000
0010
0100
0001
1000
0010
1000
0001
0010
0100
0010
0001
,
0100
0010
1000
0001
0100
0010
1000
0001
1000
0100
1000
0001
0100
0010
0100
0001
,
0010
0001
1000
0001
0100
0010
1000
0010
1000
0001
0010
0001
0100
0001
1000
0001
,
0010
0001
1000
0001
0100
0010
1000
0010
1000
0001
0010
0001
0100
0010
1000
0001
,
0100
0001
1000
0001
0010
0100
1000
0100
1000
0001
0100
0001
0010
0001
1000
0001
,
0100
0001
1000
0001
0010
0100
1000
0100
1000
0001
0100
0001
0010
0100
0010
0001
,
1000
0001
1000
0001
1000
0100
1000
0100
1000
0001
1000
0001
1000
0100
1000
0100
,
0010
0001
0010
0001
0010
0100
0010
0100
0010
0001
0010
0001
0010
0100
0010
0100
,
1000
0010
1000
0010
0100
0010
0100
0010
1000
0010
1000
0010
0100
0010
0100
0010
,
1000
0100
0010
0001
1000
0010
0100
0001
1000
0100
1000
0001
0100
0010
0100
0001
,
2000
0000
0000
0000
,
0000
0000
0000
0000
,
0000
0000
0000
0000
,
3000
0000
0000
0000
;
