#TITLE:VerTex Rave;
#SUBTITLE:C-Mod = Ok;
#ARTIST:ZiGZaG vs. BadAxe;
#TITLETRANSLIT:;
#SUBTITLETRANSLIT:;
#ARTISTTRANSLIT:;
#CREDIT:;
#BANNER:../fallback-bn.png;
#BACKGROUND:../fallback-bg.png;
#LYRICSPATH:;
#CDTITLE:;
#MUSIC:ZigZag vs. BadAxe - VerTex RaVe.ogg;
#OFFSET:0.000;
#SAMPLESTART:41.818;
#SAMPLELENGTH:12.000;
#SELECTABLE:YES;
#BPMS:0.000=140.000,24.000=280.000,40.000=140.000,68.000=280.000,76.000=140.000;
#STOPS:;
#BGCHANGES:;
// cache tags:
#FIRSTBEAT:24.000;
#LASTBEAT:332.750;
#SONGFILENAME:Songs/SSSC PACK/[Aoreo] - VerTex Rave/VerTex Rave.sm;
#HASMUSIC:1;
#HASBANNER:1;
#MUSICLENGTH:138.893;
// end cache tags

//---------------dance-single - J. Nero----------------
#NOTES:
     dance-single:
     J. Nero:
     Challenge:
     16:
     0.946,1.000,0.331,0.000,1.000,874.000,46.000,0.000,0.000,0.000:

0000
0000
0000
0000
,
0000
0000
0000
0000
,
0000
0000
0000
0000
,
0000
0000
0000
0000
,
0000
0000
0000
0000
,
0000
0000
0000
0000
,
1000
0000
0000
0010
0000
0100
0010
0000
,
1000
0000
0001
0100
0001
0000
1000
0001
,
1000
0000
0010
1000
0000
0010
0100
0000
,
0101
0000
0000
0000
,
0000
1001
0000
1001
0000
0110
0000
0101
,
0000
0000
1010
0000
0000
0000
1100
0000
0000
0000
0011
0000
0000
0000
1000
0001
,
0000
0101
0000
1010
0000
0110
0000
1001
,
0000
0101
0000
1010
0000
1100
0000
0101
,
0000
1010
0000
0110
0000
1100
0000
0011
,
0000
0000
0110
0000
0000
0000
1010
0000
0000
0000
0101
0000
0000
0000
1000
0010
,
0000
0110
0000
1001
0000
1100
0000
1010
,
0100
0000
0001
1000
0000
0010
0100
0000
,
0001
0000
0000
0000
,
0000
1001
0000
0101
0000
1100
0000
0110
,
0000
0000
1001
0000
0000
0000
0011
0000
0000
0000
1100
0000
0000
0000
1000
0100
,
0000
0011
0000
0101
0000
1010
0000
1100
,
0000
0110
0000
0011
0000
1001
0000
1001
,
0000
1100
0000
0110
0000
0011
0000
1000
,
0001
0000
1000
0010
0000
0100
0010
0000
1000
0000
0010
0100
0000
0100
0010
0000
,
0100
0010
0100
0010
0000
0100
0010
0000
1000
0000
0001
0100
0000
0100
0001
0000
,
1000
0000
0001
0100
0000
0001
0100
0000
0010
0000
1000
0100
0000
0100
1000
0000
,
0001
0000
0100
0010
0000
0100
0010
0000
1000
0000
0001
0100
0000
0001
1000
0000
,
0001
0000
1000
0001
0000
1000
0001
0000
0100
0000
0001
1000
0000
1000
0010
0000
,
0001
0010
0100
1000
0010
1000
0001
1000
0010
0100
0001
1000
0010
0100
0001
0100
,
0001
1000
0001
0010
0001
0100
0010
1000
0010
0100
0001
1000
0010
1000
0100
1000
,
0001
1000
0010
1000
0100
1000
0010
1000
0001
1000
0001
0100
0001
0010
0001
1000
,
0001
0100
0001
1000
0001
0010
0001
0100
0010
1000
0010
0100
0001
1000
0010
0100
,
0001
1000
0001
1000
0001
1000
0001
0100
0001
0100
0001
0100
0001
1000
0010
1000
0010
1000
0010
1000
0010
1000
0010
1000
0010
1000
0010
1000
0010
0100
0010
0100
,
0010
0100
0001
0100
0001
0100
0001
1000
0001
1000
0001
1000
0001
0010
0001
0010
0001
0010
0001
0100
0010
0100
0010
0100
0010
1000
0010
1000
0010
1000
0010
1000
,
0010
1000
0010
1000
0000
0000
0000
0000
0000
0000
0000
0000
0000
0000
0000
0000
,
1000
0001
0100
0010
0000
0000
0000
0000
0000
0000
0000
0000
0000
0000
0000
0000
,
1000
0100
0010
0001
0000
0000
0000
0000
0000
0000
0000
0000
0000
0000
0000
0000
,
0001
0100
0010
1000
0000
0000
0000
0000
1000
0001
0100
0010
0000
0000
0000
0000
,
1000
0100
0010
0001
0100
0010
1000
0010
1000
0010
0100
0010
0100
0001
1000
0010
,
0100
0001
1000
0010
0100
0001
1000
0010
0100
0001
1000
0010
0100
0001
1000
0001
,
0100
0001
0100
0001
0100
0001
0100
0001
0100
0001
0100
0010
0100
0010
0100
0010
0100
0010
0100
0010
0100
0010
0100
0010
1000
0010
1000
0010
1000
0010
1000
0010
,
1000
0001
1000
0001
1000
0001
1000
0001
1000
0001
1000
0001
1000
0001
1000
0001
1000
0001
1000
0001
1000
0001
1000
0001
1000
0000
0001
0000
1000
0000
0001
0000
,
1000
0000
0010
0100
0000
0010
1000
0000
0010
0000
0100
0001
0000
1000
0010
0000
,
0100
0001
0100
0001
0000
1000
0010
0000
0100
0000
0001
1000
0000
0010
0100
0000
,
0001
0100
0010
1000
0000
0001
0100
0000
0010
0000
0100
0001
0000
0100
0001
0000
,
1000
0010
0100
0001
0000
1000
0010
0000
0100
0001
1000
0001
0000
1000
0001
0000
,
1000
0010
0100
0010
0000
0100
0010
0000
0100
0000
0001
1000
0000
0010
0100
0000
,
0001
1000
0001
1000
0000
0001
1000
0000
0010
0000
0100
0001
0000
0100
0010
0000
,
1000
0010
1000
0010
0000
0100
0010
0000
1000
0000
0001
0100
0000
0001
0010
0000
,
1000
0001
1000
0001
0000
0100
0010
0000
0100
0000
0000
0000
0000
0000
0000
0000
,
1000
0000
0000
0001
0000
0100
0010
0000
1000
0000
0010
0100
0010
0000
1000
0001
,
0010
0000
0010
1000
0000
0010
0100
0000
0010
0000
0100
0000
0000
0000
0001
1000
,
0001
0000
1000
0010
0000
0100
0010
0000
1000
0000
0010
0100
0010
0000
1000
0001
,
1000
0000
0001
0100
0000
0010
0100
0000
0010
0000
0100
0000
0001
1000
0000
0001
,
0100
0000
0010
0000
1000
0001
1000
0000
0001
0000
0100
0010
0100
0000
0001
0010
,
0001
0000
0100
0010
0000
1000
0010
0000
0100
0001
1000
0010
0100
0001
1000
0010
,
0100
0001
1000
0001
0100
0001
1000
0010
1000
0010
0100
0001
1000
0010
0100
0001
,
1000
0000
0000
0001
0000
0100
0010
0000
1000
0000
0100
0010
0000
0100
0010
0000
,
0110
0000
0010
0000
1000
0010
1000
0010
0100
0010
0100
0000
0010
0100
0010
0100
,
0010
0000
1000
0001
0000
0100
0010
1000
0001
0010
0001
1000
0010
0100
0010
1000
,
0001
0000
1000
0000
0000
0000
0100
0001
1000
0001
0100
0010
1000
0001
1000
0001
,
0100
0000
0010
1000
0000
0010
0100
0000
0010
0000
1000
0000
0001
0000
0100
0000
,
0010
0000
1000
0010
0000
0000
0100
0001
0100
0000
0010
0000
0000
0000
1000
0000
,
0001
0100
0010
1000
0010
0100
0001
1000
0001
0100
0010
1000
0010
0100
0001
1000
,
0001
1000
0001
1000
0001
1000
0001
1000
0001
1000
0001
1000
0001
1000
0001
1000
0001
0100
0010
0100
0010
0100
0010
0100
0010
0100
0010
0100
0010
0100
0010
0100
,
0010
0100
0001
0100
0001
0100
0001
0100
0001
1000
0001
1000
0001
1000
0001
1000
0001
1000
0001
1000
0001
1000
0001
1000
0001
0000
0100
0000
0001
0000
0100
0000
,
0001
0000
1000
0010
0000
1000
0010
0000
0100
0000
0001
1000
0000
0001
0100
0000
,
0001
1000
0010
0100
0000
0010
0100
0000
0001
0000
1000
0010
0000
1000
0100
0000
,
0010
0100
0010
0100
0000
1000
0001
0000
0100
0000
0001
0100
0000
0001
1000
0000
,
0010
0100
0010
0100
0000
0010
0100
0000
0001
1000
0010
0100
0000
0010
0100
0000
,
0001
1000
0001
1000
0000
0010
0100
0000
0001
0000
1000
0010
0000
0100
0001
0000
,
0010
0001
0010
0001
0000
0100
0010
0000
1000
0000
0010
1000
0000
0010
0100
0000
,
0001
0010
0100
1000
0000
0010
0100
0000
0001
0000
1000
0010
0000
0100
0010
0000
,
0100
0001
1000
0010
0000
0100
0010
0000
1000
0001
0100
0010
0000
0100
0010
0000
,
1000
0001
1000
0001
0000
0000
0000
0000
0000
0000
0000
0000
0000
0000
0000
0000
,
0100
0001
1000
0010
0000
0000
0000
0000
0000
0000
0000
0000
0000
0000
0000
0000
,
0001
1000
0010
0100
0000
0000
0000
0000
0000
0000
0000
0000
0000
0000
0000
0000
,
0100
0010
0100
0010
0000
0000
0000
0000
1000
0001
0100
0010
0000
0000
0000
0000
,
1000
0001
0100
0001
1000
0001
1000
0010
1000
0010
0100
0001
1000
0010
0100
0010
,
0100
0001
1000
0001
0100
0001
0010
0001
0010
0001
1000
0010
0100
0010
1000
0100
,
1000
0100
1000
0100
1000
0100
1000
0100
1000
0010
0100
0010
0100
0010
0100
0010
0100
0010
0100
0010
0100
0010
0100
0010
0100
0001
0100
0001
0100
0001
0100
0001
,
0100
0001
0100
0001
0100
0001
0100
0001
1000
0010
1000
0010
1000
0010
1000
0010
1000
0010
1000
0010
1000
0010
1000
0010
1000
0000
0010
0000
1000
0000
0010
0000
,
1000
0010
0100
0001
0000
0000
0000
0000
0000
0000
0000
0000
0000
0000
0000
0000
;
