#TITLE:Steelgods of the Last Apocalypse;
#SUBTITLE:Feels The Arrow;
#ARTIST:Rhapsody;
#TITLETRANSLIT:;
#SUBTITLETRANSLIT:;
#ARTISTTRANSLIT:;
#CREDIT:Ov3rHell3XoduZ;
#BANNER:../bn.png;
#BACKGROUND:../bg.png;
#LYRICSPATH:;
#CDTITLE:;
#MUSIC:Steelgods of the Last Apocalypse.ogg;
#OFFSET:0.919;
#SAMPLESTART:44.934;
#SAMPLELENGTH:11.960;
#SELECTABLE:YES;
#BPMS:0.000=174.000,168.000=87.000,186.000=174.000,354.000=348.000,366.000=174.000,444.000=87.000,458.750=88.000,462.000=174.000,612.000=170.000,614.000=174.000,692.000=172.000,696.000=174.000;
#STOPS:354.000=0.100
,354.500=0.100
,355.000=0.862
,356.000=0.172
,357.000=0.517
,358.000=0.172
,359.000=0.517
,360.000=0.517
,361.000=0.517
,362.000=0.172
,363.000=0.172
,364.000=0.517
,365.000=0.517
;
#BGCHANGES:;
// cache tags:
#FIRSTBEAT:4.000;
#LASTBEAT:960.000;
#SONGFILENAME:Songs/EXoduz' Feels The Arrow/Steelgods of the Last Apocalypse - [Ov3rHell3XoduZ]/Steelgods of the Last Apocalypse.sm;
#HASMUSIC:1;
#HASBANNER:1;
#MUSICLENGTH:348.202;
// end cache tags

//---------------dance-single - Ov3rHell3XoduZ----------------
#NOTES:
     dance-single:
     Ov3rHell3XoduZ:
     Challenge:
     15:
     1.000,1.000,0.121,0.787,1.000,2772.000,42.000,274.000,4.000,0.000:

0000
0000
0000
0000
,
2000
0000
0000
3001
0100
0010
2000
0000
0000
3100
0010
0001
,
2000
0000
0000
3010
0100
0001
0010
0001
1000
0100
0010
0001
,
2000
0000
0000
3010
0100
0001
2000
0000
0000
3100
0010
0001
,
2000
0000
0000
3001
0100
0001
0010
0001
1000
0100
0010
0001
,
2000
0000
0000
3001
0100
0001
0020
0000
0000
0130
1000
0001
,
2000
0000
0000
3100
0010
0001
1000
0001
0010
0001
1000
0100
,
0020
0000
0000
0031
0100
0001
2000
0000
0000
3100
0010
0001
,
2000
0000
0000
3010
0100
0001
1000
0100
1000
0001
0010
0001
,
2002
0000
0000
0000
0000
0000
0000
3003
,
1010
0010
0100
0001
0010
0100
1000
0001
,
1000
0100
1000
0010
0100
0001
0010
0001
,
1000
0100
0010
0001
1000
0001
0100
0001
,
1000
0010
0100
0001
0010
0100
0010
0001
,
1001
1000
0100
1000
0001
0100
0001
0010
,
0001
1000
0100
0010
0001
1000
0100
1000
,
0001
0100
0010
1000
0001
0010
0001
1000
,
0100
0010
0100
1000
0001
0101
0100
0110
,
0010
1000
0100
1000
0010
0100
0001
0010
0001
1000
0100
0010
0001
1000
0001
0100
,
0001
1000
0010
1000
0010
0100
0001
0010
0100
1000
0001
0100
0001
1000
0100
0010
,
0001
1000
0001
0100
0010
1000
0100
1000
0010
0100
0001
0010
0001
1000
0100
0010
,
0001
0100
0010
1000
0100
1000
0010
0100
0001
1000
0001
0010
0001
1000
0100
0010
,
0100
1000
0001
0100
0001
0100
0010
1000
0100
0010
0001
1000
0100
1000
0010
0100
,
0010
0100
0001
0010
0001
1000
0100
0010
0001
1000
0100
1000
0010
0100
0001
1000
,
0001
0010
0100
1000
0001
0100
0001
1000
0100
0010
0001
1000
0010
1000
0100
1000
,
0010
0100
0001
0010
0001
0010
0100
1000
0001
0100
0001
1000
0100
1000
0100
0010
,
0001
1000
0010
1000
0100
1000
0010
0100
0001
0010
0001
0010
0100
1000
0001
0100
,
0001
1000
0100
0010
0100
1000
0001
0100
0010
1000
0001
0010
0001
0010
0100
1000
,
0001
0100
0001
1000
0100
0010
0001
1000
0001
0100
0001
0010
0100
1000
0001
1000
,
0010
0100
0001
1000
0100
1000
0001
0100
0010
1000
0001
0010
0001
1000
0100
0010
,
0100
1000
0001
0100
0001
0010
0001
0010
0100
1000
0001
0100
0001
1000
0100
0010
,
0100
1000
0010
0100
0001
1000
0001
0010
0001
1000
0100
1000
0100
0010
0001
1000
,
0100
1000
0010
0100
0001
1000
0001
0010
0100
1000
0001
0100
0001
1000
0100
0010
,
0100
1000
0001
0010
0001
0010
0100
1000
0001
0100
0001
1000
0010
0100
0001
1000
,
1100
0100
0010
0001
1000
0001
0100
0001
,
0010
0100
1000
0010
0100
0001
1000
0100
,
0110
0010
0001
0100
0001
1000
0010
1000
,
0100
0010
0001
0100
0001
1000
0100
1000
,
1010
0010
0100
0001
1000
0001
0010
0100
,
1000
0100
0010
0001
1000
0001
0010
0100
,
1100
1000
0001
0100
0001
1000
0010
1000
,
0100
0000
0010
0000
0001
0000
1000
0000
0001
0000
0100
0000
0010
1000
0100
0010
,
0002
0000
2003
3200
,
0320
0000
0032
2003
,
3200
0000
0320
0032
,
2003
0000
0000
3200
0000
0000
0320
0000
0032
0000
0000
2003
0000
0000
0000
0000
,
3000
0000
1001
0000
1001
0000
1001
0000
1000
0100
0010
0001
1000
0100
1000
0010
,
0100
0001
1000
0001
0010
0100
0010
0001
1000
0100
0010
0001
0100
0001
1000
0010
,
0100
0010
1000
0100
0010
0001
1000
0001
0100
0001
1000
0010
1000
0100
0010
0100
,
1000
0001
0100
0010
1000
0001
0010
0001
1000
0100
0010
0001
1000
0001
0100
0010
,
1000
0100
1000
0001
0010
0100
1000
0001
0202
0000
0000
0000
0303
0000
0220
0000
,
0000
0330
2020
3030
0202
0000
0303
0022
,
0033
0000
0220
0000
0000
0000
0330
0000
1000
0100
1000
0010
0100
0001
1000
0001
,
0010
0001
1000
0100
0010
0100
1000
0001
0100
0001
1000
0010
0100
0010
1000
0100
,
0010
0001
1000
0001
0010
0001
1000
0100
1000
0010
0100
0001
1000
0001
0010
0100
,
0010
0001
1000
0100
0010
0100
1000
0001
0100
0001
1000
0010
0100
0010
1000
0100
,
0010
0001
1000
0001
0010
0001
1000
0100
0020
0000
0000
0000
0032
0000
2003
0000
,
0000
0000
3200
0000
0320
0000
0032
0203
,
0000
0000
0320
0000
2030
0000
0000
0000
3001
0100
0001
0010
0100
1000
0010
0100
,
0010
1000
0100
0010
0001
0100
0001
1000
0100
1000
0010
0100
0001
1000
0001
0010
,
0001
1000
0100
0010
0100
1000
0001
0100
0010
1000
0001
0010
0001
1000
0100
0010
,
0001
1000
0100
1000
0001
0100
0010
1000
0001
0010
0001
1000
0010
0100
0010
1000
,
0100
1000
0001
0010
0100
1000
0001
0100
0001
1000
0100
0010
0001
1000
0001
0100
,
0010
1000
0100
1000
0010
0100
0001
1000
0001
0010
0001
1000
0010
0100
0010
1000
,
0100
0010
0100
1000
0001
0100
0010
1000
0001
0010
0100
1000
0001
0100
0001
1000
,
0100
0010
0001
1000
0010
0100
0001
1000
0100
1000
0010
0100
0001
1000
0001
0010
,
0100
0010
0001
1000
0100
0010
0100
1000
0001
0100
0010
1000
0001
0010
0100
1000
,
0001
0100
0001
1000
0010
0100
0010
1000
0100
0010
0001
1000
0001
0100
0001
0010
,
0100
1000
0001
0100
0001
1000
0100
0010
0001
1000
0010
0100
0010
1000
0100
0010
,
0001
1000
0001
0100
0001
0010
0100
1000
0001
0100
0001
1000
0100
0010
0001
1000
,
0010
1000
0100
1000
0010
0100
0001
1000
0001
0010
0100
1000
0001
0100
0001
1000
,
0100
0010
0001
1000
0100
1000
0010
0100
0001
1000
0001
0010
0100
0010
0001
1000
,
0100
1000
0001
0100
0010
1000
0001
0100
0010
1000
0100
1000
0001
0100
0010
1000
,
0100
0010
0100
1000
0010
0100
0010
1000
0100
0010
0001
1000
0001
0100
0001
0010
,
0100
0010
0001
1000
0100
1000
0001
0100
0010
1000
0001
0010
0100
0010
0001
1000
,
0100
0010
0001
1000
0001
0100
0001
1000
0010
0100
0010
1000
0100
0010
0001
1000
,
0001
0100
0001
0010
0100
1000
0001
0100
0001
1000
0100
0010
0001
1000
0001
0010
,
0001
1000
0010
1000
0100
1000
0010
0100
0001
1000
0001
0010
0100
0010
0001
1000
,
0001
0100
0001
0010
0100
1000
0010
0100
0010
1000
0100
0010
0001
1000
0001
0010
,
0100
1000
0001
0100
0001
1000
0100
0010
0001
1000
0010
1000
0100
1000
0001
0100
,
0001
0010
0100
1000
0001
0100
0001
0100
0002
0000
0000
0000
2003
0000
0000
0000
,
0000
3200
0320
0000
,
0032
0000
2003
0000
,
3200
0320
0032
0000
,
0203
0000
0000
0000
0000
0000
0000
0000
0310
1000
0001
0100
0001
0010
0100
1000
,
0010
0100
0010
1000
0100
0010
0001
1000
0001
0100
0001
0010
0100
1000
0001
0100
,
0001
1000
0100
1000
0010
0100
0001
1000
0001
0010
0100
0010
0001
1000
0100
1000
,
0001
0100
0010
1000
0001
0010
0001
1000
0100
0010
0001
1000
0001
0100
0001
0010
,
0100
1000
0010
0100
0010
1000
0100
0010
0002
0000
2003
0000
3020
0000
0000
0000
,
0230
0302
0023
0230
,
2300
3020
0230
0302
,
2003
0000
0000
0000
3200
0000
0000
0000
0310
0001
0100
0001
1000
0100
1000
0010
,
0100
0001
1000
0001
0010
0100
1000
0001
0100
0001
1000
0100
0010
0100
1000
0010
,
0100
0001
1000
0001
0010
0001
1000
0100
0010
0100
1000
0001
0100
0001
1000
0010
,
0100
0010
1000
0100
1000
0001
0010
0100
1000
0001
0100
0001
0010
0001
1000
0100
,
0010
0001
1000
0001
0100
0001
0010
0100
1100
0000
1010
0000
0220
0000
0000
0000
,
0000
0000
0000
0000
0000
0000
0330
0000
0100
0001
0010
0100
1000
0001
0100
0001
,
1000
0100
1000
0010
0100
0010
1000
0100
0010
0001
1000
0001
0100
0001
0010
0100
,
1000
0010
0100
0010
1000
0100
0010
0100
1000
0001
0100
0001
1000
0010
0100
0001
,
1000
0001
0010
0001
1000
0001
0100
0001
1000
0100
1000
0001
1000
0010
1000
0001
,
0100
0010
1000
0100
1000
0010
0100
0010
1000
0100
0010
0001
0100
0001
0010
0100
,
1000
0000
0000
0001
0000
0000
0100
0000
0000
0001
0000
0000
1000
0000
0000
0100
0000
0000
1000
0000
0000
0001
0000
0000
0010
0000
0000
0000
0100
0000
0000
0000
1000
0000
0000
0000
0001
0000
0000
0000
1000
0000
0000
0000
0010
0000
0000
0000
,
0200
0000
0000
0000
0000
0000
0000
0000
0000
0301
0010
0100
,
1000
0001
0100
0010
,
1000
0000
0100
0000
0010
0001
1000
0001
,
0010
0100
1000
0001
,
0100
0000
0010
0000
1000
0100
0010
0001
,
1000
0100
0010
0001
,
0100
0000
0001
0000
0010
0100
1000
0001
,
1000
0100
1000
0001
,
0100
0000
0001
0000
1000
0010
0100
0001
,
2000
0000
0000
0000
0000
0000
0000
0000
3200
0000
0000
0320
0000
0000
0032
0000
,
0203
0000
0320
2030
,
3002
0000
2003
3020
,
0230
0000
0000
0302
0000
0000
0023
0000
0230
0000
0000
2300
0000
0000
0000
0000
,
3000
0000
0110
0000
0110
0000
0110
0000
0010
1000
0100
1000
0001
0100
0010
1000
,
0001
0010
0100
0010
0001
1000
0100
0010
0100
1000
0001
0100
0001
1000
0010
0100
,
0010
1000
0100
0010
0001
0100
0001
0010
0100
1000
0001
0100
0001
1000
0100
1000
,
0010
0100
0001
1000
0001
0010
0100
0010
0001
1000
0100
1000
0010
0100
0001
0010
,
0001
1000
0100
0010
0001
1000
0001
0100
0020
0000
0000
0000
0000
0000
2030
0000
,
0000
0000
3200
0000
0320
0000
0000
0032
,
0000
0000
2003
0000
0000
0000
0000
0000
3001
0100
0001
1000
0010
0100
0010
1000
,
0100
0010
0001
1000
0001
0100
0001
0010
0100
1000
0010
0100
0010
1000
0100
1000
,
0001
0100
0010
1000
0001
0010
0001
1000
0100
0010
0001
1000
0001
0100
0001
0010
,
0100
1000
0010
0100
0010
1000
0100
1000
0001
0100
0010
1000
0001
0010
0001
1000
,
0100
0010
0001
1000
0001
0100
0001
0010
0200
0000
0000
0000
2300
0000
3002
0000
,
0000
0000
0203
0000
0320
0000
2030
3200
,
0000
0000
0320
0000
0032
0000
0000
0000
0103
0010
1000
0100
1000
0001
0100
0001
,
1000
0010
0100
0010
1000
0100
0010
0001
0100
0001
1000
0010
0100
0001
1000
0001
,
0010
0001
1000
0100
0010
0001
0100
0001
1000
0010
0100
0010
1000
0001
0100
0010
,
1000
0100
1000
0001
0100
0010
1000
0001
0010
0001
1000
0100
0010
0100
1000
0001
,
0100
0001
1000
0010
0100
0001
1000
0001
0010
0001
1000
0100
0010
0001
0100
0001
,
0010
0100
1000
0010
0100
0001
1000
0100
1000
0001
0100
0010
1000
0001
0010
0001
,
1000
0100
0010
0001
0100
0001
0010
0100
1000
0001
0100
0001
1000
0010
0100
0010
,
1000
0100
0010
0001
0100
0001
1000
0100
1000
0001
0100
0010
1000
0001
0010
0001
,
1000
0100
0010
0001
1000
0001
0100
0010
1000
0001
0010
0001
1000
0100
0010
0100
,
1000
0001
0100
0010
1000
0001
0100
0001
1000
0010
1000
0001
0100
0010
1000
0001
,
0010
0001
1000
0100
0010
0100
1000
0001
0100
0001
1000
0010
0100
0010
1000
0100
,
0010
0001
1000
0001
0100
0001
1000
0010
0100
0010
1000
0100
0010
0001
1000
0001
,
0100
0001
0010
0100
0010
0001
1000
0100
0010
0100
1000
0001
0100
0001
1000
0010
,
0100
0010
1000
0100
0010
0001
0100
0001
0010
0100
1000
0010
0100
0010
1000
0001
,
0100
0010
1000
0001
0100
0001
1000
0100
0010
0001
0100
0001
0010
0100
1000
0010
,
0100
0010
1000
0100
1000
0001
0100
0010
1000
0001
0010
0001
1000
0010
0100
0010
,
1000
0100
0010
0001
0100
0001
0010
0100
1000
0001
0100
0001
1000
0100
0010
0100
,
1000
0010
0100
0001
1000
0001
0010
0001
1000
0100
0010
0001
0100
0001
1000
0010
,
0100
0010
1000
0100
1000
0001
0100
0010
1000
0001
0010
0001
1000
0100
0010
0001
,
0100
0001
1000
0010
0100
0010
1000
0001
0100
0001
1000
0100
0010
0001
1000
0010
,
1000
0100
1000
0010
0100
0001
1000
0001
0010
0001
1000
0100
0010
0001
1000
0001
,
0100
0001
0010
0100
1000
0010
0100
0010
1000
0100
0010
0001
1000
0001
0100
0001
,
1000
0010
0100
0001
1000
0100
1000
0100
2000
0000
0000
0000
3002
0000
0000
0000
,
0000
0203
0320
0000
,
2030
0000
3200
0000
,
0320
0032
0203
0000
,
0320
0000
0000
0000
0000
0000
0000
0000
1030
0100
0010
0001
0100
0001
1000
0010
,
0100
0010
1000
0100
0010
0001
1000
0001
0100
0001
1000
0010
0100
0001
1000
0001
,
0010
0001
1000
0100
0010
0100
1000
0001
0100
0001
1000
0010
0100
0001
1000
0001
,
0010
0100
0010
0001
1000
0100
0010
0100
1000
0001
0100
0001
1000
0010
0100
0001
,
1000
0001
0010
0001
1000
0100
0010
0001
1000
0000
1010
0000
0220
0000
0000
0000
,
0000
0000
0000
0330
0202
0303
0022
0000
,
0000
0033
0220
0330
2200
0000
0000
3300
,
2002
0000
0000
3003
2020
0000
0000
3030
,
0220
0330
0202
0303
2020
0000
0000
3030
,
2200
0000
0000
0000
0000
0000
3300
0000
0100
0010
0001
0100
0001
1000
0010
0100
,
0010
1000
0100
0010
0001
1000
0001
0100
0001
0010
0100
1000
0001
1000
0100
1000
,
0001
0100
0001
0010
0100
1000
0010
0100
0010
1000
0100
1000
0001
0100
0010
1000
,
0001
0010
0001
1000
0100
0010
0001
1000
0001
0100
0001
0010
0100
1000
0010
0100
,
0001
1000
0001
0010
0001
1000
0100
0010
0001
0000
0101
0000
2020
0000
0000
0000
,
0000
0000
0000
0000
0000
0000
3030
0000
1000
0100
0010
0001
1000
0001
0100
0001
,
0010
0100
1000
0001
0100
0001
1000
0010
0100
0010
1000
0100
1000
0010
0100
0001
,
0010
0001
1000
0100
0010
0001
1000
0001
0200
0320
0230
0320
0230
0320
0230
0320
,
0230
0320
0230
0320
0230
0320
0230
0320
2030
3200
2300
3200
2300
3200
2300
3200
,
2300
3200
2300
3200
2300
3200
2300
3200
0320
0032
0023
0032
0023
0032
0023
0032
,
2003
0000
0000
3020
0000
0000
2030
0000
0000
3020
0000
0000
2030
0000
0000
3020
0000
0000
2030
0000
0000
3020
0000
0000
1030
0000
0000
0000
0100
0000
0000
0000
0010
0000
0000
0000
0001
0000
0000
0000
1000
0000
0000
0000
0001
0000
0000
0000
,
0020
0000
0230
2300
,
3001
0100
0001
0010
0100
1000
0001
0100
0001
1000
0100
1000
0010
0100
0001
1000
,
0001
0010
0001
1000
0100
0010
0001
1000
0001
0100
0001
0010
0100
1000
0001
0100
,
0001
1000
0010
0100
0010
1000
0100
0010
0001
1000
0001
0100
0001
1000
0010
1000
,
0100
1000
0001
0100
0001
0010
0100
1000
0001
0100
0001
1000
0100
0010
0100
1000
,
0001
0100
0010
1000
0001
0010
0001
1000
0100
0010
0001
1000
0001
0100
0001
1000
,
0010
0100
0010
1000
0100
1000
0001
0010
0100
1000
0001
0100
0001
1000
0100
0010
,
0001
1000
0001
0100
0001
0010
0100
1000
0010
0100
0010
1000
0100
1000
0001
0100
,
0010
1000
0001
0010
0001
1000
0100
0010
0001
1000
0001
0100
0001
0010
0100
1000
,
0001
0100
0001
1000
0100
0010
0001
1000
0001
0100
0001
0010
0100
1000
0010
0100
,
0010
1000
0100
0010
0001
1000
0001
0100
0001
1000
0010
0100
0010
1000
0100
1000
,
0001
0010
0100
1000
0001
0100
0001
1000
0100
0010
0001
1000
0010
1000
0100
1000
,
0001
0100
0001
0010
0100
1000
0010
0100
0010
1000
0100
0010
0001
1000
0001
0100
,
0001
0010
0001
1000
0100
0010
0100
1000
0001
0100
0010
1000
0010
1000
0100
1000
,
0010
0100
0001
0010
0100
1000
0001
0100
0001
1000
0010
1000
0100
1000
0010
0100
,
0001
0100
0001
0010
0100
1000
0001
0100
0001
1000
0100
0010
0100
1000
0010
0100
,
0001
1000
0100
1000
0010
0100
0001
0010
0001
0010
0100
1000
0001
0100
0001
1000
,
0100
1000
0010
0100
0001
1000
0001
0010
0001
1000
0100
1000
0010
0100
0001
1000
,
0001
0000
0000
0100
0000
0000
0010
0000
0000
1000
0000
0000
0100
0000
0000
0010
0000
0000
0001
0000
0000
1000
0000
0000
0001
0000
0000
0100
0000
0000
0001
0000
0000
0010
0000
0000
0100
0000
0000
1000
0000
0000
0001
0000
0000
0100
0000
0000
0001
0000
0000
1000
0000
0000
0100
0000
0000
0010
0000
0000
0001
0000
0000
1000
,
0000
0000
0100
0000
0000
1000
0000
0000
0001
0000
0000
0100
0000
0000
0001
0000
0000
0010
0000
0000
0100
0000
0000
1000
0000
0000
0001
0000
0000
0100
0000
0000
0001
0000
0000
1000
0000
0000
0100
0000
0000
0010
0000
0000
0100
0000
0000
1000
0000
0000
0001
0000
0000
1000
0000
0000
0010
0000
0000
0100
0000
0000
0001
0000
,
0000
0010
0000
0000
0100
0000
0000
1000
0000
0000
0001
0000
0000
0100
0000
0000
0001
0000
0000
1000
0000
0000
0100
0000
0000
0010
0000
0000
0001
0000
0000
1000
0000
0000
0001
0000
0000
0100
0000
0000
0001
0000
0000
0010
0000
0000
0100
0000
0000
1000
0000
0000
0001
0000
0000
0100
0000
0000
0001
0000
0000
0010
0000
0000
,
0100
0000
0000
1000
0000
0000
0001
0000
0000
0100
0000
0000
0010
0000
0000
1000
0000
0000
0001
0000
0000
0010
0000
0000
0100
0000
0000
1000
0000
0000
0001
0000
0000
0010
0000
0000
0100
0000
0000
1000
0000
0000
0001
0000
0000
0100
0000
0000
0001
0000
0000
1000
0000
0000
0100
0000
0000
0010
0000
0000
0001
0000
0000
0000
,
2000
0000
0000
3002
0000
0203
0000
0320
,
2030
0000
3200
0000
,
0320
0030
0002
0003
2000
3000
0200
0300
2000
3000
0002
0003
,
0200
0000
0000
0000
0300
0000
0000
0000
0002
0000
0000
0000
0003
0000
0000
0000
0020
0000
0000
0000
0030
0000
0000
0000
0100
0000
0000
0000
0000
0000
1000
0000
0000
0000
0000
0000
0001
0000
0000
0100
0000
0000
0001
0000
0000
0010
0000
0000
,
0200
2300
3000
0002
0203
0300
0020
2030
,
3000
0200
0320
0030
0002
0003
2000
3200
,
0300
0020
0032
0003
2000
3020
0030
0200
,
0302
0003
2000
3000
0200
0000
0000
0000
,
0000
0300
0020
0030
0002
0000
0000
0003
,
0200
0000
0000
0300
0020
0000
0000
0000
,
0000
0030
2000
3200
0320
0030
0000
0000
,
0001
1000
0100
1000
0010
0100
0001
1000
0002
0000
0203
0000
0300
0000
0020
0000
,
2030
3000
0002
0023
0030
0200
2300
3000
,
0002
0003
2000
3200
0300
0020
0032
0003
,
2000
3020
0030
0200
0302
0003
2000
3000
,
0001
0000
0000
0100
0000
0000
0001
0000
0000
1000
0000
0000
0100
0000
0000
0010
0000
0000
0001
0000
0000
1000
0000
0000
0001
0000
0000
0100
0000
0000
0010
0000
0000
1000
0000
0000
0100
0000
0000
0010
0000
0000
0100
0000
0000
1000
0000
0000
0001
0000
0000
0100
0000
0000
0001
0000
0000
1000
0000
0000
0100
0000
0000
0010
,
0000
0000
0100
0000
0000
1000
0000
0000
0001
0000
0000
0100
0000
0000
0001
0000
0000
1000
0000
0000
0010
0000
0000
0100
0000
0000
0010
0000
0000
1000
0000
0000
0100
0000
0000
0010
0000
0000
0001
0000
0000
1000
0000
0000
0001
0000
0000
0100
0000
0000
0001
0000
0000
0010
0000
0000
0100
0000
0000
1000
0000
0000
0001
0000
,
0000
0100
0000
0000
0001
0000
0000
1000
0000
0000
0100
0000
0000
0010
0000
0000
0100
0000
0000
1000
0000
0000
0001
0000
0000
0100
0000
0000
0001
0000
0000
1000
0000
0000
0100
0000
0000
0010
0000
0000
0001
0000
0000
1000
0000
0000
0010
0000
0000
1000
0000
0000
0100
0000
0000
1000
0000
0000
0001
0000
0000
0100
0000
0000
,
0001
0000
0000
0010
0000
0000
0100
0000
0000
1000
0000
0000
0001
0000
0000
1000
0000
0000
0100
0000
0000
0010
0000
0000
0100
0000
0000
1000
0000
0000
0001
0000
0000
0100
0000
0000
0001
0000
0000
1000
0000
0000
0010
0000
0000
0100
0000
0000
0001
0000
0000
1000
0000
0000
0001
0000
0000
0010
0000
0000
0100
0000
0000
0000
,
2000
3002
0000
0203
,
0320
0000
2030
0000
,
3200
0000
0320
0032
,
2003
0000
3002
0000
,
0103
0010
1000
0100
1000
0001
0100
0001
0010
0100
1000
0001
0100
0001
1000
0100
,
0010
0100
1000
0010
0100
0001
1000
0001
0010
0001
1000
0100
0010
0100
1000
0001
,
0100
0001
1000
0010
0100
0010
1000
0100
1000
0001
0010
0100
1000
0001
0100
0001
,
1000
0100
0010
0001
1000
0001
0100
0001
0010
0100
1000
0010
0100
0001
1000
0100
,
0010
0011
0202
0000
0000
0000
0000
0303
,
0020
2030
0000
3200
,
0320
0000
0032
0000
,
2003
0000
3020
0230
,
0302
0000
0023
0000
,
0130
1000
0001
0100
0001
1000
0010
0100
0010
1000
0100
0010
0001
1000
0001
0100
,
0001
1000
0010
1000
0100
1000
0010
0100
0001
0010
0100
1000
0001
0100
0001
1000
,
0100
0010
0001
1000
0001
0100
0001
0010
0100
1000
0010
0100
0010
1000
0100
0010
,
0001
1000
0001
0100
0001
1000
0010
0100
0010
1000
0100
1000
0001
0010
0100
1000
,
0001
0101
2020
0000
0000
0000
0000
3030
,
0100
0001
1000
0100
1000
0001
0100
0010
1000
0001
0010
0100
1000
0001
0100
0001
,
1000
0100
0010
0100
1000
0001
0100
0010
1000
0001
0010
0001
1000
0100
0010
0100
,
1000
0010
0100
0001
1000
0001
0010
0100
1000
0100
0010
0100
1000
0001
0100
0001
,
1000
0010
0100
0001
1000
0001
0010
0001
1000
0100
0010
0100
1000
0010
0100
0001
,
1000
0001
0010
0001
1000
0100
0010
0001
0100
0001
0010
0100
1000
0010
0100
0001
,
1000
0001
0100
0001
0010
0100
2000
0000
0000
0000
0000
0000
,
0000
0000
0000
0000
3001
0100
0001
1000
0100
0000
0000
0000
0000
0000
0000
0000
,
0000
0000
0000
0000
,
MMMM
0000
0000
0000
;
