#TITLE:Uchuu Renkounen;
#SUBTITLE:Tunna Kanojyo Derena Kanojyo OP theme;
#ARTIST:YURIA;
#TITLETRANSLIT:;
#SUBTITLETRANSLIT:;
#ARTISTTRANSLIT:;
#CREDIT:ALICE_;
#BANNER:Uchuu Renkounen.png;
#BACKGROUND:Uchuu Renkounen.jpg;
#LYRICSPATH:;
#CDTITLE:cdtitle.png;
#MUSIC:Uchuu Renkounen.mp3;
#OFFSET:0.690;
#SAMPLESTART:30.960;
#SAMPLELENGTH:12.000;
#SELECTABLE:YES;
#BPMS:0.000=165.000;
#STOPS:;
#BGCHANGES:1.833=Uchuu Renkounen.avi=1.000=1=0=1,
99999=-nosongbg-=1.000=0=0=0 // don't automatically add -songbackground-
;
// cache tags:
#FIRSTBEAT:4.000;
#LASTBEAT:330.000;
#SONGFILENAME:Songs/alice 4th complete step/Uchuu Renkounen/Uchuu Renkounen.sm;
#HASMUSIC:1;
#HASBANNER:1;
#MUSICLENGTH:120.215;
// end cache tags

//---------------dance-single - ----------------
#NOTES:
     dance-single:
     :
     Hard:
     8:
     0.727,0.753,0.549,0.366,0.008,502.000,66.000,44.000,0.000,0.000:
0000
0000
0000
0000
,
0000
0000
0000
0000
,
0100
1000
0100
1000
0010
0100
0010
1000
,
0000
0001
0100
0001
0010
0100
0010
0001
,
1000
0100
1000
0000
0001
0100
0001
0010
,
0000
0100
1000
0010
0000
1000
0001
0000
,
2100
0000
3010
0000
0102
0000
0013
0100
,
0000
1000
0001
0100
0000
0010
1000
0001
,
1000
0100
1000
0100
0010
0100
1000
0002
,
0003
0101
1001
0000
0000
0000
0110
0000
,
1000
0100
1000
0100
0010
0001
0100
0010
,
1000
0001
0100
0001
1000
0100
1000
0010
,
0100
0000
1001
0000
0010
1000
0001
0000
,
0100
1000
0100
0001
0010
0100
1000
0000
,
0001
0100
0001
0100
0010
1000
0100
0010
,
0001
1000
0100
1000
0001
0100
1000
0020
,
0000
0030
0001
0100
0000
0010
1000
0002
,
0000
1000
1003
0010
0100
0001
2002
3003
,
0120
0000
1030
0000
0000
0001
0100
0020
,
0000
1030
0001
0100
0010
1000
1100
0000
,
1002
0000
0013
0000
0000
0100
1000
0020
,
0000
0130
0001
1000
0001
0100
1001
0000
,
1010
0110
1010
1100
,
0010
0001
1000
0001
0100
0001
0010
0000
,
0110
0011
0101
0110
,
0010
1000
0001
1000
0100
1000
0010
0100
,
2001
0000
3100
0000
0010
0001
1000
0010
,
0000
0100
1000
0100
0001
0010
0100
0000
,
1002
0000
0103
0000
0010
1000
0001
0010
,
0000
0100
0001
0100
1000
0010
0100
0000
,
1001
1100
1001
0101
,
0010
1000
0001
1000
0100
1000
0010
0000
,
0202
0303
1001
0000
2200
3300
1001
2000
,
0000
3001
0010
0001
0200
0000
0301
1000
,
0020
0000
0130
0000
0001
1000
0001
2000
,
0000
3100
0010
0000
0100
1000
0001
0000
,
0021
0000
0130
0000
1000
0001
1000
0002
,
0000
0103
0010
0000
0100
0001
1000
0000
,
1001
0000
1100
0001
0100
1000
0100
0001
,
1000
0000
0201
0300
0001
0000
2100
3010
,
0000
1001
1001
0000
1010
1010
0000
0101
,
0000
0000
0110
0000
0110
0000
0110
0000
0000
0000
0010
1000
0001
0000
0000
0000
,
0101
0000
1100
0000
0011
0000
0100
1000
,
0001
1000
0010
0100
0001
1000
2200
3300
,
0001
0010
0001
0010
1000
0010
0001
0100
,
0000
0010
1000
0002
0000
0103
1010
0000
,
0001
0100
0001
0100
1000
0100
0001
2000
,
0000
0100
0000
3010
0000
0000
0000
0100
,
0001
1001
0000
0100
1000
1001
0000
0010
,
1000
0100
0010
0002
0000
0100
1003
0100
,
1100
0000
0101
0000
1010
0000
0100
0001
,
1000
0001
0010
0100
1000
0001
0202
0303
,
1000
0010
1000
0010
0001
0010
1000
0100
,
0000
0010
0001
2000
0000
3010
0101
0000
,
1000
0010
1000
0010
0001
0010
1000
0100
,
0000
0010
0001
0010
0000
0001
0100
0001
,
1000
0100
0010
0001
1000
0100
0010
0001
,
0000
1000
0010
0010
0100
0100
0001
1000
,
0010
0001
0010
1000
0100
1000
0110
0000
,
1002
0000
0103
1000
0100
0010
1000
0100
,
0000
0010
0001
1001
0000
0100
0010
0100
,
0001
0010
0100
1000
0001
0010
0100
2000
,
0000
0000
0001
0000
3010
0000
0000
0000
0000
0000
0010
1000
0001
0000
0000
0000
,
1000
0100
1000
0100
0010
0001
0100
0010
,
1000
0001
0100
0001
1000
0100
1000
0010
,
0100
0000
1001
0000
0010
1000
0001
0000
,
0100
1000
0100
0001
0010
0100
1000
0000
,
0001
0100
0001
0100
0010
1000
0100
0010
,
0001
1000
0100
1000
0001
0100
1000
0020
,
0000
0030
0001
0100
0000
0010
1000
0002
,
0000
1000
1003
0100
0001
1000
0101
0000
,
0001
0100
0001
0100
0010
1000
0100
0020
,
0000
0031
0100
0001
1000
0100
0001
0100
,
2000
0000
3010
0100
0010
1000
0001
0010
,
0000
0100
1000
1001
0000
0100
0010
0000
,
1000
0100
1000
0100
0010
0001
0100
0010
,
0000
1000
0100
0001
1000
0100
0001
0020
,
0000
0030
0001
0100
0000
0010
1000
0002
,
0000
0100
0103
0010
0001
1000
0001
1000
,
0120
0100
0100
0130
,
1000
0001
0100
1000
0001
0010
1000
0100
,
0000
0110
1100
0000
0110
0011
0000
2002
,
0000
3003
0000
0000
;

//---------------dance-single - Copied from----------------
#NOTES:
     dance-single:
     Copied from:
     Challenge:
     15:
     1.000,1.000,1.000,1.000,0.512,684.000,339.000,171.000,0.000,55.000:
0000
0000
0000
0000
,
1000
0000
0100
0000
0010
0000
0001
0000
0010
0000
0100
0000
1000
0000
0010
0000
0001
0000
0100
0000
1000
0000
0010
0000
0001
0000
0100
0000
0010
0000
1000
0000
0000
0000
0000
0000
0002
0000
0000
0000
0000
0000
0000
0000
0000
0003
0000
0000
,
1010
0100
0010
1000
0001
0010
0001
0100
,
0000
0010
1001
0100
0001
0010
0001
0100
,
1002
0010
1000
0103
2010
0001
0100
3020
,
0000
0030
0100
0000
0001
0000
0200
0000
0000
0300
1000
0000
0020
0000
0000
0000
,
1032
0000
1103
0000
2001
0010
3100
0021
,
0000
0000
0130
0000
0001
0000
2010
0000
0001
0000
3100
0000
0010
0010
1000
0000
,
0101
0000
0010
0000
1001
0000
0100
1100
0010
0000
0101
0000
1100
0000
2020
0000
,
3030
0000
0110
0000
0110
0000
0000
0000
0000
0000
0100
0100
1001
0000
0010
0011
,
2100
0000
0010
3000
0021
0030
1200
0000
0010
0300
1002
0000
0100
0003
2001
0000
,
0010
0000
0100
0000
3011
0000
1002
0000
0100
1000
0113
0000
1200
0300
0012
0000
,
1100
0003
0010
0000
2101
3000
0020
0100
1030
0000
0201
0300
2010
3000
2002
0000
,
3000
0000
1103
0000
0110
0000
1020
0000
0100
0001
1030
0000
1001
0000
0100
1100
,
0012
0000
0100
0003
1200
0300
0021
1000
0100
0030
2001
0000
0100
3000
0012
0000
,
1000
0000
0100
0000
1013
0000
2100
0000
0001
0010
3101
0000
0220
0000
0330
0000
,
2100
0000
3001
0000
1010
0000
0100
0011
1000
0000
0110
0000
0101
0000
1021
0000
,
0030
0000
1001
0000
1001
0000
0100
0010
0101
1000
0010
0100
1001
0010
0001
0100
,
2020
0000
0000
0000
3131
0000
1000
0010
0100
0000
0110
0000
0001
0000
2002
0000
,
0000
0000
3103
0000
0011
0000
1000
0000
0101
1000
0010
0000
1001
0000
0100
0000
,
0202
0000
0000
0000
1313
0000
0001
0010
0100
0000
1100
0000
0010
0000
2002
0000
,
0000
0000
3013
0000
0101
0000
1000
0010
0100
0010
1000
0000
0011
0000
0100
0110
,
1001
0000
0000
0000
0101
0000
1000
0000
0011
1000
0100
0000
1001
0000
0010
0000
,
1100
0000
0100
0000
1001
0000
0100
0000
1100
0001
0010
0000
1001
0000
0000
0000
,
2010
0000
0100
0000
3101
0000
0000
0100
0001
0010
0001
0000
1001
0000
0000
0000
,
0102
0000
0000
0000
0000
0000
0000
0000
0000
0000
0000
0000
1013
0000
0000
0000
0000
0000
0000
0000
0000
0000
0000
0000
2100
0000
0000
0000
0000
0000
3010
0000
0001
0000
0100
0000
0001
0000
0000
0000
0000
0000
0110
0000
0000
1000
0000
0000
,
0022
0000
0000
0000
1133
0000
0001
1000
0010
0000
0110
0000
1000
0000
2002
0000
,
0000
0000
3013
0000
1100
0000
0001
0000
1010
0100
0001
0000
0110
0000
1000
0000
,
2200
0000
0000
0000
3311
0000
0100
1000
0010
0000
0101
0000
0010
0000
2002
0000
,
0000
0000
3103
0000
1010
0000
0001
1000
0010
1000
0001
0000
0011
0000
1000
1001
,
0220
0000
0330
0000
0101
0000
0000
1000
0010
0100
0010
0000
1001
0000
0100
0000
,
1010
0000
1000
0000
0110
0000
0000
0000
1000
0001
0100
0000
1010
0000
0000
0000
,
0120
0000
0000
0000
1031
0000
0000
0000
0201
0000
0010
0000
0001
0300
2002
0000
,
0000
0000
0010
3003
0110
0000
1000
0000
0012
0000
0103
1000
0010
0000
0110
0000
,
1002
0000
0000
0003
0101
0000
0000
0000
1000
0000
0011
0000
1000
0000
0220
0000
,
0000
0000
1030
0000
0311
0000
1000
0001
0100
0001
1000
0000
0110
0000
0001
0000
,
2001
0000
0000
3000
1100
0000
0000
0000
0001
0000
0110
0000
0001
0000
2200
0000
,
0000
0000
0310
0000
3101
0000
0020
1000
0100
0000
0130
0001
1001
0000
0010
0000
,
2200
0000
0300
3000
0202
0000
0310
0003
1010
0000
0200
0000
1302
0000
0023
0000
,
0100
0000
0030
0000
2002
0000
0000
3003
1010
0000
0001
0000
2100
0000
0020
0000
,
3000
0030
0101
0000
1101
0000
0000
0000
1010
0000
1011
0000
0000
0000
2112
0000
,
0000
0000
3113
0000
1001
0000
1111
0000
0000
0000
0110
0100
2002
0000
3003
0000
,
0021
0000
0130
0000
1020
0000
0130
0100
1001
0000
1100
0000
0010
0000
1002
0000
,
0000
0000
1003
0000
0110
0000
0010
1000
1001
0000
0011
0000
2200
0000
3300
0000
,
2001
0000
0000
0000
3010
0000
0100
0001
1000
0000
0110
0000
0010
0000
1002
0000
,
0000
0000
0103
0000
0011
0000
2000
0000
0010
0001
3110
0000
1001
0000
0101
0100
,
1020
0000
0000
0000
0131
0000
1000
0011
1100
0000
0110
0000
0010
0000
1002
0000
,
0000
0000
0103
0000
1010
0000
0011
0000
0100
1010
0100
0000
1001
0000
0010
0000
,
1100
0000
0000
0000
0000
0000
1000
0000
0100
0000
0010
0000
0202
0000
0000
0303
0000
0000
1100
0000
0000
1000
0000
0000
0011
0000
0000
0000
0000
0000
0001
0000
0010
0000
0100
0000
1010
0000
0000
0000
0000
0000
2002
0000
0000
0000
0000
0000
,
0000
3003
0110
0000
1101
0000
0011
0000
0101
1000
0010
0100
1001
0000
0101
1000
,
1200
0000
0310
0000
0201
0000
1300
1000
0110
0000
1001
0000
0010
0000
2100
0000
,
0000
0000
3101
0000
0110
0000
1000
0001
0011
0000
1100
0000
2020
0000
3030
0000
,
1002
0000
0000
0000
0103
0000
0010
1000
0001
0000
0110
0000
0100
0000
2001
0000
,
0000
3000
0010
0000
0101
0000
0012
0000
0100
1000
0113
0000
1001
0000
1010
0010
,
0102
0000
0000
0000
1013
0000
0001
1100
0011
0000
0110
0000
0100
0000
2001
0000
,
0000
0000
3010
0000
0101
0000
1100
0000
0010
0101
0010
0000
1001
0000
0100
0000
,
0011
0000
1010
0000
1100
0000
0101
1000
0011
1000
0110
0000
1100
0000
1021
0000
,
0000
0000
0130
0000
1010
0000
1100
0100
0001
1000
0011
0000
0101
1000
0010
1000
,
0110
0000
1000
1100
0001
0000
0110
0000
1000
1100
0001
0000
0110
0000
0001
0101
,
2010
0000
0000
0000
3101
0000
0010
1100
0001
0000
0110
0000
1100
0000
1002
0000
,
0010
0000
0100
0000
0010
0000
1103
0000
1000
0011
0100
0000
1001
0000
0010
0010
,
0101
0000
1100
1000
0011
0000
0101
0001
1010
0000
0100
0000
0001
0000
2002
0000
,
0000
0000
3113
0000
1111
0000
0000
0000
0000
0000
0110
0110
2002
0000
0000
3003
,
2100
0000
0010
3000
0021
0030
1200
0000
0010
0300
1002
0000
0100
0003
2001
0000
,
0010
0000
0100
0000
3011
0000
1001
0000
0100
1000
0110
0000
2002
0000
3003
0000
,
1100
0000
0001
0000
0110
0000
2001
0100
3010
0000
0101
0000
1100
0000
2002
0000
,
3000
0000
1103
0000
0110
0000
2010
0000
0100
0001
3010
0000
1001
0000
0010
0110
,
1002
0000
0010
0003
1200
0300
0012
1000
0100
0003
2010
0000
0100
3000
1002
0000
,
0000
0000
0100
0000
1013
0000
1100
0000
0010
0100
1001
0000
0220
0000
0330
0000
,
2100
0000
3001
0000
1010
0000
0100
0011
1000
0000
0110
0000
0101
0000
1021
0000
,
0030
0000
1001
0000
1010
0000
0100
0010
1001
0010
0100
1000
0201
0010
1300
0010
,
2001
0000
0100
3000
0021
0030
0100
1000
0100
0000
1010
0000
0001
0000
1002
0000
,
0000
0000
0103
0000
1010
0000
1002
0000
0100
1000
0113
0000
0220
0000
0330
0000
,
0011
0000
0100
0000
1012
0003
0100
1000
0001
0000
1001
0000
0100
0000
2020
0000
,
0030
0000
3011
0000
0110
0000
1002
0000
0100
1000
0103
0000
1001
0000
0010
0011
,
2100
0000
0010
3000
0021
0030
1200
0001
0010
0300
1002
0000
0010
0003
2100
0000
,
0001
0000
0010
0000
3101
0000
0011
0000
1000
0100
1010
0000
2002
0000
0000
3003
,
0101
0000
1000
0000
0011
0000
0100
1100
0011
0000
0110
0010
1001
0000
0202
0000
,
0303
0000
1001
0000
1010
0000
0101
0010
1001
0010
0100
1000
0101
0010
1001
0100
,
0020
0000
0100
0000
1000
0000
0100
0030
,
0110
0000
0101
1010
0000
1100
0011
0000
0101
1000
0010
1000
0011
0100
0011
1100
,
0000
0000
0000
0000
0000
0000
0000
0000
2002
3003
0000
0000
0000
0000
0000
0000
2022
3033
0000
0000
0000
0000
0000
0000
0000
0000
0000
0000
0000
0000
0000
0000
2002
3003
0000
0000
0000
0000
0000
0000
2202
3303
0000
0000
0000
0000
0000
0000
0000
0000
0000
0000
0000
0000
0000
0000
2222
3003
0000
0000
0000
0000
0000
0000
,
0000
0000
0330
0000
;

//---------------dance-single - Copied from----------------
#NOTES:
     dance-single:
     Copied from:
     Medium:
     6:
     0.578,0.582,0.316,0.299,0.000,412.000,38.000,36.000,0.000,0.000:
0000
0000
0000
0000
,
0000
0000
0000
0000
,
0001
0100
0001
0100
0001
0000
1000
0100
,
0000
1000
0010
0100
0001
0100
0010
0000
,
1000
0000
1000
0100
0010
0000
0001
0100
,
0000
0010
1000
0001
0000
0100
0010
0000
,
2020
0000
3030
0000
0022
0000
0033
2002
,
0000
0000
3003
0220
0000
0000
0000
0330
,
1000
0001
1000
0001
0100
0010
1000
0002
,
0000
0003
0000
0101
,
2000
0000
3100
1000
0001
0100
1000
0100
,
0000
0010
1000
0001
0000
0010
0110
0000
,
1001
0000
0100
0001
1000
0100
0001
0100
,
0000
1000
0010
0200
0000
0301
0010
0000
,
0002
0000
0103
0001
1000
0100
0001
0100
,
0000
0010
0001
1000
0000
0010
0110
0000
,
0001
0000
0010
0100
1000
0100
0010
0001
,
0000
1000
0100
1000
0001
0010
0001
0100
,
0010
0000
1000
0000
0010
0100
0001
0020
,
0000
0000
0130
0000
1000
0001
0100
0000
,
1000
0000
0001
0000
0100
0010
1000
0200
,
0000
0000
0310
0000
0001
1000
0010
0000
,
0001
0100
0001
1000
,
0010
0000
1000
0000
0001
0100
1000
0000
,
1010
0001
0011
1000
,
0110
0000
0000
1000
0001
0000
0100
0000
,
0001
0000
1000
0000
0100
0010
0001
2000
,
0000
0000
3100
0000
1000
0010
1000
0000
,
0100
0000
0001
0000
0010
0100
1000
0020
,
0000
0000
0130
0000
0001
1000
0100
0000
,
0001
0010
1000
0100
,
0001
0000
1000
0000
0001
0010
1000
0000
,
0110
0000
1000
0000
0011
0000
1000
0010
,
0000
0100
0001
0100
1000
0100
0010
0000
,
2000
0000
3100
0000
0000
0101
0000
0102
,
0000
1003
0000
0000
,
0002
0000
0103
0000
0000
1100
0000
2100
,
0000
0000
3001
0000
0100
0010
1000
0100
,
0001
0100
1000
0100
,
1000
0010
0001
0010
,
0000
1000
0100
0000
1000
0100
0000
1010
,
0000
0100
0001
0020
0000
0000
0130
0000
,
0001
0010
0100
1000
0001
0010
0001
0100
,
0000
0000
1010
0000
0100
0001
1000
0000
,
0010
0010
0100
0001
,
1000
0000
0100
0000
1000
0001
0100
0010
,
1000
0101
1000
0010
,
0100
0000
0100
0000
0001
1000
0100
0000
,
0012
0000
1003
0000
2010
0000
3001
0010
,
0000
0100
1000
0100
0000
0000
1001
0000
,
1000
0010
0100
0001
1000
0010
1000
0100
,
0000
0000
1001
0000
0010
0001
0100
0000
,
0001
0001
1000
0010
,
0100
0000
1000
0000
0100
0010
1000
0001
,
0100
0011
0100
1000
,
0010
0000
0010
0000
1000
0001
0100
0000
,
0001
0010
0001
0010
0001
1000
0001
1000
,
0000
1000
0010
0001
0010
0000
0100
0001
,
2000
0000
3000
0020
0000
0030
0200
0300
,
1001
0000
0011
0000
1000
0001
0010
0000
,
0100
0000
1000
0000
0001
0100
0010
0000
,
1000
0100
0001
0100
1000
0100
0100
0010
,
0000
0001
1000
0000
0000
0000
1001
0000
,
0200
0000
0310
1000
0001
0100
1000
0100
,
0000
0010
1000
0001
0000
1000
1100
0000
,
1001
0000
0100
0001
1000
0010
0001
0010
,
0000
1000
0001
0200
0000
0301
1000
0000
,
0020
0000
0130
0001
1000
0100
0001
0100
,
0000
1000
0001
0010
0000
0001
0101
0000
,
0020
0000
0031
0100
0001
1000
0100
1000
,
0000
0010
0100
0001
1000
0100
0010
0001
,
2000
0000
3010
0100
0001
0010
0001
1000
,
0000
0010
0100
0010
0000
1000
1001
0000
,
0020
0000
0031
0100
0010
1000
0100
0010
,
0000
0100
1000
0002
0003
0100
0010
0000
,
1001
0000
0100
1000
0001
0100
0010
1000
,
0000
0001
0100
0001
0000
1000
1010
0000
,
0110
0000
1100
0000
0110
0000
0010
0001
,
0000
0100
0010
0100
1000
0100
0001
1000
,
0002
0000
0000
0000
,
0013
0010
0100
0010
,
0000
1000
0100
0000
0001
0100
0000
2002
,
0000
3003
0000
0000
;
