#TITLE:Szamar Madar;
#SUBTITLE:;
#ARTIST:Venetian Snares;
#TITLETRANSLIT:;
#SUBTITLETRANSLIT:;
#ARTISTTRANSLIT:;
#CREDIT:ChaosUnown;
#BANNER:szamar-bn.png;
#BACKGROUND:szamar.png;
#LYRICSPATH:;
#CDTITLE:chaosunownCD.png;
#MUSIC:szamar.ogg;
#OFFSET:0.173;
#SAMPLESTART:45.340;
#SAMPLELENGTH:12.000;
#SELECTABLE:YES;
#BPMS:0.000=174.000,369.063=87.000;
#STOPS:;
#BGCHANGES:;
// cache tags:
#FIRSTBEAT:51.000;
#LASTBEAT:371.000;
#SONGFILENAME:Songs/Index Tournament 1/(ChaosUnown) Szamar Madar/szamar.sm;
#HASMUSIC:1;
#HASBANNER:1;
#MUSICLENGTH:130.217;
// end cache tags

//---------------dance-single - P. Mason----------------
#NOTES:
     dance-single:
     P. Mason:
     Challenge:
     13:
     0.866,1.000,0.476,0.154,0.768,703.000,62.000,20.000,66.000,0.000:

0000
0000
0000
0000
,
0000
0000
0000
0000
,
0000
0000
0000
0000
,
0000
0000
0000
0000
,
0000
0000
0000
0000
,
0000
0000
0000
0000
,
0000
0000
0000
0000
,
0000
0000
0000
0000
,
0000
0000
0000
0000
,
0000
0000
0000
0000
,
0000
0000
0000
0000
,
0000
0000
0000
0000
,
0000
0000
0000
0001
,
1000
0000
0010
1000
0100
0010
0002
0000
,
2003
0000
0000
0000
,
0000
0000
3000
0002
0203
0000
0320
0000
,
0000
0000
0000
0000
,
0030
2000
3002
0000
,
0000
0000
0000
0003
,
0020
0000
0230
0000
,
2300
0000
0000
0000
3002
0000
1003
0010
,
0110
0000
0100
0001
1000
0001
0100
0000
0001
0000
0010
0000
0110
0000
0000
0000
,
0000
0000
0000
0000
0000
0000
0100
0000
0000
0000
0000
0000
110M
0000
0000
0000
0000
0000
1000
0000
0001
0000
1000
0000
0001
0000
0000
0000
0000
0000
0100
0000
0000
0000
0000
0000
0101
0000
0000
0000
0000
0000
0001
0000
0000
1000
0000
0000
,
0100
0000
0000
1000
0000
0000
0001
0000
0000
0000
0000
0000
1001
0000
0000
0000
0000
0000
1000
0000
0010
0000
1000
0000
0010
0000
0000
0000
0000
0000
0100
0000
0000
0001
0000
0000
0100
0000
0000
0001
0000
0000
0100
0000
0000
0001
0000
0000
,
1000
0000
0000
0000
0000
0000
0100
0000
0010
0000
0100
0000
0010
0000
0000
0000
0000
0000
0001
0000
0000
0000
0000
0000
1001
0000
0000
0000
0000
0000
1000
0000
0000
0010
0000
0000
0100
0000
0000
0010
0000
0000
1000
0000
0000
0000
0000
0000
,
0001
0000
0000
0000
0000
0000
0010
0000
0000
0000
0000
0000
0100
0000
0000
1000
0000
0000
0100
0000
0000
1000
0000
0000
0001
0000
0000
0000
0000
0000
0000
0000
0000
0000
0000
0000
M101
0000
0000
0000
0000
0000
0100
0000
0001
0000
1000
0000
,
0001
0000
0001
1000
0010
0000
0100
0000
0010
0100
0001
0000
1001
0000
1000
0100
,
1000
0001
1000
0001
1000
0001
0010
0000
011M
0000
0400
0000
1300
0000
0001
0000
,
0101
0000
0100
0010
1000
0001
0100
0000
0001
0000
0010
0000
0110
0000
0000
0000
,
0110
0000
0000
0000
0000
0000
0000
0000
0000
0000
0000
0000
1M01
0000
0000
0000
0000
0000
0001
0000
1000
0000
0100
0000
1000
0000
0000
0000
0000
0000
0100
0000
0000
0000
0000
0000
0110
0000
0000
0000
0000
0000
0010
0000
0000
0001
0000
0000
,
0010
0001
1000
0000
0000
0000
0010
0000
1010
0000
1000
0001
1000
0001
0010
0000
,
0110
0000
0000
0100
1000
0100
1000
0000
0000
0001
0000
0000
1010
0000
0000
0001
0000
0000
1010
0000
0000
0001
1000
0001
,
1000
0000
0000
0001
0000
0000
0010
0000
0000
0000
0000
0000
0000
0000
0000
0000
0000
0000
0100
0000
0000
0000
0000
0000
0000
0000
0000
0000
0000
0000
0100
0000
0000
0000
0000
0000
11M0
0000
0000
0000
0000
0000
1000
0000
0001
0000
0100
0000
,
0001
0000
1000
0001
0010
0000
0100
0000
0100
0000
1000
0001
0100
0000
0001
1000
,
0200
0000
0000
0000
0000
0000
0000
0000
0000
0000
0000
0000
0000
0000
0000
0000
0000
0000
0000
0000
0000
0000
M000
M000
M310
0000
0000
0000
0001
0000
0000
0000
,
1000
0000
1000
0000
0010
0100
0001
0000
1000
0100
1000
0000
1000
0000
0001
0000
,
0101
0000
0000
0000
0000
0000
0100
0000
0000
0010
0000
0000
0100
0000
0000
0010
0000
0000
1000
0000
0000
0000
0000
0000
0001
0000
0000
0000
0000
0000
0010
0000
0100
0000
0010
0000
0100
0000
0000
0000
0000
0000
1000
0000
0000
0000
0000
0000
,
0001
0000
0100
0000
0100
0000
0001
0000
1000
0001
0100
0001
10M0
0000
0001
1000
,
0100
0000
001M
0000
MM11
0000
0001
0000
1000
0000
0010
0000
0100
0001
0100
0000
,
0001
0000
1000
0100
1000
0001
0100
0001
1000
0000
0100
0010
0100
0010
0001
0000
,
1000
0000
0000
0000
0000
0000
0001
0000
0100
0000
0001
0000
0100
0000
0000
0000
0000
0000
0010
0000
0000
0000
0000
0000
0100
0000
0000
0000
0000
0000
0001
0000
0000
0000
0000
0000
0001
0000
0000
1000
0000
0000
0010
0000
0000
0000
0000
0000
,
0010
0000
0100
0001
10M0
0001
1000
0100
1000
0000
00M1
0000
0101
0000
0100
0000
,
0010
0000
0010
0000
1000
0000
0001
0000
0010
0001
1000
0001
0100
0000
0000
0000
,
0001
0000
0000
0010
0000
0000
0100
0000
0000
1000
0000
0000
0001
0000
0000
0000
0000
0000
0001
0000
0000
0000
0000
0000
0100
0000
0000
0000
0000
0000
0010
0000
1000
0000
0010
0000
1000
0000
0000
0000
0000
0000
0001
0000
0000
0000
0000
0000
,
0010
0000
0000
0000
0000
0000
0010
0000
0000
0000
0000
0000
0100
0000
0000
1000
0000
0000
0001
0000
0000
1000
0000
0000
0400
0000
4000
0000
0000
0000
0000
0000
0000
0000
0300
0000
30M1
0000
0000
0000
0000
0000
00M1
0000
0000
0000
0000
0000
,
1000
0000
00M1
0000
0100
0000
0010
0000
1000
0000
1000
0000
0100
0010
0001
1000
,
0010
0000
0000
0100
0001
0000
0010
0000
0110
0000
0100
1000
0100
1000
0001
0000
,
0100
0000
0000
0001
1000
0001
0100
0000
0000
0010
0000
0000
1001
0000
0000
0000
0000
0000
1001
0000
0000
0000
0000
0000
,
1001
0000
0000
0000
0000
0000
0000
0000
0000
0000
0000
0000
1001
0000
0000
0000
0000
0000
0000
0000
0000
0000
0000
0000
0000
0000
0000
0000
0000
0000
1000
0000
0100
0000
1000
0000
0100
0000
0000
0000
0000
0000
0010
0000
0000
0001
0000
0000
,
1000
0000
0010
0000
0100
0001
1000
0000
0100
0010
0001
0000
1000
0000
0010
0000
,
0110
0000
0100
0001
1000
0001
0010
0000
0100
0000
1000
0000
1001
0000
0001
0010
,
0001
0000
0000
1000
0000
0000
0001
0000
0000
0000
0000
0000
0101
0000
0000
0000
0000
0000
0100
0000
0010
0000
0100
0000
0010
0000
0000
0000
0000
0000
1000
0000
0000
0001
0000
0000
1000
0000
0000
0001
0000
0000
1000
0000
0000
0001
0000
0000
,
0010
0000
0000
0000
0000
0000
0100
0000
1000
0000
0100
0000
1000
0000
0000
0000
0000
0000
0000
0000
0000
0001
0000
0000
0100
0000
0000
0001
0000
0000
1000
0000
0000
0000
0000
0000
0000
0000
0000
0100
0000
0000
0010
0000
0000
0100
0000
0000
,
0000
1000
0001
1000
0010
0000
0100
0000
0100
0000
0001
0000
1MM1
0000
0000
0000
,
2000
0000
3200
0000
,
0310
0010
0010
0010
0010
0040
0031
1000
,
1100
0000
1000
0000
0001
0100
0001
0000
1000
0100
0010
0001
1000
0000
0001
0000
,
0100
0000
0100
0000
0001
0000
1000
0000
0010
1000
0010
1000
0100
1000
0010
1000
,
0100
1000
0010
0100
0001
0000
0001
0000
0010
0000
0100
1000
0001
0000
0100
0010
,
1000
0M01
MM11
0010
0001
1000
0001
0010
,
0100
1000
0001
0100
0010
0000
1000
0000
1001
0000
0001
0010
0001
0000
0100
0000
,
0010
1000
0010
1000
0001
0000
1MM1
0000
1000
0000
0100
0010
M10M
0000
0040
0000
,
0M31
0000
1000
0001
0M10
0000
0001
1000
0001
0000
0M10
0000
0001
0000
1000
0000
,
0010
0000
0010
0000
0100
0000
0010
0000
1000
0001
1000
0001
0010
0000
0000
0000
,
0100
0000
0000
1000
0000
0000
0001
0000
0000
1000
0000
0000
0010
0000
0000
0000
0000
0000
0010
0000
0000
0000
0000
0000
0100
0000
0000
0000
0000
0000
0001
0000
1000
0000
0001
0000
1000
0000
0000
0000
0000
0000
0100
0000
0000
0000
0000
0000
,
0010
0000
0000
0000
0001
0000
0000
0000
1000
0000
0100
0000
1000
0000
0001
0000
4000
0040
0000
0000
0000
0000
0000
0030
3M01
0000
0000
0000
0M01
0000
0000
0000
,
1000
0000
0M01
0000
0010
0000
0100
0000
1000
0000
1000
0000
0001
0100
0001
1000
,
0010
0000
0000
0100
0001
0000
1000
0000
1010
0000
0010
0100
0010
0100
0001
0000
,
1000
0000
0000
0100
0010
0100
0010
0000
0000
0001
0000
0000
1001
0000
0000
0000
0000
0000
1001
0000
0000
0000
0000
0000
,
4000
0000
0000
0000
0000
0000
0000
0000
0000
0000
0000
0000
0000
0000
0000
0000
3100
0000
0000
0000
0000
0000
0000
0000
0000
0000
0000
0000
0000
0000
0000
0000
0040
0000
0000
0000
0000
0000
0000
0000
0000
0000
0000
0000
0000
0000
0000
0030
1M01
0000
0000
0000
0000
0000
0000
0000
0000
0000
0000
0000
0000
0000
0000
0000
,
1000
0001
0100
0001
1000
0000
1000
0000
0010
1000
0001
0000
0010
0000
0100
0000
,
1100
0000
1000
0001
1000
0001
0100
0000
0010
1000
0001
0010
0001
0000
0440
0000
,
0000
0000
0000
0000
0000
0000
0000
0330
4000
0000
0000
0000
0000
0000
0000
0000
3001
0000
0000
0000
0100
0000
0000
0000
0010
0000
0000
0000
0000
0000
0000
0000
1000
0000
0000
0000
0001
0000
0000
0000
0010
0000
0000
0000
0001
0000
0000
0000
1M00
0000
0000
0000
0000
0000
0000
0000
0010
0000
0000
0000
1000
0000
0000
0000
,
0001
0M10
0100
0100
0100
1000
1000
1000
,
0001
0000
0100
0001
1000
0000
0001
0000
1100
0000
0001
0000
1100
0000
0001
0000
,
1000
0000
0000
0000
0000
0000
0001
0000
0100
0000
0001
0000
0100
0000
0000
0000
0000
0000
0010
0000
0000
0000
0000
0000
1000
0000
0000
0000
0000
0000
0100
0000
0000
0000
0000
0000
0100
0000
0000
0010
0000
0000
0001
0000
0000
0000
0000
0000
,
0001
0000
1000
0001
01M0
0001
0100
0001
1000
0000
01M0
0000
0010
0000
0001
0000
,
1000
0000
1000
0000
0010
0000
0100
0000
0100
0001
1000
0000
0101
0000
1000
0000
,
0101
0000
0000
0000
0000
0000
1000
0000
0000
0000
0000
0000
0001
0000
0000
0100
0000
0000
M010
0000
0000
0000
0000
0000
0010
0000
0000
0000
0000
0000
1000
0000
0001
0000
1000
0000
0001
0000
0000
0000
0000
0000
0M10
0000
0000
0000
0000
0000
,
0M10
0000
0100
1000
0100
1000
0001
0000
01M0
0000
0001
0000
10M0
0000
0100
0000
,
0010
0001
0010
0M01
0000
0000
1000
0000
0000
0010
0000
0000
0110
0000
0000
1000
0000
0000
1000
0000
0000
1010
0000
0000
,
0001
0000
0100
0001
0100
0000
0001
0000
1001
0000
1000
0100
1000
0100
0010
0000
,
0010
0000
0000
0001
1000
0001
1000
0000
0000
0010
0000
0000
101M
0000
0000
1000
0000
0000
1000
0000
0000
0M11
0000
0000
,
0001
0000
0000
1000
001M
0000
0100
0001
0100
0001
0100
0001
1000
0000
0100
0010
,
0001
1000
0010
0000
0000
0100
0001
0000
0000
1000
0001
0000
1000
0000
0010
0000
,
0110
0000
0100
0001
1000
0001
0010
0000
0100
0000
1000
0000
1001
0000
0001
0100
,
0001
0000
0000
0100
0000
0000
0010
0000
0000
0000
0000
0000
1010
0000
0000
0000
0000
0000
1000
0000
0001
0000
1000
0000
0001
0000
0000
0000
0000
0000
0010
0000
0000
0100
0000
0000
0010
0000
0000
0100
0000
0000
0010
0000
0000
0100
0000
0000
,
1000
0000
0000
0000
0000
0000
0001
0000
0100
0000
0001
0000
1000
0000
0000
0000
0000
0000
0000
0000
0000
0100
0000
0000
0010
0000
0000
0100
0000
0000
1000
0000
0000
0000
0000
0000
0000
0000
0000
0001
0000
0000
0100
0000
0000
0001
0000
0000
,
0000
1000
0100
1000
0001
0000
0100
0000
0100
0000
0010
0000
100M
0000
100M
0000
,
1002
0000
0023
0000
,
0230
0000
0000
0000
0000
0000
0000
0000
0000
0000
0000
0000
0000
0000
0000
0000
0000
0000
0000
0000
0000
0000
0000
0000
0000
0000
0000
0000
0000
0000
0000
0000
2300
0000
0000
0000
0000
0000
0000
0000
0000
0000
0000
0000
0000
00M0
00M0
30M0
2MM2
0000
0000
0000
0000
0000
0000
0000
0000
0000
0000
0000
0000
0000
0000
0000
,
00M0
0M00
00M0
0M00
00M0
0M00
00M0
0M00
,
00M0
0000
0000
0000
0000
0000
0000
0000
0M00
0000
0000
0000
0000
0000
0000
0000
00M0
3003
0000
0000
0000
0000
0000
0000
0000
0000
0000
0000
0000
0000
0000
0000
0M00
0000
0000
0000
0000
0000
0000
0000
0000
0000
0000
0000
0000
0000
0000
0000
000M
0000
0000
0000
0000
0000
0000
0000
0000
0000
0000
0000
0000
0000
0000
0000
;
