#TITLE:Anal Destruction Factory;
#SUBTITLE:;
#ARTIST:KlitoriX;
#TITLETRANSLIT:;
#SUBTITLETRANSLIT:;
#ARTISTTRANSLIT:;
#CREDIT:Aoreo;
#BANNER:Bn-Anal.png;
#BACKGROUND:Bg-Anal.png;
#LYRICSPATH:;
#CDTITLE:;
#MUSIC:Anal Destruction Factory.ogg;
#OFFSET:0.007;
#SAMPLESTART:44.698;
#SAMPLELENGTH:12.000;
#SELECTABLE:YES;
#BPMS:0.000=220.000;
#STOPS:;
#BGCHANGES:;
// cache tags:
#FIRSTBEAT:16.000;
#LASTBEAT:508.000;
#SONGFILENAME:Songs/SPEEEDCOOOORE/Anal Destruction Factory - [Aoreo]/Anal Destruction Factory.sm;
#HASMUSIC:1;
#HASBANNER:1;
#MUSICLENGTH:139.090;
// end cache tags

//---------------dance-single - J. Nero----------------
#NOTES:
     dance-single:
     J. Nero:
     Challenge:
     14:
     1.000,1.000,0.733,0.331,0.945,1064.000,102.000,46.000,57.000,4.000:

0000
0000
0000
0000
,
0000
0000
0000
0000
,
0000
0000
0000
0000
,
0000
0000
0000
0000
,
1001
0000
0001
0100
0001
0000
0010
0000
0100
0000
1000
0010
1000
0000
0010
0000
,
0100
0000
0001
1000
0001
0000
1000
0100
1000
0100
0010
0001
0010
0000
0001
0000
,
1000
0000
1000
0000
0010
0000
0100
0001
0100
0001
1000
0000
0010
0000
0100
0001
,
1000
0001
1000
0100
1000
0000
0010
0000
0100
0000
0001
0000
1000
0000
0100
0000
,
1100
000M
00M0
0M00
M000
00M0
0M00
000M
,
1000
0000
0001
0000
0010
0100
0010
0100
1000
0000
0010
0000
0100
0000
0001
0000
,
0100
0000
0010
1000
0010
0000
0100
0000
0001
0100
0001
1000
0200
0000
2300
0000
,
3010
0000
0100
0000
0001
0000
0010
0100
0010
0100
1000
0000
0010
0000
0100
0000
,
0001
0000
1000
0000
0100
0000
1000
0010
1000
0010
0100
0000
0002
0000
2003
0000
,
3100
0000
0010
0000
0100
0000
1000
0000
02M2
0000
1000
0303
02M2
0000
1000
0303
,
0010
0000
0100
0000
0010
1000
0010
0000
0100
0001
0100
0001
1000
0001
1000
0000
,
0010
0000
0100
0000
0001
0000
0010
0100
0010
0100
1000
0000
0010
0000
0100
0000
,
0001
0000
1000
0000
0100
0000
1000
0000
0010
1000
0010
1000
0100
0000
0010
0000
,
0001
0010
0001
0010
0001
0010
0100
1000
0001
0000
0100
0010
0100
0000
0010
1000
,
0010
0000
1000
0001
1000
0000
0001
0100
0001
0010
0100
1000
0010
0100
0001
1000
,
0001
0000
0100
0000
0040
0000
0130
0001
0100
0000
0001
1000
0100
0000
1000
0010
,
1000
0000
0010
1000
0010
0100
0001
0100
0001
1000
0100
1000
0100
0000
0000
0000
,
10MM
000M
01MM
00M0
10MM
000M
01MM
00M0
,
10MM
000M
01MM
00M0
10MM
000M
01MM
00M0
,
10MM
000M
01MM
00M0
10MM
000M
01MM
00M0
,
2MM2
0000
3003
0000
,
1000
0000
0010
1000
0010
0000
1000
0000
0010
0000
0100
0001
1000
0000
0100
0000
,
0010
0000
0001
0010
0001
0010
0100
0000
1000
0000
0001
1000
0001
0000
1000
0000
,
0100
0000
1000
0100
1000
0000
0010
0000
0100
0000
0001
0100
0001
0000
1000
0000
,
0100
0000
0010
0000
0001
0100
0001
0100
0000
0100
0010
0000
1000
0100
1000
0000
,
0100
0000
1000
0001
1000
0000
0100
0000
1000
0000
0010
0100
0010
0000
0100
0000
,
0001
0100
0001
0100
0010
1000
0001
0000
1000
0000
1000
0000
0010
0000
0010
0000
,
1000
0000
0100
0010
0100
0000
1000
0000
0010
0000
0100
0001
0100
0000
0010
0000
,
1000
0000
0100
1000
0100
0000
1000
0000
1010
0000
0010
0000
0101
0000
0100
0000
,
0001
0000
0000
0100
0001
0100
0001
0000
0000
0100
0010
0100
0010
0000
0000
0100
0000
0000
0001
0000
0000
0010
0000
0000
,
0100
0000
0000
0000
0000
0000
1000
0000
0100
0000
1000
0000
0100
0000
0000
0000
0000
0000
1000
0000
0001
0000
1000
0000
0001
0000
0000
0000
0000
0000
1000
0000
0000
0000
0000
0000
0010
0000
0000
0100
0000
0000
0010
0000
0000
0000
0000
0000
,
0100
0001
0010
0100
1000
0010
0100
0001
,
1000
1001
1101
1111
,
0001
0000
0000
0000
0000
0000
0100
0000
0001
0000
0100
0000
0001
0000
0000
0000
0000
0000
1000
0000
0001
0000
1000
0000
0001
0000
0000
0000
0000
0000
1000
0000
0000
0000
0000
0000
0010
0000
0000
1000
0000
0000
0010
0000
0000
0000
0000
0000
,
0100
0002
0003
0020
0230
0300
2000
3002
,
1003
0000
0010
0000
0100
0001
0100
0001
0010
0100
1000
0100
1000
0000
0001
1000
,
0001
0000
0000
0100
0001
0100
0001
0000
0000
0010
0000
0000
0100
0000
0000
2000
0000
0000
3200
0000
0000
0310
0000
0000
,
0100
0000
1000
0000
0001
0000
1000
0010
1000
0010
0100
0000
0001
0000
0010
0100
,
0010
0000
0100
0000
1000
0000
0001
0100
0001
0100
0001
0000
1000
0001
1000
0000
,
0001
0000
0010
0000
0100
0000
1000
0100
1000
0001
1000
0000
0010
0000
0100
0001
,
0100
0000
0001
0000
0010
0000
0100
1000
0100
1000
0001
1000
0001
1000
0001
1000
,
0001
0000
0100
0001
0100
0000
0010
0000
0010
0000
1000
0100
1000
0000
0100
1000
,
0001
0000
0100
0001
0100
0000
0010
1000
0010
1000
0100
0010
0001
0100
0001
0000
,
1000
0000
0001
0000
0400
0000
0010
0300
1000
0000
0100
0000
0010
0000
0100
0000
,
1000
0001
0100
0010
0100
0000
0001
0000
,
0000
0000
0000
0000
,
0000
0000
0000
0000
,
1001
0001
1000
0100
0110
0010
0100
1000
,
1100
0100
1000
1000
0010
0100
0010
0100
,
0101
0101
0000
0000
,
1001
1001
0000
0000
,
1010
0110
0101
1001
,
1100
0110
0000
0000
,
0011
0011
0000
0000
,
0101
0101
0000
0000
,
1001
1010
0110
0101
,
1001
0110
0000
0000
,
0101
0000
0000
0000
0101
0000
0001
0100
0001
0100
0010
0000
1000
0000
0100
0000
,
1100
0000
0000
0000
1001
0000
0001
0100
0001
0100
0010
0000
0100
0000
0001
0000
,
0011
0110
1100
1010
,
0101
0000
1001
0001
0100
0010
1000
0001
,
1001
0000
0000
0000
1001
0000
1000
0100
1000
0100
0010
0000
0001
0000
0100
0000
,
0101
0000
0000
0000
0101
0000
0001
0010
0100
0010
0100
0000
2000
0000
3200
0300
,
0110
0011
0101
0110
,
1010
0000
0000
0000
1001
0000
0000
0000
0001
0000
0001
0000
0010
0100
0010
0100
,
1000
0000
0000
0000
1001
0000
0001
0100
0001
0100
0010
0000
1000
0100
1000
0000
,
1100
0000
0000
0000
0000
0000
0000
0000
0000
0000
0000
0000
0110
0000
0000
0000
0000
0000
0010
0000
0000
0001
0000
0000
0010
0000
0000
0100
0000
0000
1000
0000
0000
0000
0000
0000
0001
0000
0000
0000
0000
0000
0100
0000
0001
0000
0100
0000
,
0001
0101
0110
1010
,
1000
0000
0001
1000
0001
1000
0001
0000
1000
0000
0010
0000
0100
0000
0001
0000
,
0011
0000
0010
0100
1000
0000
0010
0100
0010
0100
0001
1000
0001
0000
1000
0000
,
1100
0000
0000
0000
0000
0000
0100
0000
0000
1000
0000
0000
0001
0000
0000
0000
0000
0000
0100
0000
0000
0010
0000
0000
0100
0000
0000
0000
0000
0000
0001
0000
1000
0000
0001
0000
1000
0000
0000
0000
0000
0000
0001
0000
0100
0000
0001
0000
,
0100
0000
0001
1000
0001
0000
1000
0100
1000
0100
0010
0100
0010
0000
0001
0000
,
0011
0000
0000
0010
0000
0000
0110
0000
0000
0100
0000
0000
1000
0000
0000
0001
1000
0001
1000
0000
0000
0001
0000
0000
,
0101
0000
0100
0000
0010
0000
1000
0000
0001
0000
0100
0001
0100
0000
0001
0000
,
0010
0100
0010
0100
1000
0000
0001
0100
0001
0000
0100
0000
0010
1000
0010
0100
,
0001
1000
0100
0010
0001
0000
0010
0000
0001
0000
0001
0000
0010
0000
0100
0000
,
0100
0000
1000
0000
1000
0000
0001
0000
0100
0000
0100
0000
0010
0000
1000
0001
,
1000
0001
1000
0001
1000
0001
0100
0001
0100
0001
0010
0001
0010
0001
0100
0010
,
0100
0010
1000
0010
1000
0001
1000
0001
1000
0100
0010
0001
1000
0100
1000
0001
,
0100
0000
0000
0000
0000
0000
0001
0000
0100
0000
0001
0000
0100
0000
0000
0000
0000
0000
0001
0000
0000
0100
0000
0000
0001
0000
0000
1000
0000
0000
0010
0000
0000
1000
0000
0000
0010
0000
0000
0000
0000
0000
1000
0000
0000
0000
0000
0000
,
0404
0313
0404
1303
0404
0313
0404
1303
,
0010
0000
1000
0010
1000
0010
0100
0000
0001
0000
0010
0100
0010
0000
0001
0000
,
4400
3310
4400
3301
4400
3310
4400
3301
,
1000
0000
0000
0000
0000
0000
0001
0000
1000
0000
0001
0000
1000
0000
0000
0000
0000
0000
0001
0000
0000
0100
0000
0000
0010
0000
0000
0100
0000
0000
0001
0000
0000
1000
0000
0000
0010
0000
0000
0000
0000
0000
1000
0000
0000
0000
0000
0000
,
0404
0313
0404
1303
0404
0313
0002
2003
,
3010
0000
0100
0000
0101
0000
0001
0010
0100
0010
0100
0000
1000
0000
0010
0100
,
0020
0000
0000
0000
0230
0000
0000
0000
0301
0100
0001
0000
2000
0000
0000
0000
,
3100
0000
1000
0000
0010
0000
0100
0001
0100
0001
0010
0000
0100
0000
1000
0100
,
1000
1100
0100
0110
0010
0011
0001
0101
,
0100
0000
0001
0000
0010
0000
0001
0010
0001
0010
0100
0000
1000
0000
0001
1000
,
0001
1001
1000
1010
0010
0110
0100
0101
,
0001
0000
1000
0100
1000
0000
0010
1000
0010
0100
0010
0000
0100
0000
0001
1000
,
0001
0000
0000
0000
0000
0000
0010
0000
0000
0000
0000
0000
0100
0000
0000
0000
0000
0000
0100
0000
0000
0000
0000
0000
1000
0000
0000
0010
0000
0000
1000
0000
0000
0000
0000
0000
1001
0000
0000
0000
0000
0000
0001
0000
0100
0000
0001
0000
,
0100
0000
0000
0001
1000
0001
1000
0000
0000
0010
1000
0010
1000
0000
0000
0001
1000
0001
1000
0000
0000
0001
1000
0001
,
2000
3020
0230
0302
,
0013
0000
0100
0000
1000
0000
0010
0100
0010
0100
0001
0000
1000
0000
0100
0000
,
0010
0000
0100
0000
1000
0000
0001
0100
0001
0100
0010
0000
0100
0010
0100
0010
,
0100
0000
0001
0000
0010
0000
0100
1000
0100
1000
0001
0000
0100
0000
0010
0000
,
0100
0000
0001
0000
0010
0000
0100
1000
0001
1000
0001
0000
1000
0001
0010
0100
,
1000
0000
0010
0000
0100
0000
0001
0010
0001
0010
0100
0000
1000
0000
0010
0000
,
0100
0000
0001
0000
0010
0000
0100
0000
1000
0100
1000
0100
0010
0000
0001
0000
,
0100
0000
0001
0000
0010
0000
0100
1000
0100
1000
0001
0000
0100
0000
0010
0000
,
1000
0100
1000
0100
0010
0100
0010
0001
0010
0001
1000
0001
1000
0010
1000
0010
,
0200
0000
0001
0300
0010
0000
0100
1000
0100
1000
0001
0000
0100
0000
0020
0000
,
2030
3020
0230
0302
,
0023
0000
0100
0030
1000
0000
0010
0100
0010
0100
0001
0000
0010
0000
0200
0000
,
2300
0000
0000
0010
3000
0000
0100
0000
0000
0000
0000
0000
0020
0000
0000
0100
0030
0000
0001
0000
0000
0000
0000
0000
0200
0000
0000
0001
0300
0000
1000
0000
0000
0000
0000
0000
0002
0000
0000
1000
0003
0000
0100
0000
0000
0000
0000
0000
,
0010
0000
0400
0000
1300
0000
0010
0000
0100
0000
0001
0100
0001
0000
1000
0000
,
0010
0000
0000
1000
0010
1000
0010
0000
0000
1000
0001
1000
0001
0000
0000
0000
0000
0000
0101
0000
0000
0000
0000
0000
,
1001
0000
0000
0000
1100
0000
0100
0000
1000
0000
0010
0000
0100
0000
0001
0010
,
0001
0010
0100
1000
0010
0100
0001
0100
,
0004
0000
0000
0000
0103
0000
0100
0000
0010
0100
0010
0000
1000
0000
0100
0000
,
0010
0011
0101
0110
,
1010
0000
0000
0000
1000
0000
0001
0000
0010
0000
0100
0000
0010
0001
0010
0001
,
1000
0101
0110
1010
,
1001
0000
0001
0000
1000
0000
0100
1000
,
0001
0010
0100
0010
0001
0000
0101
0000
,
1001
0000
1000
0000
0010
0100
0010
0000
0100
0001
0100
0001
1000
0001
1000
0100
,
2000
0000
0000
0000
3020
0000
0000
0000
0130
0010
0100
0000
0002
0000
0000
0000
,
0013
0000
0000
0000
0000
0000
0010
0000
0000
0000
0000
0000
0100
0000
0000
0000
0000
0000
1000
0000
0000
0100
0000
0000
1000
0000
0000
0100
0000
0000
0010
0000
0000
0000
0000
0000
0001
0000
0000
0000
0000
0000
0100
0000
0001
0000
0100
0000
,
0001
0000
0400
0000
0320
0000
0000
0000
1030
0100
1000
0000
0020
0000
0000
0000
,
0230
0000
0000
0000
0300
0000
000M
M000
,
00M0
0M00
000M
M000
,
MMMM
0000
0000
0000
;
