#TITLE:Creeping Death;
#SUBTITLE:Ride the Lightning (1984);
#ARTIST:Metallica;
#TITLETRANSLIT:;
#SUBTITLETRANSLIT:;
#ARTISTTRANSLIT:;
#CREDIT:;
#BANNER:creeping death-banner.png;
#BACKGROUND:creeping death-bgg.png;
#LYRICSPATH:;
#CDTITLE:melonman67.png;
#MUSIC:7 - Creeping Death.mp3;
#OFFSET:0.760;
#SAMPLESTART:28.613;
#SAMPLELENGTH:11.980;
#SELECTABLE:YES;
#BPMS:0.000=210.000,15.500=220.000,20.000=214.500,28.000=218.000,39.000=231.000,44.000=208.000,52.000=217.000,66.000=209.500,96.000=204.000,136.000=203.000,184.000=201.320,448.000=203.300,512.000=200.000,524.000=204.000,552.000=200.200,628.000=202.000,676.000=201.000,696.000=204.000,744.000=195.000,748.000=95.250,780.000=95.010,812.000=201.000,828.000=205.000,836.000=199.500,932.000=198.500,964.000=199.500,996.000=199.000,1092.000=196.000,1124.000=193.500,1156.000=203.000,1172.000=206.000,1183.000=218.000,1196.000=210.000,1204.000=206.000,1216.000=204.000,1220.000=210.000;
#STOPS:;
#BGCHANGES:;
// cache tags:
#FIRSTBEAT:4.000;
#LASTBEAT:1256.500;
#SONGFILENAME:Songs/Astronomic Metal Collection/creeping death (melonman67)/creeping death.sm;
#HASMUSIC:1;
#HASBANNER:1;
#MUSICLENGTH:396.721;
// end cache tags

//---------------dance-single - ----------------
#NOTES:
     dance-single:
     :
     Challenge:
     12:
     0.993,1.000,1.000,0.764,0.481,2004.000,451.000,303.000,0.000,2.000:
0000
0000
0000
0000
,
1000
0001
0001
0001
1000
0000
2002
0000
,
0000
0000
0000
3003
,
1000
0010
0010
0010
1000
0000
1010
0202
,
0000
0000
0000
0000
0000
0000
0000
0303
,
0001
0010
0010
0010
0001
0000
0022
0000
,
0000
0000
0000
0033
,
0010
0100
0100
0100
0010
0000
0110
2200
,
0000
0000
0000
0000
0000
0000
0000
3300
,
1000
0100
0100
0100
1000
0000
2200
0000
,
0000
3300
0000
0000
2002
0000
3003
0000
,
0001
0100
0010
0100
0001
0000
0101
2020
,
0000
3030
2002
3003
,
1000
0100
0001
0100
1000
0000
2002
0000
,
0000
3003
0000
0000
0022
0000
0000
0033
,
1000
0001
0100
0010
1000
0000
1010
0202
,
0000
0000
0303
0000
2002
0000
0000
3003
,
0000
1001
1010
1010
,
1000
1000
0011
1000
1000
0011
1000
0011
,
1000
0000
1000
0000
0011
0000
1000
0000
0001
0000
1000
0000
1000
0001
1000
0100
,
0010
0010
1001
0010
0010
1001
0010
1001
,
0010
0000
0010
0000
1001
0000
0010
0000
0100
0000
0001
0000
0100
0010
0100
1000
,
0001
0001
1010
0001
0001
1010
0001
1010
,
0001
0000
0001
0000
1010
0000
0001
0000
1000
0000
0010
0000
0100
0001
0010
0100
,
1000
0001
1100
0010
0001
0101
1000
1100
,
0001
0000
0010
0000
0110
0000
1000
0000
0100
0000
0010
0000
0001
1000
0001
0100
,
0001
0010
1100
0010
0001
0110
1000
0110
,
0001
0000
1000
0000
0011
0000
1000
0000
0100
0000
0010
0000
0001
0010
0100
1000
,
0001
0100
1001
0010
0001
1100
1000
0110
,
0001
0000
1000
0000
0101
0000
0010
0000
0100
0000
1000
0000
0001
0010
0001
0010
,
0100
1000
0101
1000
0010
0101
0100
1010
,
1000
0000
0100
0000
0011
0000
1000
0000
0100
0000
0010
0000
0001
1000
0010
1000
,
0001
0010
0101
0010
0001
1001
1000
1010
,
0100
0000
0001
0000
0011
0000
0100
0000
0010
0000
1000
0000
0010
0100
0001
1000
,
0001
0001
2002
3003
0001
0001
2002
3003
,
1000
1000
0010
0010
0010
0010
0010
0010
,
1000
1000
2020
3030
1000
1000
2020
3030
,
0010
0010
0100
0100
0100
0100
0100
0100
,
0001
0001
0022
0033
0001
0001
0022
0033
,
0001
0001
1000
1000
1000
1000
1000
1000
,
0001
0001
2002
3003
1000
1000
2002
3003
,
0001
0010
0100
1000
0100
1000
0100
1000
,
0100
1000
1001
0001
0100
0101
0001
1001
,
1000
0000
0010
0000
0110
0000
0100
0000
0001
0000
1000
0000
0001
0010
0100
0010
,
0001
0010
0011
0010
0100
1100
1000
1001
,
0001
0000
0100
0000
0110
0000
0010
0000
1000
0000
0001
0000
0100
0010
0100
0001
,
0200
0000
0000
0000
,
0000
0000
0000
0000
,
0000
0000
0000
0000
,
0300
0110
1010
0101
,
1001
1000
0110
0010
0001
1100
1000
1001
,
0001
0000
0100
0000
1010
0000
0100
0000
0001
0000
0010
0000
0001
0010
0100
1000
,
0001
1000
0110
0010
1000
1100
0010
0011
,
0001
0000
1000
0000
1010
0000
0100
0000
0001
0000
0010
0000
0100
0010
0100
1000
,
0011
0010
1100
1000
0001
1001
1000
0110
,
0100
0000
0001
0000
0011
0000
1000
0000
0001
0000
0100
0000
0010
1000
0001
0010
,
0100
1000
0011
1000
0100
0011
0100
0011
,
0100
0000
1000
0000
0011
0000
1000
0000
0100
0000
0010
0000
0001
0010
0100
0010
,
1001
0001
0110
0100
1000
0011
0001
1001
,
1000
0000
0010
0000
0101
0000
0010
0000
1000
0000
0100
0000
1000
0100
0010
0001
,
1000
0001
0110
0100
0001
0011
0100
1100
,
1000
0000
0001
0000
0101
0000
0010
0000
1000
0000
0100
0000
0010
0100
0010
0001
,
1100
1000
1010
0010
0100
1001
0100
1001
,
0001
0000
0010
0000
0110
0000
0100
0000
1000
0000
0001
0000
0010
0001
1000
0100
,
0010
0001
0110
0010
0001
1001
1000
1010
,
0010
0000
0100
0000
0110
0000
0010
0000
1000
0000
0100
0000
0010
0001
0010
0100
,
1000
0001
2200
3300
0100
1000
2002
3003
,
1000
0010
0100
0001
0100
0001
0100
0001
,
0100
0010
0220
0330
0100
0001
0202
0303
,
0001
0010
0100
0010
0100
0010
0100
0010
,
0100
1000
2200
3300
1000
0001
2002
3003
,
0001
0100
1000
0100
1000
0100
1000
0100
,
0001
0010
0022
0033
0010
1000
2020
3030
,
0010
0001
1000
0010
1000
0010
1000
0010
,
2001
0000
0001
0000
0001
0000
0001
0001
,
0000
0001
3010
0010
1000
0202
0000
0303
,
1002
0000
0000
1000
1000
0000
1000
2000
,
0000
0000
0003
0000
0020
3000
0030
0000
,
0210
0000
0010
0000
0010
0000
0010
0010
,
0000
0000
0310
0010
1000
2002
0000
3003
,
2020
0000
0000
0030
0100
0100
0010
3010
,
0102
0100
1000
1000
0100
0100
0013
0000
,
1002
0000
0010
0000
0100
0000
0010
1000
,
0000
0100
1003
1000
0001
2020
0000
3030
,
2001
0000
0000
0100
0001
0000
0010
0002
,
0000
0000
3000
0000
0200
0003
0300
0000
,
0120
0000
0100
0000
0001
0000
1000
0100
,
0030
0000
0100
0100
0010
2020
0000
3030
,
1000
0000
0100
0000
0010
0000
0001
0000
0010
0000
0100
0000
1000
0100
0010
0000
,
0000
0110
0110
0110
,
1000
1000
0011
1000
1000
0011
1000
0011
,
1000
0000
1000
0000
0011
0000
1000
0000
1000
0000
0001
0000
1000
0001
0100
0010
,
0100
0100
1001
0100
0100
1001
0100
1001
,
0100
0000
0100
0000
1001
0000
0100
0000
0010
0000
1000
0000
0001
0100
0010
0100
,
2002
0000
0000
0000
,
0000
0000
0000
0000
,
0000
0000
0000
0000
,
3003
0000
2002
3003
2020
3030
0202
0303
,
1001
0001
0110
0100
1000
0011
0001
1001
,
1000
0000
0010
0000
0101
0000
0010
0000
1000
0000
0100
0000
1000
0100
0010
0001
,
1000
0001
0110
0100
0001
0011
0100
1100
,
1000
0000
0001
0000
0101
0000
0010
0000
1000
0000
0100
0000
0010
0100
0010
0001
,
1100
0100
0011
0001
1000
1001
0001
0110
,
0010
0000
1000
0000
1100
0000
0001
0000
1000
0000
0010
0000
0100
0001
1000
0100
,
0010
0001
1100
0001
0010
1100
0010
1100
,
0010
0000
0001
0000
1100
0000
0001
0000
0010
0000
0100
0000
1000
0100
0010
0100
,
1001
1000
0110
0010
0001
1100
1000
1001
,
0001
0000
0100
0000
1010
0000
0100
0000
0001
0000
0010
0000
0001
0010
0100
1000
,
0001
1000
0110
0010
1000
1100
0010
0011
,
0001
0000
1000
0000
1010
0000
0100
0000
0001
0000
0010
0000
0100
0010
0100
1000
,
0011
0001
0101
0100
0010
1001
0010
1001
,
1000
0000
0100
0000
0110
0000
0010
0000
0001
0000
1000
0000
0100
1000
0001
0010
,
0100
1000
0110
0100
1000
1001
0001
0101
,
0100
0000
0010
0000
0110
0000
0100
0000
0001
0000
0010
0000
0100
1000
0100
0010
,
0001
1000
0220
0330
0010
0001
2002
3003
,
1000
0100
0010
0010
0010
0010
0010
0010
,
0100
1000
2020
3030
0100
0001
0022
0033
,
0100
1000
0010
0010
0010
0010
0010
0010
,
0100
0001
2002
3003
0001
0010
2200
3300
,
0010
0001
1000
1000
1000
1000
1000
1000
,
0001
0010
2002
3003
0010
0001
2002
3003
,
0001
0100
1000
1000
1000
1000
0001
0100
,
0220
0000
0000
0000
,
0000
0330
0110
0101
0110
0202
0000
0303
,
0022
0000
0000
0000
,
0000
0000
0000
0033
0220
0000
0000
0330
,
2002
0000
0000
0000
,
0000
3003
1010
1001
1010
2002
0000
3003
,
2020
0000
0000
0000
0000
0000
0000
3030
,
0202
0000
0000
0303
0022
0000
0000
0033
,
0202
0000
0000
0000
,
0303
0000
0101
1010
0101
2020
0000
3030
,
0220
0000
0000
0000
,
0000
0000
0000
0330
2002
0000
0000
3003
,
2020
0000
0000
0000
,
0000
3030
0101
0110
1010
2002
0000
3003
,
1000
0000
0001
0000
0100
0000
0001
0000
1000
0000
0001
0000
0100
0001
0010
0000
,
0100
1100
0011
1001
,
1000
0100
0011
0100
1000
0110
0001
0110
,
1000
0000
0100
0000
0110
0000
0010
0000
0001
0000
0010
0000
0100
1000
0010
0100
,
0001
0010
1100
0100
1000
1001
0100
0110
,
0010
0000
1000
0000
1001
0000
0100
0000
0010
0000
0001
0000
1000
0100
0001
0100
,
2000
0000
0000
0000
,
0000
0000
0000
3000
,
1000
0100
0010
0001
0010
0100
1000
0100
0010
0001
0010
0100
,
1000
0100
0010
0100
0010
0001
1000
0100
0010
0100
0010
0001
,
0020
0000
0000
0000
0000
0000
0000
0030
0020
0000
0000
0030
0020
0000
0000
0030
,
0020
0000
0000
0030
0200
0000
0000
0320
0000
0000
0030
0000
0001
0000
0010
0000
,
0001
0010
0001
0010
0100
0010
0100
1000
0001
1000
0100
0010
0100
0010
0001
0010
,
0001
0010
0100
1000
0100
0010
0001
0010
0100
1000
0100
0010
0001
0000
0000
0000
,
1000
0100
0010
0100
1000
0001
0010
0100
,
0010
0001
1000
0001
0100
0010
1000
0001
,
0010
0000
0100
1000
0001
1000
0001
1000
0010
0000
0100
0001
0100
0010
1000
0001
,
0010
0000
0000
0000
0000
0000
0100
0000
0000
1000
0000
0000
0100
0000
0000
0010
0000
0000
0001
0000
0000
0010
0000
0000
0001
0000
0000
0000
0000
0000
0000
0000
0000
0000
0000
0000
1001
0000
0000
0000
0000
0000
0000
0000
0010
0000
0000
0000
,
0001
0010
0001
0010
0100
0010
0100
1000
0100
1000
0100
0010
,
0001
0010
0001
0010
0100
0010
0100
1000
0100
1000
0100
0010
,
0001
0000
1000
0000
0010
0000
0100
0000
0010
0000
1000
0000
0001
0000
0000
1000
0000
0000
0010
0000
0000
0100
0000
0000
,
0001
0010
0002
2000
0000
0000
3003
0000
,
1000
0100
0010
0001
0010
0100
1000
0100
0010
0001
0010
0100
,
1000
0100
0010
0001
0010
0100
0010
0001
0010
0100
1000
0100
,
1000
0001
0010
0000
0100
0000
1000
0000
0010
0000
0100
0000
0001
0000
0100
0000
0010
0000
1000
0000
0001
0000
0100
0000
,
0020
0000
0000
0000
2030
0000
0000
0000
3002
0000
0000
0000
1003
0000
1000
0010
,
0100
0001
0010
0100
1000
0100
0010
0100
0010
0001
1000
0001
0100
0010
1000
0010
,
0100
0010
1000
0010
0100
0001
0010
0100
1000
0100
0010
0001
0010
0100
0010
0001
,
0010
0100
1000
0100
1000
0010
0100
0001
0100
0010
0100
0001
0100
0010
1000
0001
,
0100
0010
0100
0001
0010
0100
0010
0100
1000
0001
0010
0100
1000
0001
1000
0010
,
0100
0001
0100
0010
1000
0010
0100
0001
0010
0100
1000
0100
,
0010
0001
0010
0100
1000
0100
0010
0100
1000
0001
0100
0001
,
0010
0100
1000
0100
0010
0100
1000
0100
0001
0100
1000
0001
,
1000
0000
0001
0000
0100
0000
0010
0000
0100
0000
0001
0000
0010
0000
0000
0100
0000
0000
1000
0000
0000
0100
0000
0000
,
2000
0000
0000
3000
0001
0100
0010
2000
,
0000
0000
3002
0003
0010
0100
2000
0000
,
3002
0000
0000
0000
0103
0010
1000
0002
,
0000
0003
1000
0000
0010
0000
0100
0000
,
0002
0000
0000
0000
1003
0010
1000
0002
,
0000
0003
0010
0000
0100
1000
0000
0000
,
0001
0000
1000
0000
0001
0000
1000
0000
0001
0000
1000
0000
0001
0000
0000
0001
0000
0000
0010
0000
0000
0200
0000
0000
,
0000
2300
0000
3200
0000
0320
0000
0031
,
0001
0010
0100
1000
0010
0100
0010
1000
0001
0100
0010
1000
,
0001
0010
0100
0010
0100
0010
0001
1000
0001
0100
0010
0100
,
0001
0010
0100
1000
0100
0010
0001
1000
0001
0010
0100
0010
,
0001
0010
0100
1000
0100
1000
0001
0100
0010
1000
0010
0100
,
0001
0010
0100
1000
0100
1000
0001
0010
0100
0010
0001
1000
,
0001
0010
0100
0010
0001
0010
0100
1000
0100
0010
0100
1000
,
0002
0000
0000
0003
0002
0000
0000
0003
,
0002
0000
1000
0003
1002
0000
1000
0003
,
2002
0000
0000
3003
,
2001
0000
0000
0000
0010
0010
0010
0010
3020
0000
0000
0000
0230
0000
0000
0000
,
0302
0000
0000
0000
1000
1000
1000
1000
2003
0000
0000
0000
3020
0000
0000
0000
,
0230
0000
0000
0000
0010
0010
0010
0010
0320
0000
0000
0000
2030
0000
0000
0000
,
3002
0000
0000
0000
0010
0100
1000
0100
0023
0000
0000
0000
0230
0000
0000
0000
,
2300
0000
0000
0000
0001
0100
0010
0100
3002
0000
0000
0000
2003
0000
0000
0000
,
3020
0000
0000
0000
0100
0001
0100
1000
0230
0000
0000
0000
0302
0000
0000
0000
,
2003
0000
0000
0000
0001
0100
0001
0010
3200
0000
0000
0000
0320
0000
0000
0000
,
0032
0000
0000
0000
1000
0010
0100
1000
0203
0000
0000
0000
0320
0000
0030
0000
,
0210
0000
0000
0000
0010
0001
0001
0001
0302
0000
0000
0000
2003
0000
0000
0001
,
3002
0000
0000
0000
1000
1000
0010
1003
2010
0000
0010
3000
0210
0000
0010
0010
,
0302
0000
0000
0000
0010
0010
0010
0013
0120
0000
0100
0000
1230
0000
1000
0300
,
1002
0000
0000
0000
1000
1000
1000
1000
2003
0000
0000
0000
3020
0000
0000
0030
,
0210
0000
0000
0000
0010
0001
0001
0001
0302
0000
0000
0000
2003
0000
0000
0001
,
3002
0000
0000
0000
1000
1000
0010
1003
2010
0000
0010
3000
0210
0000
0010
0010
,
0302
0000
0000
0000
0010
0010
0010
0013
0120
0000
0100
0000
1230
0000
1000
0300
,
1002
0000
0000
0000
1000
1000
1000
1000
2003
0000
0000
3000
1001
0000
0011
0000
,
0001
0010
1100
0010
0001
1010
0001
1010
,
0001
0000
0010
0000
1001
0000
0010
0000
0001
0000
0100
0000
0010
1000
0010
0100
,
0001
0001
1100
0001
0001
1100
0001
1100
,
0001
0000
0001
0000
1100
0000
0001
0000
0001
0000
1000
0000
0001
1000
0010
0100
,
0001
0010
0100
1000
0100
0010
0001
0010
0100
1000
0000
0000
,
1001
0000
0011
0000
0110
0000
1100
0000
0000
1001
0000
0000
,
1001
1000
0110
0010
0001
1100
1000
1001
,
0001
0000
0100
0000
1010
0000
0100
0000
0001
0000
0010
0000
0001
0010
0100
1000
,
0001
1000
0110
0010
1000
1100
0010
0011
,
0001
0000
1000
0000
1010
0000
0100
0000
0001
0000
0010
0000
0100
0010
0100
1000
,
0011
0010
1100
1000
0001
1001
1000
0110
,
0100
0000
0001
0000
0011
0000
1000
0000
0001
0000
0100
0000
0010
1000
0001
0010
,
0100
1000
0011
1000
0100
0011
0100
0011
,
0100
0000
1000
0000
0011
0000
1000
0000
0100
0000
0010
0000
0001
0010
0100
0010
,
1001
0001
0110
0100
1000
0011
0001
1001
,
1000
0000
0010
0000
0101
0000
0010
0000
1000
0000
0100
0000
1000
0100
0010
0001
,
1000
0001
0110
0100
0001
0011
0100
1100
,
1000
0000
0001
0000
0101
0000
0010
0000
1000
0000
0100
0000
0010
0100
0010
0001
,
1100
1000
1010
0010
0100
1001
0100
1001
,
0001
0000
0010
0000
0110
0000
0100
0000
1000
0000
0001
0000
0010
0001
1000
0100
,
0010
0001
0110
0010
0001
1001
1000
1010
,
0010
0000
0100
0000
0110
0000
0010
0000
1000
0000
0100
0000
0010
0001
0010
0100
,
1000
1100
0022
0033
1100
1100
0022
0033
,
1100
1100
0110
0110
0110
0110
0110
0110
,
1100
1100
0022
0033
1100
1100
0022
0033
,
1100
1100
0110
0110
0110
0110
0110
0110
,
1001
1001
0220
0330
1001
1001
0220
0330
,
1001
1001
0101
0101
0101
0101
0101
0101
,
1001
1001
0220
0330
1001
1001
0220
0330
,
1001
1001
1010
1010
1010
1010
1010
1010
,
1002
0000
1000
0000
1000
0000
1000
1000
,
0000
1000
0013
0010
0001
2200
0000
3300
,
2001
0000
0000
0001
0001
0000
0001
0002
,
0000
0000
3000
0000
0200
0003
0300
0000
,
0120
0000
0100
0000
0100
0000
0100
0100
,
0030
0000
0100
0100
0001
2020
0000
3030
,
0202
0000
0000
0303
0010
0010
1000
1000
,
2100
0100
0010
3010
0201
0001
0010
0300
,
2001
0000
0100
0000
0010
0000
0100
0001
,
0000
0001
3100
0100
1000
0011
0000
0000
,
1002
0000
0000
0010
1000
0000
0100
2000
,
0000
0000
0003
0000
0020
3000
0030
0000
,
0210
0000
0010
0000
1000
0000
0001
0010
,
0300
0000
0010
0010
0100
0101
0000
0000
,
0001
0000
0010
0000
0100
0000
1000
0000
0100
0000
0010
0000
0001
1000
0001
0000
,
0000
0011
0110
1100
,
1000
0100
0011
0001
1000
0110
0010
0022
,
0000
0000
0000
0000
0000
0000
0000
0033
,
0001
0010
0110
1000
0001
0110
0100
2200
,
0000
0000
0000
0000
0000
0000
0000
3300
,
1000
0010
0101
0001
1000
0110
0100
0202
,
0000
0000
0000
0000
0000
0000
0000
0303
,
0001
0100
1010
1000
0001
0110
0010
2020
,
0000
0000
0000
0000
0000
0000
0000
3030
,
1001
0000
1010
0101
0110
0000
1001
2200
,
0000
0000
0000
0000
0000
0000
0000
3300
,
1001
0000
1100
0110
1001
0000
1010
0202
,
0000
0000
0000
0000
0000
0000
0000
0303
,
1001
0000
1001
1010
0110
0000
0101
2020
,
0000
0000
0000
0000
0000
0000
0000
3030
,
0110
0000
0110
0101
1001
0000
1100
0022
,
0000
0000
0000
0000
0000
0000
0000
0033
,
0100
0100
1001
0100
0100
1001
0100
2002
,
0000
0000
0000
0000
0000
0000
0000
3003
,
0001
0001
1100
0001
0001
1100
0001
2200
,
0000
0000
0000
0000
0000
0000
0000
3300
,
0010
0010
1001
0010
0010
1001
0010
2002
,
0000
0000
0000
0000
0000
0000
0000
3003
,
0001
0001
0110
0001
0001
0110
0001
0220
,
0000
0000
0000
0000
0000
0000
0000
0330
,
0000
0000
1010
0000
0110
0000
0101
0022
,
0000
0000
0000
0000
0000
0000
0000
0033
,
0000
0000
0011
0000
0110
0000
1100
2020
,
0000
0000
0000
0000
0000
0000
0000
3030
,
0000
0000
0110
0000
1001
0000
0110
0202
,
0000
0000
0000
0000
0000
0000
0000
0303
,
0000
0000
0101
0000
1010
0000
1100
0220
,
0000
0000
0000
0000
0000
0000
0000
0330
,
0000
0000
0110
0000
0011
0000
1001
0011
,
0001
0010
0100
1000
0100
0001
0100
1000
0010
0100
0001
0010
,
1000
0010
0001
1000
0010
0100
0001
0100
1000
0100
0010
1000
,
0100
0010
0001
0010
1000
0010
0001
0010
1000
0010
0001
1000
,
0010
0100
0010
1000
0001
0010
0100
1000
0010
0100
0010
0100
,
0010
0001
0010
0001
0010
0001
0010
1000
0100
0010
0001
0100
,
1000
0100
0001
0100
1000
0100
0010
1000
0010
0100
0001
0010
,
0100
1000
0001
0010
0100
1000
0100
1000
0001
0010
0100
0010
,
0001
0010
0100
1000
0001
0000
2002
0000
,
0000
0000
0000
3003
,
1000
0010
0100
0001
1000
0000
0101
2020
,
0000
0000
0000
0000
0000
0000
0000
3030
,
0001
1000
0010
0100
0010
0000
0220
0000
,
0000
0000
0000
0330
,
0010
1000
0100
0010
0001
0000
0011
0220
,
0000
0000
0000
0000
0000
0000
0000
0330
,
0100
1000
0001
1000
0001
0000
2020
0000
,
0000
3030
0202
0303
,
0001
1000
0010
1000
0001
0000
1001
0220
,
0000
0330
0000
0000
0220
0000
0330
0000
,
0010
1000
0010
0100
0010
0000
2020
0000
,
0000
3030
0202
0303
,
0001
0100
1000
0100
0001
0000
0101
2200
,
0000
3300
0220
0330
,
0000
0000
0000
1001
0000
0000
1001
0000
,
0000
0000
1001
0000
0000
0000
0000
2002
,
0000
0000
0000
0000
,
0000
0000
0000
0000
,
0000
0000
0000
0000
,
0000
0000
0000
0000
,
0000
0000
0000
0000
,
0000
0000
0000
0000
,
0000
3003
0000
1001
0000
2002
0000
0000
,
0000
3003
0000
0000
0000
0000
0000
0000
;

//---------------dance-single - ----------------
#NOTES:
     dance-single:
     :
     Hard:
     10:
     0.653,0.990,0.260,0.439,0.188,1536.000,103.000,174.000,0.000,0.000:
0000
0000
0000
0000
,
1000
0001
1000
0001
1000
0000
2002
0000
,
0000
0000
0000
3003
,
0001
1000
0001
1000
0001
0000
2000
0002
,
0000
0000
0000
3003
,
0001
0010
0001
0010
0001
0000
0022
0000
,
0000
0000
0000
0033
,
0010
0001
0010
0001
0010
0000
0002
0020
,
0000
0000
0000
0033
,
0001
0100
0001
0100
0001
0000
0202
0000
,
0000
0303
0202
0303
,
0100
0001
0100
0001
0100
0000
0002
0200
,
0000
0303
0202
0303
,
0100
0010
0100
0010
0100
0000
0220
0000
,
0000
0330
0220
0330
,
0010
0100
0010
0100
0010
0000
0200
0020
,
0000
0330
0220
0330
,
0000
0110
1010
1001
,
0001
0001
0001
0001
,
0001
0000
0001
0000
0001
0010
0100
1000
,
0001
0001
0001
0001
,
0001
0000
0001
0000
0001
0010
0100
1000
,
0001
0001
0001
0001
,
0001
0000
0001
0000
0001
0010
0100
1000
,
0001
0100
0010
0100
,
0001
0000
0100
0000
0001
0100
0001
0100
,
0001
0000
0001
0000
0000
0001
0000
0001
,
0000
0000
0001
0000
0001
0100
0010
1000
,
0010
0000
0010
0000
0000
0010
0000
0010
,
0000
0000
0010
0000
0010
1000
0001
0010
,
0100
0000
0100
0000
0000
0100
0000
0100
,
0000
0000
0100
0000
0100
1000
0100
0010
,
0001
0000
0001
0000
0000
0001
0000
0001
,
0000
0000
0001
0000
1000
0001
1000
0001
,
1000
0001
2000
0000
3001
1000
0002
0000
,
1003
0001
0010
0001
0010
0001
0010
0001
,
1000
0001
2000
0000
3001
1000
0002
0000
,
1003
0001
0100
0001
0100
0001
0100
0001
,
1000
0001
2000
0000
3001
1000
0002
0000
,
1003
0001
0010
0001
0010
0001
0010
0001
,
1000
0001
2000
0000
3001
1000
0002
0000
,
1003
0001
0100
0001
0100
0001
0100
0001
,
1000
0001
0010
0100
,
1000
0000
0000
0000
0100
0000
0000
0000
0010
0000
0000
0000
0100
0010
0100
0010
,
0100
1000
0001
1000
,
0010
0000
0000
0000
0100
0000
0000
0000
0001
0000
0000
0000
0100
0001
0100
0001
,
0200
0000
0000
0000
,
0000
0000
0000
0000
,
0000
0000
0000
0300
,
0000
0101
1010
0101
,
0001
0100
0001
0100
0001
0100
0001
0100
,
0001
0100
0001
0100
0001
0000
1001
0000
,
1000
0001
1000
0001
1000
0001
1000
0001
,
1000
0001
1000
0001
1000
0000
1010
0000
,
0010
1000
0010
1000
0010
1000
0010
1000
,
0010
1000
0010
1000
0010
0000
0110
0000
,
0100
0010
0100
0010
0100
0010
0100
0010
,
0100
0010
0100
0010
0100
0000
0101
0000
,
0001
0100
0001
1000
0001
0010
0001
0100
,
0001
0010
0001
1000
0001
0000
0011
0000
,
0010
0001
0010
0100
0010
0001
0010
0100
,
0010
0001
0010
0100
1000
0000
1100
0000
,
1000
0001
1000
0010
1000
0100
1000
0010
,
1000
0100
1000
0001
1000
0000
1010
0000
,
0010
0100
0010
1000
0010
0100
0010
0001
,
0010
0100
0010
1000
0010
0000
0110
0000
,
0010
1000
0002
0000
0013
0001
2000
0000
,
3001
1000
0001
0010
0001
0010
0001
0010
,
0001
1000
0020
0000
1030
0100
0020
0000
,
0031
1000
0100
1000
0100
1000
0100
1000
,
0100
0010
0002
0000
1003
0010
0200
0000
,
0301
0100
0010
0100
0010
0100
0010
0100
,
0010
1000
0002
0000
1003
0100
2000
0000
,
3001
1000
0010
1000
0010
1000
0010
1000
,
0020
0000
0000
0000
,
0030
0000
1000
0010
1000
0010
0000
0000
,
2000
0000
0000
0000
,
0000
3000
0002
0003
,
0020
0000
0000
0000
,
0030
0000
0001
0010
0001
0010
0000
0000
,
0002
0000
0000
0000
,
2003
0000
3020
0030
,
0200
0000
0000
0000
,
0300
0000
0010
0100
0001
0100
0000
0000
,
0002
0000
0000
0000
,
0000
0003
2000
3000
,
0200
0000
0000
0000
,
0300
0000
1000
0100
1000
0100
0000
0000
,
1000
0001
1000
0001
1000
0001
1000
0000
,
0000
0001
0001
0001
,
1000
0010
0100
0010
,
1000
0000
0000
0000
0001
0000
0000
0000
1000
0000
0000
0000
0001
1000
0001
1000
,
0001
1000
0010
0100
,
0010
0000
0000
0000
1000
0000
0000
0000
0001
0000
0000
0000
0010
0001
0010
0001
,
0020
0000
0000
0000
,
0000
0000
0000
0000
,
0000
0000
0000
0000
,
0030
0001
0010
0100
,
1000
0100
0010
0100
1000
0100
0010
0100
,
1000
0100
0010
0001
0010
0100
0010
0000
,
0001
0010
0100
0010
0001
0010
0100
0010
,
0001
0010
0100
1000
0100
0010
0100
0000
,
1000
0001
0100
0001
1000
0010
1000
0001
,
0100
0001
1000
0010
1000
0001
0100
0000
,
0001
0010
0001
1000
0100
1000
0001
0010
,
0001
1000
0100
1000
0001
0010
0001
0000
,
0010
0100
0010
0001
0010
0100
0010
0001
,
0010
0100
0010
0001
1000
0001
1000
0000
,
0001
1000
0010
0100
0010
1000
0001
1000
,
0010
0100
0010
1000
0001
1000
0010
0000
,
1000
0001
0010
0100
0010
0001
1000
0001
,
0010
0100
0010
0001
1000
0001
0010
0000
,
0001
1000
0001
0100
0001
0010
0001
0100
,
0001
1000
0001
0010
0100
1000
0001
0000
,
1000
0001
0020
0000
0031
1000
0200
0000
,
0310
0001
1000
0001
1000
0001
1000
0001
,
1000
0010
0200
0000
0301
0010
0200
0000
,
1300
0001
0010
0001
0010
0001
0010
0001
,
0010
0100
2000
0000
3001
1000
0002
0000
,
1003
0010
0100
0010
0100
0010
0100
0010
,
0100
0001
2000
0000
3001
1000
0002
0000
,
1003
0100
0010
0001
1000
0100
0010
0001
,
1000
0000
0100
0000
0010
0000
0001
1000
,
0000
1000
0001
1000
0001
1000
0000
0000
,
1001
0000
0000
0001
0100
0000
0100
0020
,
0000
0030
2000
3000
,
1100
0000
1000
0000
0100
0000
0010
0001
,
0000
0000
0010
0001
0010
0001
0000
0000
,
0011
0000
0000
0000
0000
0000
0001
0010
,
0002
0000
1003
0001
2000
0000
3001
0000
,
0001
0000
0010
0000
0100
0000
1000
0001
,
0000
0001
1000
0001
1000
0001
0000
0000
,
1001
0000
0000
1000
0010
0000
0010
0200
,
0000
0300
0002
0003
,
0011
0000
0001
0000
0010
0000
0100
2000
,
0000
3000
0100
1000
0100
1000
0000
0000
,
0001
0001
0001
0001
,
0001
0010
0100
1000
,
0001
0010
0100
1000
0010
0100
0001
0010
,
0100
1000
0010
0100
0001
0000
0001
0000
,
1000
0010
0100
0001
0100
0010
1000
0010
,
0100
0001
0100
0010
1000
0000
0001
0000
,
2002
0000
0000
0000
,
0000
0000
0000
3003
,
0001
0010
0100
1000
0100
0010
0001
0010
,
0100
1000
0100
0010
0001
0010
0100
1000
,
0002
0000
0003
0000
0002
0003
0002
0003
,
0002
0000
0003
0000
2000
0000
3000
0002
0000
0000
0003
0000
1000
0000
0000
0000
,
0001
1000
0001
1000
0001
0100
0001
0100
,
0001
0010
0001
0010
0001
0000
0010
0000
,
0100
1000
0100
0010
,
0001
0000
1000
0000
0001
0010
0100
0010
,
0001
0000
0011
0000
0220
0330
1100
0000
,
2002
3003
1010
0000
0202
0000
0000
0303
,
0001
0001
0001
0001
,
1000
1000
1000
1000
,
0010
0100
0001
0100
,
0010
1000
1010
0101
,
0001
0100
0010
0100
0001
0100
0010
0100
,
0001
0100
0010
1000
0010
0100
0010
1000
,
0010
0100
0010
1000
0010
0100
0001
0100
,
0010
0100
0001
0100
0010
0100
0001
0000
,
1000
1001
0001
1001
,
1000
1000
1000
1000
,
1000
1001
0001
1001
,
0001
0001
0001
0001
,
1000
1001
0001
1001
,
1000
1000
1000
1000
,
1000
1001
0001
1001
,
1000
1000
1000
1000
,
0002
0000
0000
0003
1000
0010
0100
0002
,
0000
0000
2003
3000
0100
0010
0002
0000
,
2003
0000
0000
0000
3010
0100
0001
2000
,
0000
3000
0001
0000
0100
0000
0010
0000
,
2000
0000
0000
0000
3001
0100
0001
2000
,
0000
3000
0100
0000
0010
0001
0000
0000
,
2000
0000
3000
0000
0001
1000
0100
0020
,
0000
0032
0000
0023
0000
0230
0000
1300
,
0100
1000
0100
1000
0100
1000
0001
1000
0001
1000
0001
1000
,
0001
0010
0001
0010
0001
0010
0100
0010
0100
0010
0100
0010
,
0100
1000
0100
1000
0100
1000
0001
1000
0001
1000
0001
1000
,
0001
0100
0001
0100
0001
0100
0001
0010
0001
0010
0001
0010
,
0001
1000
0001
1000
0001
1000
0001
0100
0001
0100
0001
0100
,
0010
0100
0010
0100
0010
0100
0001
0100
0001
0100
0001
0100
,
0002
0000
2003
0000
,
3002
1000
1000
1003
,
2002
0000
0000
3003
,
1000
0000
0000
0000
0001
1000
0001
1000
0001
0000
0000
0000
1000
0000
0000
0000
,
0001
0000
0000
0000
1000
0001
1000
0001
1000
0000
0000
0000
0001
0000
0000
0000
,
1000
0000
0000
0000
0001
1000
0001
1000
0001
0000
0000
0000
1000
0000
0000
0000
,
0001
0000
0000
0000
1000
0001
1000
0001
1000
0000
0000
0000
0001
0000
0000
0000
,
1000
0000
0000
0000
0001
1000
0001
1000
0001
0000
0000
0000
1000
0000
0000
0000
,
0001
0000
0000
0000
1000
0001
1000
0001
1000
0000
0000
0000
0001
0000
0000
0000
,
1000
0000
0000
0000
0001
1000
0001
1000
0001
0000
0000
0000
1000
0000
0000
0000
,
0001
0000
0000
0000
1000
0001
1000
0001
1000
0000
0000
0000
0001
0000
0000
0000
,
1001
1001
1010
1000
,
1010
0010
0110
0100
,
0101
0001
0011
0010
,
0110
0100
1100
1000
,
1001
0011
0110
0100
,
1100
1000
1001
0001
,
1001
0001
0101
0100
,
0110
0010
1010
1000
,
0001
0000
1000
0000
0000
0001
0000
1000
,
0000
0000
0000
0000
0001
0000
0000
0000
1000
0000
0001
0000
1000
0001
1000
0001
,
1000
0000
0100
0000
0000
1000
0000
0100
,
0000
0000
0000
0000
1000
0000
0000
0000
0100
0000
1000
0000
0100
1000
0100
1000
,
0200
0000
0000
0300
,
1000
0000
0100
0000
1000
0000
0001
0000
0000
1001
0000
0000
,
1000
0001
0100
0001
0010
0001
0010
0100
,
1000
0000
0100
0000
0010
0000
0001
0000
1000
0000
0001
0000
1000
0001
1000
0001
,
1000
0010
0100
0001
0100
0010
1000
0001
,
1000
0000
0001
0000
0010
0000
0100
0000
1000
0000
0001
0000
0010
0001
0010
0001
,
0010
0100
1000
0100
0010
0001
1000
0100
,
0010
0000
0001
0000
1000
0000
0001
0000
1000
0000
0001
0000
0100
0010
0100
0010
,
0100
0001
0100
0010
1000
0010
1000
0100
,
0010
0000
0001
0000
0010
0000
0100
0000
1000
0000
0001
0000
1000
0001
1000
0001
,
1000
1001
0001
1001
,
0001
0000
0000
0000
0011
0000
0000
0000
0010
0000
0001
0000
0010
0001
0010
0001
,
0010
0110
0100
1100
,
1000
0000
0000
0000
1001
0000
0000
0000
0001
0000
0100
0000
0001
0100
0001
0100
,
0001
0101
0100
0110
,
0010
0000
0000
0000
1010
0000
0000
0000
0010
0000
1000
0000
0010
1000
0010
1000
,
0010
0110
0100
0101
,
0001
0010
0001
0010
0001
0010
0100
1000
,
0001
1000
0002
0000
0013
0001
0020
0000
,
0031
0010
0100
1000
0100
1000
0100
0010
,
0100
1000
0200
0000
1300
0001
2000
0000
,
3010
0100
0001
0100
0001
0100
0001
0100
,
0001
1000
0002
0000
1003
0010
0200
0000
,
0301
0100
0010
0100
0010
0100
0010
0100
,
0010
1000
0002
0000
0013
0100
2000
0000
,
3100
0010
0001
0010
0001
0010
0001
0010
,
0002
0000
0000
0000
,
0000
0000
0000
0003
,
2002
0000
0000
0000
,
0000
3003
0022
0033
,
2200
0000
0000
0000
,
0000
0000
0000
3300
,
0022
0000
0000
0033
,
2002
3003
2020
3030
,
2002
0000
0000
0000
,
0000
0000
0000
3003
,
0220
0000
0000
0000
,
0000
0330
2020
3030
,
0202
0000
0000
0000
,
0000
0000
0000
0303
,
0001
1000
0001
1000
0001
1000
0001
0000
,
1000
1001
1100
0011
,
0001
0010
0100
1000
0001
0010
0100
2000
,
0000
0000
0000
0000
0000
0000
0000
3000
,
1000
0100
0010
0001
1000
0100
0010
0002
,
0000
0000
0000
0000
0000
0000
0000
0003
,
0001
0100
0010
1000
0001
0100
0010
2000
,
0000
0000
0000
0000
0000
0000
0000
3000
,
1000
0010
0100
0001
1000
0010
0100
0002
,
0000
0000
0000
0000
0000
0000
1000
0003
,
1001
0000
0001
0100
0010
0000
0010
2000
,
0000
0000
0000
0000
0000
0000
0000
3000
,
1001
0000
1000
0100
0010
0000
0001
2000
,
0000
0000
0000
0000
0000
0000
0000
3000
,
1100
0000
0100
0010
0001
0000
0001
0020
,
0000
0000
0000
0000
0000
0000
0000
0030
,
0110
0000
0100
1000
0001
0000
0001
0200
,
0000
0000
0000
0000
0000
0000
0000
0300
,
0010
0010
1000
0010
0010
1000
0010
2000
,
0000
0000
0000
0000
0000
0000
0000
3000
,
1000
1000
0001
1000
1000
0001
1000
0002
,
0000
0000
0000
0000
0000
0000
0100
0003
,
0100
0100
0010
0100
0100
0010
0100
0020
,
0000
0000
0000
0000
0000
0000
0000
0030
,
1000
1000
0010
1000
1000
0010
1000
0020
,
0000
0000
0000
0000
0000
0000
0000
0030
,
0000
0000
1000
0000
0010
0000
0100
0002
,
0000
0000
0000
0000
,
0003
0000
0001
0000
0010
0000
0100
2000
,
0000
0000
0000
0000
,
3000
0000
0001
0000
1000
0000
0001
2000
,
0000
0000
0000
0000
,
3000
0000
0001
0000
0010
0000
0100
2000
,
0000
0000
0000
0000
,
3001
0000
1000
0000
0010
0000
0100
0001
,
0100
0001
0100
0001
0100
0001
0100
0001
0100
0001
0100
0001
,
0100
0001
0100
0001
0100
0001
0100
0001
0100
0001
0100
0010
,
1000
0010
1000
0010
1000
0010
1000
0010
1000
0010
1000
0010
,
1000
0010
1000
0010
1000
0010
1000
0010
1000
0010
1000
0010
,
0100
0001
0100
0001
0100
0001
0100
0001
0100
0001
0100
0001
,
0100
0001
0100
0001
0100
0001
0100
0001
0100
0001
0100
0010
,
1000
0010
1000
0010
1000
0010
1000
0010
1000
0010
1000
0010
,
1000
0001
1000
0001
1000
0000
2002
0000
,
0000
0000
0000
3003
,
0001
1000
0001
1000
0001
0000
2000
0002
,
0000
0000
0000
3003
,
0001
0010
0001
0010
0001
0000
0022
0000
,
0000
0000
0000
0033
,
0010
0001
0010
0001
0010
0000
0002
0020
,
0000
0000
0000
0033
,
0001
0100
0001
0100
0001
0000
0202
0000
,
0000
0303
0202
0303
,
0100
0001
0100
0001
0100
0000
0002
0200
,
0000
0303
0202
0303
,
0100
0010
0100
0010
0100
0000
0220
0000
,
0000
0330
0220
0330
,
0010
0100
0010
0100
0010
0000
0200
0020
,
0000
0330
0220
0330
,
0000
0000
0000
1000
0000
0000
0001
0000
,
0000
0000
1000
0000
0000
0000
0000
2002
,
0000
0000
0000
0000
,
0000
0000
0000
0000
,
0000
0000
0000
0000
,
0000
0000
0000
0000
,
0000
0000
0000
0000
,
0000
0000
0000
0000
,
0000
3003
0000
1001
0000
2002
0000
0000
,
0000
3003
0000
0000
0000
0000
0000
0000
;
