#TITLE:Koke Killers;
#SUBTITLE:;
#ARTIST:DJ Sharpnel;
#TITLETRANSLIT:;
#SUBTITLETRANSLIT:;
#ARTISTTRANSLIT:;
#CREDIT:;
#BANNER:koke killers bn.png;
#BACKGROUND:koke killers bg.png;
#LYRICSPATH:;
#CDTITLE:;
#MUSIC:Koke Killers.ogg;
#OFFSET:-12.921;
#SAMPLESTART:282.580;
#SAMPLELENGTH:18.281;
#SELECTABLE:YES;
#DISPLAYBPM:210.000;
#BPMS:0.000=105.025,16.000=210.050,142.000=315.075,144.000=210.050,270.000=315.075,272.000=210.050,336.000=105.025,352.000=210.050,844.000=105.025,860.000=210.050;
#STOPS:142.000=0.095
,143.000=0.095
,270.000=0.096
,271.000=0.095
;
#BGCHANGES:;
// cache tags:
#FIRSTBEAT:16.000;
#LASTBEAT:1025.000;
#SONGFILENAME:Songs/SHARPNELSTREAMZ v2/Koke Killers/Koke Killers.sm;
#HASMUSIC:1;
#HASBANNER:1;
#MUSICLENGTH:321.044;
// end cache tags

//---------------dance-single - 16+ (TYLR)----------------
#NOTES:
     dance-single:
     16+ (TYLR):
     Hard:
     16:
     1.000,1.000,0.486,0.589,1.000,2687.000,156.000,189.000,98.000,0.000:
0000
0000
0000
0000
,
0000
0000
0000
0000
,
0000
0000
0000
0000
,
0000
0000
0000
0000
,
1001
0000
0001
0000
0010
0000
0100
1000
0000
0001
0000
0000
0010
0000
0001
0000
,
0100
0000
0100
0000
0010
0000
1000
0001
0010
0001
0010
0000
0100
0000
0100
0000
,
0010
0000
0001
1000
0001
1000
0001
0100
0010
1000
0010
0000
0100
0000
0100
0000
,
0010
0000
1000
0000
1000
0000
0010
1000
0010
1000
0001
0000
0010
0000
0010
0000
,
0100
0000
0100
0000
0010
0000
0001
1000
0010
1000
0010
0000
0100
0000
0100
0000
,
0100
0000
0100
0000
0010
0000
1000
0001
0010
0001
0010
0000
0100
0000
0100
0000
,
0010
0000
0001
1000
0001
1000
0001
0100
0010
1000
0010
0000
0100
0000
0100
0000
,
0010
0000
1000
0001
1000
0001
1000
0100
0010
0001
0010
0000
0100
0000
0100
0000
,
11M0
0000
1000
0000
0010
0000
0100
0001
1000
0001
0100
0000
0010
0000
1000
0000
,
0100
0000
0100
0000
0010
0000
0001
1000
0010
1000
0010
0000
0100
0000
0100
0000
,
0010
0000
1000
0001
1000
0001
1000
0100
0010
0001
0010
0000
0100
0000
0100
0000
,
0010
0000
0001
0000
0001
0000
0010
0001
0010
0001
1000
0000
0010
0000
0010
0000
,
0100
0000
0100
0000
0010
0000
1000
0001
0010
0001
0010
0000
0100
0000
0100
0000
,
0100
0000
0100
0000
0010
0000
0001
1000
0010
1000
0010
0000
0100
0000
0100
0000
,
001M
0000
1000
0001
1000
0001
1000
0100
0010
0001
0010
0000
0100
0000
0100
0000
,
1000
0001
1000
0001
0202
0303
1010
0000
,
1001
0000
0001
0000
0010
0000
0100
0000
1000
0000
0020
0000
0000
M03M
0010
0000
,
0001
0000
1000
0000
0010
0000
0100
0000
0001
0000
0020
0000
0000
M03M
0010
0000
,
1000
0000
0100
0000
0010
0000
0001
0000
0100
0000
0020
0000
0000
M03M
0010
0000
,
0001
0000
0100
0000
0010
0000
1000
0000
0100
0000
0020
0000
0000
M03M
0010
0000
,
1000
0000
0100
0000
0010
0000
0001
0000
1000
0000
0020
0000
0000
M03M
0010
0000
,
0001
0000
0100
0000
0010
0000
1000
0000
0001
0000
0020
0000
0000
M03M
0010
0000
,
1000
0000
0010
0000
0100
0000
0001
0000
1000
0000
0020
0000
0000
M03M
0010
0000
,
0001
0000
0100
0000
0001
0000
0010
0000
2200
0000
3300
0000
0022
0000
0000
0033
,
1001
0000
1000
0000
0100
0000
0010
0000
0001
0000
0200
0000
0000
M30M
0100
0000
,
1000
0000
0001
0000
0100
0000
0010
0000
1000
0000
0200
0000
0000
M30M
0100
0000
,
0001
0000
0010
0000
0100
0000
1000
0000
0010
0000
0200
0000
0000
M30M
0100
0000
,
1000
0000
0010
0000
0100
0000
0001
0000
0010
0000
0200
0000
0000
M30M
0100
0000
,
0001
0000
0010
0000
0100
0000
1000
0000
0001
0000
0200
0000
0000
M30M
0100
0000
,
1000
0000
0010
0000
0100
0000
0001
0000
1000
0000
0200
0000
0000
M30M
0100
0000
,
0001
0000
0200
0300
0010
0000
2000
3001
0010
0100
2000
3000
0001
0000
0001
0000
,
0400
0040
0000
0300
4030
0004
0000
3000
0023
0000
0030
0000
2200
0000
3300
0000
,
1001
0000
0001
0000
0100
0000
0010
0000
1000
0001
0020
0000
0000
M03M
0010
0000
,
1000
0000
0100
0000
0010
0000
0001
0000
1000
0001
0200
0000
0000
M30M
0100
0000
,
1000
0000
0010
0000
0100
0000
0001
0000
1000
0100
0020
0000
0000
M03M
0010
0000
,
1000
0000
0100
0000
0010
0000
0001
0000
1000
0010
0200
0000
0000
M30M
0100
0000
,
1000
0000
0010
0000
0100
0000
0001
0000
1000
0001
0020
0000
0000
M03M
0010
0000
,
1000
0000
0001
0000
1000
0000
0001
0000
0010
0001
0200
0000
0000
M30M
0100
0000
,
1000
0000
0010
0000
0100
0000
0001
0000
1000
0001
0020
0000
0000
M03M
0010
0000
,
1000
0000
0100
0000
0010
0000
0001
0000
0202
0000
0303
0000
2020
0000
0000
3030
,
1001
0000
1000
0000
0010
0000
0100
0000
0001
1000
0200
0000
0000
M30M
0100
0000
,
0001
0000
0010
0000
0100
0000
1000
0000
0001
1000
0020
0000
0000
M03M
0010
0000
,
0001
0000
0100
0000
0010
0000
1000
0000
0001
0010
0200
0000
0000
M30M
0100
0000
,
0001
0000
0010
0000
0100
0000
1000
0000
0001
0100
0020
0000
0000
M03M
0010
0000
,
0001
0000
0100
0000
0010
0000
1000
0000
0001
1000
0200
0000
0000
M30M
0100
0000
,
0001
0000
1000
0000
0001
0000
1000
0000
0100
1000
0020
0000
0000
M03M
0010
0000
,
0001
0000
0100
0000
0010
0000
1000
0000
0001
1000
0200
0000
0000
M30M
0100
0000
,
0001
0000
0001
0000
002M
0000
0030
02M0
0000
0000
0000
0000
0300
0000
0000
0000
,
1100
0000
1000
0000
0010
0000
0200
0000
0000
M30M
0100
0000
1000
0000
0001
0000
,
0100
0000
0010
0000
1000
0000
0200
0000
0000
M30M
0100
0000
0001
0000
1000
0000
,
0100
0000
0010
0000
0001
0000
0200
0000
0000
M30M
0100
0000
1000
0000
0001
0000
,
0100
0000
0010
0000
1000
0000
0200
0000
0000
M30M
0100
0000
0001
0000
0010
0000
,
0100
0000
1000
0000
0010
0000
0200
0000
0000
M30M
0100
0000
1000
0000
0001
0000
,
0100
0000
0010
0000
1000
0000
0200
0000
0000
M30M
0100
0000
0001
0000
1000
0000
,
0100
0000
0010
0000
0001
0000
0200
0000
0000
M30M
0100
0000
1000
0000
0001
0000
,
0100
0000
0010
0000
1000
0000
0100
0000
0020
0000
0030
0000
2200
0000
0000
3300
,
0011
0000
0001
0000
0100
0000
0020
0000
0000
M03M
0010
0000
0001
0000
1000
0000
,
0010
0000
0100
0000
0001
0000
0020
0000
0000
M03M
0010
0000
1000
0000
0001
0000
,
0010
0000
0100
0000
1000
0000
0020
0000
0000
M03M
0010
0000
0001
0000
1000
0000
,
0010
0000
0100
0000
0001
0000
0020
0000
0000
M03M
0010
0000
1000
0000
0100
0000
,
0010
0000
0001
0000
0100
0000
0020
0000
0000
M03M
0010
0000
0001
0000
1000
0000
,
0010
0000
0100
0000
0001
0000
0020
0000
0000
M03M
0010
0000
1000
0000
0001
0000
,
0010
0000
0000
0000
0000
0000
0200
0300
0000
0000
0000
0000
0000
0000
0000
0000
0000
0000
2200
0000
3300
0000
0000
0000
0000
0000
0000
0000
0000
0000
2020
0000
0000
0000
3030
0000
0000
0000
0000
0000
0000
0000
0202
0000
0003
0000
0000
0000
,
0304
4000
0000
0003
3400
0040
0000
0300
0032
0000
0003
0000
2002
0000
3003
0000
,
0001
0100
0010
1000
0010
1000
0001
0010
0100
1000
0100
1000
0001
0100
0020
0000
,
0130
0001
0010
0001
0010
0100
1000
0001
0100
0001
0100
0010
1000
0100
0020
0000
,
0130
1000
0010
0100
0010
0100
0001
1000
0100
0010
0100
0010
0001
1000
0020
0000
,
0130
0001
0010
0001
0010
0100
1000
0001
0100
0001
0100
0010
1000
0001
0020
0000
,
0130
1000
0010
0100
0010
0100
0001
1000
0100
0010
0100
0010
0001
1000
0020
0000
,
0130
0001
0010
0001
0010
0100
1000
0001
0100
0001
0100
0010
1000
0001
0020
0000
,
0130
1000
0010
0100
0010
0100
0001
1000
0100
0010
0100
0010
0001
1000
0020
0000
,
0130
0001
0010
0001
0010
0100
1000
0001
0400
0301
0400
0310
4000
3001
4000
3000
,
0001
0010
0100
1000
0100
1000
0001
0100
0010
1000
0010
1000
0001
0010
0200
0000
,
0310
0001
0100
0001
0100
0010
1000
0001
0010
0001
0010
0100
1000
0010
0200
0000
,
0310
1000
0100
0010
0100
0010
0001
1000
0010
0100
0010
0100
0001
1000
0200
0000
,
0310
0001
0100
0001
0100
0010
1000
0001
0010
0001
0010
0100
1000
0001
0200
0000
,
0310
1000
0100
0010
0100
0010
0001
1000
0010
0100
0010
0100
0001
1000
0200
0000
,
0310
0001
0100
0001
0100
0010
1000
0001
0010
0001
0010
0100
1000
0001
0200
0000
,
0310
1000
0100
0010
0100
0010
0001
1000
0010
0100
0010
0100
0001
1000
0200
0000
,
0340
0000
0004
0000
0000
0000
0030
0000
0403
0000
0040
0000
0000
0000
0300
0000
2030
3000
0000
0000
0000
0000
0000
0000
0022
0000
0000
0000
0033
0000
0000
0000
,
1001
0000
0000
0000
0001
0000
1000
0000
0100
0000
1000
0000
0001
0000
1000
0100
1000
0000
0000
0000
0001
0000
0100
0000
0010
0000
0100
0000
0001
0000
1000
0000
,
0200
0000
0000
0000
0300
0000
0020
0000
0000
0000
0030
0000
0002
0000
0000
0000
1003
0000
0000
0000
0010
0000
0000
0000
0100
0001
0100
0001
0100
0001
1000
0001
,
1000
0000
0000
0000
0100
0000
1000
0000
0001
0000
0100
0000
0010
0000
1000
0001
1000
0000
0000
0000
0001
0000
0010
0000
0100
0000
1000
0000
0010
0000
0100
0000
,
0002
0000
0000
0000
0000
0000
0023
0000
0000
0000
0000
0000
0230
0000
0000
0000
1300
0000
1000
0000
0001
0000
0001
0000
0100
0001
0100
0001
1000
0010
1000
0010
,
1M0M
0000
0000
0000
0010
0000
0100
0000
0001
0000
0010
0000
0001
0000
1000
0100
,
1000
0000
0001
0100
0010
1000
0001
0010
,
0200
0000
0000
2300
0000
0000
3001
0000
,
0100
0000
0000
0000
0010
0000
0000
0000
1000
0000
0001
0000
0100
0000
0010
0100
,
0010
0000
0000
0000
1000
0000
0001
0000
0010
0000
0100
0000
1000
0000
0001
0100
,
0001
0000
1000
0010
0100
0010
1000
0001
,
2000
0000
0000
3200
0000
0000
0320
0000
,
0031
0000
0000
0000
1000
0000
0000
0000
0001
0000
1000
0000
0010
0100
0010
0100
,
0001
0000
0001
1000
1100
0100
0110
0010
,
M001
0010
0001
0000
1000
0001
0100
0000
0010
0100
0001
0000
1000
0001
1000
0000
,
0100
1000
0001
0000
0100
0001
0100
0000
0010
1000
0010
0000
0100
0010
1000
0000
,
0001
0010
0100
0000
1000
0001
1000
0000
0001
0100
0010
0000
0100
0001
1000
0000
,
0100
1000
0001
0000
0010
0100
0010
0000
0100
1000
0100
0000
1000
0001
1000
0000
,
0010
0100
0001
0000
0010
0100
1000
0000
0100
0010
0001
0000
1000
0001
1000
0000
,
0010
0100
0001
0000
1000
0100
0010
0000
0100
1000
0001
0000
0100
0001
0100
0000
,
0010
1000
0001
0000
1000
0100
0010
0000
0100
1000
0001
0000
0010
0100
1000
0000
,
0001
0010
0001
0000
0100
0010
1000
0000
2200
0000
3300
0000
0022
0000
0033
0000
,
0M01
1000
0001
0000
1000
0001
0100
0000
0010
0100
0001
0000
1000
0001
1000
0000
,
0100
1000
0001
0000
0100
0001
0100
0000
0010
1000
0010
0000
0100
0010
1000
0000
,
0001
0010
0100
0000
1000
0001
1000
0000
0001
0100
0010
0000
0100
0001
1000
0000
,
0100
1000
0001
0000
0010
0100
0010
0000
0100
1000
0100
0000
1000
0001
1000
0000
,
0010
0100
0001
0000
0010
0100
1000
0000
0100
0010
0001
0000
1000
0001
1000
0000
,
0010
0100
0001
0000
1000
0100
0010
0000
0100
1000
0001
0000
0100
0001
0100
0000
,
0010
1000
0001
0000
1000
0100
0010
0000
0100
1000
0001
0000
0010
0100
1000
0000
,
0004
0400
0000
0003
0310
0000
1000
0000
0100
0000
0000
0000
0022
0000
0033
0000
,
1001
0000
0001
0000
1000
0000
1000
0000
0001
0000
1000
0100
1000
0000
0100
0010
,
0100
0000
0010
0001
1000
0000
0001
1000
0100
0000
1000
0001
1000
0000
0100
0000
,
1000
1000
0001
0001
0100
0100
0001
0001
,
0010
0000
0010
0000
0001
0000
0001
0000
1000
0001
1000
0000
0001
1000
0001
0000
,
0100
0000
0100
0000
0010
0000
0010
0000
1000
0000
0010
1000
0010
0000
0100
0001
,
1000
0000
0100
1000
0100
0000
0010
0001
0010
0000
0001
1000
0001
0000
1000
0000
,
0010
0010
0100
0100
0001
0001
1000
1000
,
0001
0001
0010
0010
2200
3300
0022
0033
,
1001
0000
0001
0000
1000
0000
1000
0000
0001
0000
1000
0100
1000
0000
0100
0010
,
0100
0000
0010
0001
1000
0000
0001
1000
0100
0000
1000
0001
1000
0000
0001
0000
,
1000
1000
0010
0010
0100
0100
0001
0001
,
0100
0000
0100
0000
0010
0000
0010
0000
1000
0001
1000
0000
0001
1000
0001
0000
,
0010
0000
0010
0000
0100
0000
0100
0000
1000
0000
0001
1000
0001
0000
1000
0001
,
0100
0000
0010
1000
0010
0000
0100
0001
1000
0000
0100
1000
0001
0000
0100
0000
,
0010
0000
0010
0000
1000
0000
1000
0000
0001
0000
0010
0001
0010
0000
0100
0000
,
1000
0000
1000
0000
0001
1000
0001
1000
0010
0000
0100
0000
0101
0000
0000
0000
,
1001
0000
0000
0000
,
1000
0000
0000
0000
1000
0001
1000
0001
1000
0000
0001
0000
1000
0000
0001
0000
,
0101
0000
0001
0000
0011
0000
0020
0000
0100
0030
0010
0000
0011
0000
0001
0000
,
1001
0000
1000
0000
1010
0000
0020
0000
1000
0030
0010
0000
2020
3030
1000
0000
,
1100
0000
0100
0000
0110
0000
0020
0000
0001
0030
0010
0000
0220
0330
0100
0000
,
1100
0000
0000
0000
1000
0000
0000
0000
1010
0000
0000
0000
0020
0000
0000
0000
0100
0000
0030
0000
0010
0000
0000
0000
2020
3030
0000
0000
2020
3030
0000
0000
,
1001
0000
1000
0000
1100
0000
0200
0000
0010
0300
0100
0000
1100
0000
1000
0000
,
1001
0000
0001
0000
0101
0000
0200
0000
0010
0300
0100
0000
0202
0303
0001
0000
,
1001
0000
1000
0000
1100
0000
0200
0000
0010
0300
0100
0000
2200
3300
1000
0000
,
1001
0001
0101
0200
0310
0000
2000
3000
,
0101
0000
0001
0000
0011
0000
0020
0000
0100
0030
0010
0000
0011
0000
0001
0000
,
1001
0000
1000
0000
1010
0000
0020
0000
1000
0030
0010
0000
2020
3030
1000
0000
,
1100
0000
0100
0000
0110
0000
0020
0000
0001
0030
0010
0000
0220
0330
0100
0000
,
1100
0000
0000
0000
1000
0000
0000
0000
1010
0000
0000
0000
0020
0000
0000
0000
0100
0000
0030
0000
0010
0000
0000
0000
2020
3030
0000
0000
2020
3030
0000
0000
,
1001
0000
1000
0000
1100
0000
0200
0000
0010
0300
0100
0000
1100
0000
1000
0000
,
1001
0000
0001
0000
0101
0000
0200
0000
0010
0300
0100
0000
0202
0303
0001
0000
,
1001
0000
1000
0000
1100
0000
0200
0000
0010
0300
0100
0000
2200
3300
1000
0000
,
2002
3003
0000
0000
2002
0000
0000
0000
3003
0000
0000
0000
2002
3003
0000
0000
2002
0000
0000
0000
3003
0000
0000
0000
M200
0300
0000
0000
0200
0300
0000
0000
,
0001
0100
0010
1000
0010
1000
0001
0010
0100
1000
0100
1000
0001
0100
0020
0000
,
0130
0001
0010
0001
0010
0100
1000
0001
0100
0001
0100
0010
1000
0100
0020
0000
,
0130
1000
0010
0100
0010
0100
0001
1000
0100
0010
0100
0010
0001
1000
0020
0000
,
0130
0001
0010
0001
0010
0100
1000
0001
0100
0001
0100
0010
1000
0001
0020
0000
,
0130
1000
0010
0100
0010
0100
0001
1000
0100
0010
0100
0010
0001
1000
0020
0000
,
0130
0001
0010
0001
0010
0100
1000
0001
0100
0001
0100
0010
1000
0001
0020
0000
,
0130
1000
0010
0100
0010
0100
0001
1000
0100
0010
0100
0010
0001
1000
0020
0000
,
0130
0001
0010
0001
0010
0100
1000
0001
0100
0001
0100
0010
1000
0001
0020
0000
,
0031
0100
0010
1000
0010
1000
0001
0010
0100
1000
0100
1000
0001
0100
0020
0000
,
0130
0001
0010
0001
0010
0100
1000
0001
0100
0001
0100
0010
1000
0100
0020
0000
,
0130
1000
0010
0100
0010
0100
0001
1000
0100
0010
0100
0010
0001
1000
0020
0000
,
0130
0001
0010
0001
0010
0100
1000
0001
0100
0001
0100
0010
1000
0001
0020
0000
,
0130
1000
0010
0100
0010
0100
0001
1000
0100
0010
0100
0010
0001
1000
0020
0000
,
0130
0001
0010
0001
0010
0100
1000
0001
0100
0001
0100
0010
1000
0001
0020
0000
,
0130
0000
0000
1000
0000
0000
0010
0000
0000
0100
0000
0000
0010
0000
0000
0100
0000
0000
0001
0000
0000
1000
0000
0000
0100
0000
0000
0010
0000
0000
0100
0000
0000
0010
0000
0000
0001
0000
0000
1000
0000
0000
0020
0000
0000
0000
0000
0030
,
0101
0000
0000
0000
0001
1000
0001
1000
0001
0000
1000
0000
0001
0000
1000
0000
,
2MM2
0003
3001
0000
1000
0100
0010
0000
0001
1000
0100
1000
0001
0010
0100
0010
,
0001
1000
0010
0000
1000
0001
0010
0000
0100
1000
0001
0010
0001
1000
0100
0010
,
0100
1000
0001
0000
1000
0001
0100
0000
0001
1000
0010
1000
0001
0100
0010
1000
,
0001
1000
0100
0000
0010
0001
0100
0000
0001
1000
0010
0100
0010
1000
0001
1000
,
0100
0010
0001
0000
1000
0001
0100
0000
0010
1000
0001
1000
0010
0100
0001
1000
,
0001
1000
0100
0000
1000
0001
0100
0000
0001
1000
0100
0010
0100
1000
0001
0010
,
0001
1000
0010
0000
1000
0100
0010
0000
0100
1000
0001
0100
0001
1000
0010
0000
,
0101
0101
0000
1010
1001
0000
1001
1001
,
0001
0100
0010
0000
1000
0100
0010
0000
0001
1000
0100
1000
0001
0010
0100
0010
,
0001
1000
0010
0000
1000
0001
0010
0000
0100
1000
0001
0010
0001
1000
0100
0010
,
0100
1000
0001
0000
1000
0001
0100
0000
0001
1000
0010
1000
0001
0100
0010
1000
,
0001
1000
0100
0000
0010
0001
0100
0000
0001
1000
0010
0100
0010
1000
0001
1000
,
0100
0010
0001
0000
1000
0001
0100
0000
0010
1000
0001
1000
0010
0100
0001
1000
,
0001
1000
0100
0000
1000
0001
0100
0000
0001
1000
0100
0010
0100
1000
0001
0010
,
0001
1000
0010
0000
1000
0100
0010
0000
0100
1000
0001
0100
0001
1000
0010
0000
,
1000
0000
0001
0000
0010
0000
0100
1000
0100
0000
0010
0000
0001
0000
1000
0000
,
1MM1
0000
0001
0000
0011
0000
0010
0100
0010
0000
0100
0000
1100
0000
1000
0000
,
1001
0000
0001
0000
0101
0000
0100
0010
0100
0000
0010
0000
1010
0000
1000
0000
,
1001
0000
0001
0000
0011
0000
0010
0100
0010
0000
0100
0000
1100
0000
1000
0000
,
1001
0000
0001
0000
0101
0000
0100
0010
0100
0000
0010
0000
1010
0000
1010
0000
,
1001
0000
0001
0000
0011
0000
0010
0100
0010
0000
0100
0000
1100
0000
1000
0000
,
1001
0000
0001
0000
0101
0000
0100
0010
0100
0000
0010
0000
1010
0000
1000
0000
,
1001
0000
0001
0000
0011
0000
0010
0100
0010
0000
0100
0000
1100
0000
1000
0000
,
1001
0000
0001
0000
0101
0000
0100
0010
0100
0000
0010
0000
1010
0000
1010
0000
,
1MM1
0000
1000
0000
1010
0000
0010
0100
0010
0000
0100
0000
0101
0000
0001
0000
,
1001
0000
1000
0000
1100
0000
0100
0010
0100
0000
0010
0000
0011
0000
0001
0000
,
1001
0000
1000
0000
1010
0000
0010
0100
0010
0000
0100
0000
0101
0000
0001
0000
,
1001
0000
1000
0000
1100
0000
0100
0010
0100
0000
0010
0000
0011
0000
0001
0000
,
1001
0000
1000
0000
1010
0000
0010
0100
0010
0000
0100
0000
0101
0000
0001
0000
,
1001
0000
1000
0000
1100
0000
0100
0010
0100
0000
0010
0000
0011
0000
0001
0000
,
1001
0000
1000
0000
1010
0000
0010
0100
0010
0000
0100
0000
0101
0000
0001
0000
,
1001
0000
1001
0000
1000
0000
0100
0010
0001
0000
1000
0000
1001
0000
1001
0000
,
0001
1000
0100
0000
0010
0000
0001
0100
0010
0000
1000
0000
0001
1000
0100
0000
,
0010
0001
1000
0000
0100
0000
0010
0001
0100
0000
0010
0000
1000
0001
0100
0000
,
0010
1000
0001
0000
0010
0000
0100
1000
0001
0000
0100
0000
0010
1000
0001
0000
,
1000
0010
0100
0000
0001
0000
0010
0100
1000
0000
0001
0000
1000
0001
1000
0000
,
0001
0010
0100
0000
1000
0000
0010
0100
0001
0000
1000
0000
0100
0010
0001
0000
,
1000
0001
0100
0000
0010
0000
1000
0100
0010
0000
0001
0000
1000
0001
0100
0000
,
0010
1000
0001
0000
0010
0000
0100
1000
0001
0000
0100
0000
0010
1000
0001
0000
,
1000
0100
0010
0000
0001
0000
0100
0010
1000
0000
0001
0000
0010
0100
0010
0000
,
0001
1000
0010
0100
0001
0010
0100
0010
0001
1000
0010
0100
0001
0000
1000
0000
,
0001
0100
0010
1000
0001
0010
0100
0010
0001
1000
0010
0100
0001
0000
0010
0000
,
0001
1000
0010
0100
0001
0010
0100
0010
0001
1000
0010
0100
0001
0000
1000
0000
,
0001
0100
0010
1000
0001
0010
0100
1000
0001
0000
0000
0000
0001
0000
0000
0000
,
1000
0010
0100
0001
1000
0001
0100
0010
1000
0001
1000
0001
0100
0001
1000
0010
,
0100
0001
0100
0010
1000
0010
1000
0001
0100
0001
1000
0010
0100
0010
1000
0001
,
0040
0030
0400
0300
0040
0030
0004
0003
4000
3000
0004
0003
0040
0030
0400
0300
4000
3000
0004
0003
0040
0030
0004
0003
0400
0300
0040
0030
4000
3000
0040
0030
,
0200
0000
0000
0000
0300
0000
0001
0000
1000
0000
0000
0000
0100
1000
0100
1000
,
00M2
0000
0000
0000
0013
0000
0001
0000
0010
0000
0100
0000
1000
0000
0001
1000
0001
0000
0000
0000
1000
0000
0010
0000
0100
0000
0001
0000
1000
0000
0001
0010
,
0100
0000
0000
0000
1000
0000
0001
0000
0000
0000
0010
0000
0001
0000
1000
0000
0001
0000
0000
0000
0100
0000
0000
0000
0010
1000
0010
1000
0001
1000
0001
1000
,
0100
0000
0000
0000
0010
0000
0001
0000
0010
0000
0100
0000
1000
0000
0001
1000
0001
0000
0000
0000
1000
0000
0001
0000
0100
0000
0010
0000
1000
0000
0001
1000
,
0100
0000
0000
0000
0010
0000
0001
0000
0000
0000
0100
0000
0001
0000
0000
0000
1000
0000
1000
0000
0100
0000
0100
0000
0010
0001
0010
0001
4000
0000
0000
3000
,
1MM1
0000
0000
0000
1000
0000
1000
0000
0010
0000
0010
0000
0100
0000
0001
0100
,
0001
0000
0000
0000
1000
0000
1000
0000
0100
0000
0100
0000
0010
0000
0001
1000
,
0010
0000
0010
0000
0100
0000
0001
0000
0001
0000
1000
0000
0100
0000
0010
0001
,
1000
0000
1000
0000
0010
0000
0000
0000
0100
0000
0100
0000
0010
1000
0010
1000
,
0001
0000
0001
0000
1000
0000
1000
0000
0100
0000
0100
0000
0010
0000
0100
1000
,
0001
0000
0100
0100
0010
0010
0100
0001
,
1000
0000
1000
0000
0100
0000
0010
0001
0010
0001
0010
0000
0100
0000
0100
0000
,
1000
0000
0000
0000
0001
0000
0000
1000
0001
1000
0001
1000
0100
0010
0001
0010
,
0002
0000
0000
0000
0000
0000
0003
0000
0100
0001
0100
0001
0100
0001
0100
0001
,
1000
0001
0100
0010
0100
0001
1000
0001
0100
0001
1000
0100
1000
0100
0010
0100
,
0010
0001
1000
0001
1000
0010
0100
0001
0100
0010
1000
0010
0100
0001
0100
0001
,
1000
0100
1000
0100
0010
0001
1000
0001
0100
0001
1000
0010
1000
0001
1000
0100
,
0010
0001
1000
0001
0010
0100
1000
0001
1000
0010
0100
0001
0100
0010
1000
0010
,
1000
0001
0100
0001
1000
0100
0010
0001
0010
0001
1000
0001
1000
0100
0010
0001
,
1000
0100
1000
0001
0100
0001
1000
0010
1000
0001
0010
0100
1000
0001
1000
0100
,
0010
0001
1000
0100
1000
0001
1000
0001
0100
0010
0100
0001
1000
0100
1000
0001
,
2000
3000
2020
3030
0220
0330
0202
0303
,
1000
0001
1000
0010
0100
0001
0100
0010
1000
0001
1000
0010
0100
0010
0100
0001
,
1000
0001
1000
0100
0010
0001
1000
0001
1000
0010
0100
0001
0100
0010
1000
0100
,
1000
0100
0010
0001
1000
0001
0010
0100
1000
0001
1000
0100
1000
0001
0100
0010
,
0100
0001
1000
0001
1000
0100
0010
0100
1000
0001
0100
0001
1000
0010
0100
0001
,
1000
0001
0100
0001
1000
0100
0010
0001
1000
0001
1000
0010
0100
0010
1000
0001
,
1000
0001
0100
0001
1000
0100
0010
0001
0010
0001
1000
0100
1000
0001
0010
0001
,
0100
0001
0100
0010
1000
0001
1000
0010
1000
0001
0020
0031
1000
0100
0010
0001
,
4000
0040
0000
3000
0430
0004
0000
0300
1003
0000
0001
0000
0010
0000
0001
0000
,
0100
0001
1000
0001
1000
0100
1000
0001
0100
0010
1000
0001
1000
0100
0010
0001
,
1000
0001
0010
0100
1000
0001
1000
0100
1000
0001
0100
0010
0100
0001
0010
0100
,
0010
0001
1000
0001
0010
0100
1000
0100
1000
0001
0100
0001
1000
0010
0100
0001
,
1000
0001
0010
0100
1000
0001
1000
0010
0100
0001
1000
0100
0010
0001
1000
0100
,
1000
0001
0010
0100
0010
0001
1000
0001
1000
0100
0010
0100
1000
0001
0100
0010
,
1000
0010
0100
0010
1000
0001
0100
0001
1000
0100
0010
0100
1000
0001
0010
0001
,
0100
0010
0100
0001
1000
0001
0010
0100
1000
0100
1000
0001
0100
0001
1000
0010
,
0100
0010
1000
0001
1000
0100
0010
0100
1000
0001
0010
0100
0010
0001
1000
0001
,
1000
0001
0100
0010
0100
0001
1000
0100
0010
0001
1000
0001
0010
0100
1000
0001
,
1000
0001
0100
0001
1000
0010
0100
0001
1000
0001
1000
0100
1000
0100
0010
0001
,
0100
0001
0100
0010
1000
0010
1000
0001
1000
0001
0010
0100
1000
0001
1000
0010
,
0100
0001
0100
0001
1000
0010
0100
0001
0100
0010
1000
0001
1000
0100
0010
0001
,
1000
0010
0100
0010
1000
0001
0100
0001
1000
0001
0010
0100
1000
0001
1000
0100
,
0010
0100
1000
0001
1000
0001
0010
0100
1000
0001
0100
0001
1000
0010
0100
0001
,
0010
0100
1000
0001
1000
0100
0010
0001
1000
0100
1000
0001
1000
0001
0100
0010
,
0400
0004
0000
0300
4003
0040
0000
3000
0130
0000
0001
0000
0010
0000
0100
0000
,
2200
3300
0000
0000
0000
0000
0000
0000
;

//---------------dance-single - 17- (TYLR)----------------
#NOTES:
     dance-single:
     17- (TYLR):
     Challenge:
     17:
     1.000,1.000,0.212,0.480,1.000,2926.000,68.000,154.000,65.000,0.000:
0000
0000
0000
0000
,
0000
0000
0000
0000
,
0000
0000
0000
0000
,
0000
0000
0000
0000
,
1001
0000
0001
0000
0010
0000
0100
1000
0000
0001
0000
0000
0010
0000
0001
0000
,
0100
0000
0100
0000
0010
0000
1000
0001
0010
0001
0010
0000
0100
0000
0100
0000
,
0010
0000
0001
1000
0001
1000
0001
0100
0010
1000
0010
0000
0100
0000
0100
0000
,
0010
0000
1000
0000
1000
0000
0010
1000
0010
1000
0001
0000
0010
0000
0010
0000
,
0100
0000
0100
0000
0010
0000
0001
1000
0010
1000
0010
0000
0100
0000
0100
0000
,
0100
0000
0100
0000
0010
0000
1000
0001
0010
0001
0010
0000
0100
0000
0100
0000
,
0010
0000
0001
1000
0001
1000
0001
0100
0010
1000
0010
0000
0100
0000
0100
0000
,
0010
0000
1000
0001
1000
0001
1000
0100
0010
0001
0010
0000
0100
0000
0100
0000
,
11M0
0000
1000
0000
0010
0000
0100
0001
1000
0001
0100
0000
0010
0000
1000
0000
,
0100
0000
0100
0000
0010
0000
0001
1000
0010
1000
0010
0000
0100
0000
0100
0000
,
0010
0000
1000
0001
1000
0001
1000
0100
0010
0001
0010
0000
0100
0000
0100
0000
,
0010
0000
0001
0000
0001
0000
0010
0001
0010
0001
1000
0000
0010
0000
0010
0000
,
0100
0000
0100
0000
0010
0000
1000
0001
0010
0001
0010
0000
0100
0000
0100
0000
,
0100
0000
0100
0000
0010
0000
0001
1000
0010
1000
0010
0000
0100
0000
0100
0000
,
001M
0000
1000
0001
1000
0001
1000
0100
0010
0001
0010
0000
0100
0000
0100
0000
,
1000
0001
1000
0001
0202
0303
1010
0000
,
1001
0000
0001
0000
0010
0000
0100
0000
1000
0000
0020
0000
0000
M03M
0010
0000
,
0001
0000
1000
0000
0010
0000
0100
0000
0001
0000
0020
0000
0000
M03M
0010
0000
,
1000
0000
0100
0000
0010
0000
0001
0000
0100
0000
0020
0000
0000
M03M
0010
0000
,
0001
0000
0100
0000
0010
0000
1000
0000
0100
0000
0020
0000
0000
M03M
0010
0000
,
1000
0000
0100
0000
0010
0000
0001
0000
1000
0000
0020
0000
0000
M03M
0010
0000
,
0001
0000
0100
0000
0010
0000
1000
0000
0001
0000
0020
0000
0000
M03M
0010
0000
,
1000
0000
0010
0000
0100
0000
0001
0000
1000
0000
0020
0000
0000
M03M
0010
0000
,
0001
0000
0100
0000
0001
0000
0010
0000
2200
0000
3300
0000
0022
0000
0000
0033
,
1001
0000
1000
0000
0100
0000
0010
0000
0001
0000
0200
0000
0000
M30M
0100
0000
,
1000
0000
0001
0000
0100
0000
0010
0000
1000
0000
0200
0000
0000
M30M
0100
0000
,
0001
0000
0010
0000
0100
0000
1000
0000
0010
0000
0200
0000
0000
M30M
0100
0000
,
1000
0000
0010
0000
0100
0000
0001
0000
0010
0000
0200
0000
0000
M30M
0100
0000
,
0001
0000
0010
0000
0100
0000
1000
0000
0001
0000
0200
0000
0000
M30M
0100
0000
,
1000
0000
0010
0000
0100
0000
0001
0000
1000
0000
0200
0000
0000
M30M
0100
0000
,
0001
0000
0200
0300
0010
0000
2000
3001
0010
0100
2000
3000
0001
0000
0001
0000
,
0400
0300
0040
0030
0400
0300
0040
0030
4000
3000
0004
0003
4000
3000
0004
0003
0020
0000
0000
0000
0030
0000
0000
0000
2200
0000
0000
0000
3300
0000
0000
0000
,
1001
0000
0001
0000
0100
0000
0010
0000
1000
0001
0020
0000
0000
M03M
0010
0000
,
1000
0000
0100
0000
0010
0000
0001
0000
1000
0001
0200
0000
0000
M30M
0100
0000
,
1000
0000
0010
0000
0100
0000
0001
0000
1000
0100
0020
0000
0000
M03M
0010
0000
,
1000
0000
0100
0000
0010
0000
0001
0000
1000
0010
0200
0000
0000
M30M
0100
0000
,
1000
0000
0010
0000
0100
0000
0001
0000
1000
0001
0020
0000
0000
M03M
0010
0000
,
1000
0000
0001
0000
1000
0000
0001
0000
0010
0001
0200
0000
0000
M30M
0100
0000
,
1000
0000
0010
0000
0100
0000
0001
0000
1000
0001
0020
0000
0000
M03M
0010
0000
,
1000
0000
0100
0000
0010
0000
0001
0000
0202
0000
0303
0000
2020
0000
0000
3030
,
1001
0000
1000
0000
0010
0000
0100
0000
0001
1000
0200
0000
0000
M30M
0100
0000
,
0001
0000
0010
0000
0100
0000
1000
0000
0001
1000
0020
0000
0000
M03M
0010
0000
,
0001
0000
0100
0000
0010
0000
1000
0000
0001
0010
0200
0000
0000
M30M
0100
0000
,
0001
0000
0010
0000
0100
0000
1000
0000
0001
0100
0020
0000
0000
M03M
0010
0000
,
0001
0000
0100
0000
0010
0000
1000
0000
0001
1000
0200
0000
0000
M30M
0100
0000
,
0001
0000
1000
0000
0001
0000
1000
0000
0100
1000
0020
0000
0000
M03M
0010
0000
,
0001
0000
0100
0000
0010
0000
1000
0000
0001
1000
0200
0000
0000
M30M
0100
0000
,
0001
0000
0000
0000
0001
0000
0000
00M0
0000
0000
0000
0000
0000
0000
0M00
0000
0000
0000
0000
0000
0000
0000
0000
0000
0000
0000
0000
0000
0000
0000
0000
0000
,
1100
1000
0010
0200
0301
0010
0100
1000
,
0001
0100
0010
2000
3001
0010
0100
1000
,
0001
0100
0010
2000
3001
0010
0100
1000
,
0001
0100
0010
2000
3010
0100
0001
0001
,
0010
0001
1000
0020
0130
0001
1000
0001
,
0100
0010
1000
0002
1003
0100
0010
0001
,
1000
0010
0100
0002
1003
0001
0010
0100
,
1000
0000
0001
0000
0100
0000
0010
0000
2020
0000
3030
0000
0022
0000
0000
0033
,
1100
1000
0010
0200
0301
0010
0100
1000
,
0001
0100
0010
2000
3001
0010
0100
1000
,
0001
0100
0010
2000
3001
0010
0100
1000
,
0001
0100
0010
2000
3010
0100
0001
0001
,
0010
0001
1000
0020
0130
0001
1000
0001
,
0100
0010
1000
0002
1003
0100
0010
0001
,
1000
0000
0000
0000
0000
0000
0000
0000
0000
0000
0000
0000
0000
0000
0000
0000
0000
0000
0000
0000
0000
0000
0000
0000
0020
0000
0000
0000
0000
0000
0030
0000
0000
0000
0000
0000
0000
0000
0000
0000
0000
0000
0000
0000
0000
0000
0000
0000
0000
0000
0000
0000
0000
0000
0000
0000
0000
0000
0000
0000
0000
0000
0000
0000
0000
0000
0000
0000
0000
0000
0000
0000
0220
0000
0000
0000
0000
0000
0000
0000
0000
0000
0000
0000
0330
0000
0000
0000
0000
0000
0000
0000
0000
0000
0000
0000
0000
0000
0000
0000
0000
0000
0000
0000
0000
0000
0000
0000
0000
0000
0000
0000
0000
0000
0000
0000
0000
0000
0000
0000
0202
0000
0000
0000
0000
0000
0000
0000
0000
0000
0000
0000
0000
0000
0000
0000
0000
0000
0303
0000
0000
0000
0000
0000
0000
0000
0000
0000
0000
0000
0000
0000
0000
0000
0000
0000
0000
0000
0000
0000
0000
0000
0000
0000
0000
0000
0000
0000
2002
0000
0000
0000
0000
0000
3000
0000
0003
0000
0000
0000
0000
0000
0000
0000
0000
0000
0000
0000
0000
0000
0000
0000
,
0004
0003
0040
0030
0004
0003
0040
0030
0400
0300
4000
3000
0400
0300
4000
3000
0020
0000
0000
0000
0030
0000
0000
0000
2002
0000
0000
0000
3003
0000
0000
0000
,
0001
0100
0010
1000
0010
1000
0001
0010
0100
1000
0100
1000
0001
0100
0020
0000
,
0130
0001
0010
0001
0010
0100
1000
0001
0100
0001
0100
0010
1000
0100
0020
0000
,
0130
1000
0010
0100
0010
0100
0001
1000
0100
0010
0100
0010
0001
1000
0020
0000
,
0130
0001
0010
0001
0010
0100
1000
0001
0100
0001
0100
0010
1000
0001
0020
0000
,
0130
1000
0010
0100
0010
0100
0001
1000
0100
0010
0100
0010
0001
1000
0020
0000
,
0130
0001
0010
0001
0010
0100
1000
0001
0100
0001
0100
0010
1000
0001
0020
0000
,
0130
1000
0010
0100
0010
0100
0001
1000
0100
0010
0100
0010
0001
1000
0020
0000
,
0130
0000
0001
0000
0010
0000
0001
0000
0010
0000
0100
0000
1000
0000
0001
0000
0400
0300
0001
0000
0100
0000
0010
0000
4000
3000
0001
0000
2000
0000
0000
0000
,
3001
0010
0100
1000
0100
1000
0001
0100
0010
1000
0010
1000
0001
0010
0200
0000
,
0310
0001
0100
0001
0100
0010
1000
0001
0010
0001
0010
0100
1000
0010
0200
0000
,
0310
1000
0100
0010
0100
0010
0001
1000
0010
0100
0010
0100
0001
1000
0200
0000
,
0310
0001
0100
0001
0100
0010
1000
0001
0010
0001
0010
0100
1000
0001
0200
0000
,
0310
1000
0100
0010
0100
0010
0001
1000
0010
0100
0010
0100
0001
1000
0200
0000
,
0310
0001
0100
0001
0100
0010
1000
0001
0010
0001
0010
0100
1000
0001
0200
0000
,
0310
1000
0100
0010
0100
0010
0001
1000
0010
0100
0010
0100
0001
1000
0200
0000
,
0340
0030
0004
0003
0040
0030
0004
0003
0400
0300
0040
0030
0400
0300
0040
0030
2000
3000
0000
0000
0000
0000
0000
0000
0022
0000
0000
0000
0033
0000
0000
0000
,
1001
0000
0000
0000
0001
0000
1000
0000
0100
0000
1000
0000
0001
0000
1000
0100
1000
0000
0000
0000
0001
0000
0100
0000
0010
0000
0100
0000
0001
0000
1000
0000
,
0200
0000
0000
0000
0300
0000
0020
0000
0000
0000
0030
0000
0002
0000
0000
0000
1003
0000
0000
0000
0010
0000
0000
0000
0100
0001
0100
0001
1000
0001
1000
0001
,
1000
0000
0000
0000
0100
0000
1000
0000
0001
0000
0100
0000
0010
0000
1000
0001
1000
0000
0000
0000
0001
0000
0010
0000
0100
0000
1000
0000
0010
0000
0100
0000
,
0002
0000
0000
0000
0000
0000
0023
0000
0000
0000
0000
0000
0230
0000
0000
0000
1300
0000
1000
0000
0001
0000
0001
0000
0100
0001
0100
0001
1000
0010
1000
0010
,
1M0M
0000
0000
0000
0010
0000
0100
0000
0001
0000
0010
0000
0001
0000
1000
0100
,
1000
0000
0001
0100
0010
1000
0001
0010
,
0200
0000
0000
2300
0000
0000
3001
0000
,
0100
0000
0000
0000
0010
0000
0000
0000
1000
0000
0001
0000
0100
0000
0010
0100
,
0010
0000
0000
0000
1000
0000
0001
0000
0010
0000
0100
0000
1000
0000
0001
0100
,
0001
0000
1000
0010
0100
0010
1000
0001
,
2000
0000
0000
3200
0000
0000
0320
0000
,
0031
0000
0000
0000
1000
0000
0000
0000
0001
0000
1000
0000
0010
0100
0010
0100
,
0001
0000
0001
1000
0100
0010
0001
1000
,
0001
0010
0001
1000
0100
0010
0100
1000
0001
0100
0001
1000
0010
0100
0010
1000
,
0001
0010
0001
0100
0010
1000
0010
0100
0001
1000
0001
0010
0100
1000
0100
0010
,
0001
0100
0001
1000
0010
0100
0010
1000
0001
0010
0001
1000
0100
0010
0100
1000
,
0001
0100
0001
0010
0100
1000
0100
0010
0001
1000
0001
0100
0010
1000
0010
1000
,
0001
0010
0001
1000
0100
0010
0100
1000
0001
0100
0001
1000
0010
0100
0010
1000
,
0001
0010
0001
0100
0010
1000
0010
0100
0001
1000
0001
0010
0100
1000
0100
0010
,
0001
0100
0001
1000
0010
0100
0010
1000
0001
0010
0001
1000
0100
0010
0100
1000
,
0001
0100
0001
0010
0100
1000
0100
0010
0002
0000
0003
0000
0202
0000
0303
0000
,
1000
0100
1000
0001
0010
0100
0010
0001
1000
0010
1000
0001
0100
0010
0100
0001
,
1000
0100
1000
0010
0100
0001
0100
0010
1000
0001
1000
0100
0010
0001
0010
0100
,
1000
0010
1000
0001
0100
0010
0100
0001
1000
0100
1000
0001
0010
0100
0010
0001
,
1000
0010
1000
0100
0010
0001
0010
0100
1000
0001
1000
0010
0100
0001
0100
0001
,
1000
0010
1000
0001
0100
0010
0100
0001
1000
0100
1000
0001
0010
0100
0010
0001
,
1000
0010
1000
0100
0010
0001
0010
0100
1000
0001
1000
0010
0100
0001
0100
0010
,
1000
0100
1000
0001
0010
0100
0010
0001
1000
0010
1000
0001
0100
0010
0100
0001
,
4000
3000
0400
0300
4000
3000
0400
0300
0010
0000
0000
0000
0000
0000
0000
0000
0010
0000
0000
0000
0000
0000
0000
0000
2002
0000
0000
0000
3003
0000
0000
0000
,
1001
0000
0001
0000
1000
0000
1000
0000
0001
0000
1000
0100
1000
0000
0100
0010
,
0100
0000
0010
0001
1000
0000
0001
1000
0100
0000
1000
0001
1000
0000
0100
0000
,
1000
1000
0001
0001
0100
0100
0001
0001
,
0010
0000
0010
0000
0001
0000
0001
0000
1000
0001
1000
0000
0001
1000
0001
0000
,
0100
0000
0100
0000
0010
0000
0010
0000
1000
0000
0010
1000
0010
0000
0100
0001
,
1000
0000
0100
1000
0100
0000
0010
0001
0010
0000
0001
1000
0001
0000
1000
0000
,
0010
0010
0100
0100
0001
0001
1000
1000
,
0001
0001
0010
0010
2200
3300
0022
0033
,
1001
0000
0001
0000
1000
0000
1000
0000
0001
0000
1000
0100
1000
0000
0100
0010
,
0100
0000
0010
0001
1000
0000
0001
1000
0100
0000
1000
0001
1000
0000
0001
0000
,
1000
1000
0010
0010
0100
0100
0001
0001
,
0100
0000
0100
0000
0010
0000
0010
0000
1000
0001
1000
0000
0001
1000
0001
0000
,
0010
0000
0010
0000
0100
0000
0100
0000
1000
0000
0001
1000
0001
0000
1000
0001
,
0100
0000
0010
1000
0010
0000
0100
0001
1000
0000
0100
1000
0001
0000
0100
0000
,
0010
0000
0010
0000
1000
0000
1000
0000
0001
0000
0010
0001
0010
0000
0100
0000
,
1000
0000
1000
0000
0001
1000
0001
1000
0010
0000
0100
0000
0101
0000
0000
0000
,
1001
0000
0000
0000
,
1000
0000
0000
0000
1000
0001
1000
0001
1000
0000
0001
0000
1000
0000
0001
0000
,
0101
0100
0010
1000
0200
1300
0010
0100
,
0001
1000
0100
0010
0001
0010
1200
1300
,
0001
0100
0010
1000
0001
1000
2010
3010
,
0100
0001
1002
1003
0100
1000
1001
1001
,
0001
0100
0010
1000
0100
1000
0010
0100
,
0001
1000
0100
0010
0001
0010
0220
0330
,
1100
1000
0001
0100
0010
0100
0201
0301
,
1000
0001
0010
0100
1000
0001
0202
0303
,
1001
1000
0010
0100
0002
0103
0010
1000
,
0001
1000
0100
0010
0001
0010
1200
1300
,
0001
0100
1020
1030
0001
1000
2100
3100
,
0010
0001
1000
0001
0010
0001
1001
1001
,
1000
0010
0100
0001
1000
0001
0100
0010
,
1000
0001
0010
0100
1000
0100
0220
0330
,
0011
0001
1000
0010
0100
0010
1020
1030
,
1001
1001
0000
0001
1001
0000
1000
1000
,
0001
0100
0010
1000
0010
1000
0001
0010
0100
1000
0100
1000
0001
0100
0020
0000
,
0130
0001
0010
0001
0010
0100
1000
0001
0100
0001
0100
0010
1000
0100
0020
0000
,
0130
1000
0010
0100
0010
0100
0001
1000
0100
0010
0100
0010
0001
1000
0020
0000
,
0130
0001
0010
0001
0010
0100
1000
0001
0100
0001
0100
0010
1000
0001
0020
0000
,
0130
1000
0010
0100
0010
0100
0001
1000
0100
0010
0100
0010
0001
1000
0020
0000
,
0130
0001
0010
0001
0010
0100
1000
0001
0100
0001
0100
0010
1000
0001
0020
0000
,
0130
1000
0010
0100
0010
0100
0001
1000
0100
0010
0100
0010
0001
1000
0020
0000
,
0130
0001
0010
0001
0010
0100
1000
0001
0100
0001
0100
0010
1000
0001
0020
0000
,
0031
0100
0010
1000
0010
1000
0001
0010
0100
1000
0100
1000
0001
0100
0020
0000
,
0130
0001
0010
0001
0010
0100
1000
0001
0100
0001
0100
0010
1000
0100
0020
0000
,
0130
1000
0010
0100
0010
0100
0001
1000
0100
0010
0100
0010
0001
1000
0020
0000
,
0130
0001
0010
0001
0010
0100
1000
0001
0100
0001
0100
0010
1000
0001
0020
0000
,
0130
1000
0010
0100
0010
0100
0001
1000
0100
0010
0100
0010
0001
1000
0020
0000
,
0130
0001
0010
0001
0010
0100
1000
0001
0100
0001
0100
0010
1000
0001
0020
0000
,
0130
0000
0000
1000
0000
0000
0010
0000
0000
0100
0000
0000
0010
0000
0000
0100
0000
0000
0001
0000
0000
1000
0000
0000
0100
0000
0000
0010
0000
0000
0100
0000
0000
0010
0000
0000
0001
0000
0000
1000
0000
0000
0020
0000
0000
0000
0000
0030
,
0101
0000
0000
0000
0001
1000
0001
1000
0001
0000
1000
0000
0001
0000
1000
0000
,
2MM2
0003
3001
0000
1000
0100
0010
0000
0001
1000
0100
1000
0001
0010
0100
0010
,
0001
1000
0010
0000
1000
0001
0010
0000
0100
1000
0001
0010
0001
1000
0100
0010
,
0100
1000
0001
0000
1000
0001
0100
0000
0001
1000
0010
1000
0001
0100
0010
1000
,
0001
1000
0100
0000
0010
0001
0100
0000
0001
1000
0010
0100
0010
1000
0001
1000
,
0100
0010
0001
0000
1000
0001
0100
0000
0010
1000
0001
1000
0010
0100
0001
1000
,
0001
1000
0100
0000
1000
0001
0100
0000
0001
1000
0100
0010
0100
1000
0001
0010
,
0001
1000
0010
0000
1000
0100
0010
0000
0100
1000
0001
0100
0001
1000
0010
0000
,
0101
0101
0000
1010
1001
0000
1001
1001
,
0001
0100
0010
0000
1000
0100
0010
0000
0001
1000
0100
1000
0001
0010
0100
0010
,
0001
1000
0010
0000
1000
0001
0010
0000
0100
1000
0001
0010
0001
1000
0100
0010
,
0100
1000
0001
0000
1000
0001
0100
0000
0001
1000
0010
1000
0001
0100
0010
1000
,
0001
1000
0100
0000
0010
0001
0100
0000
0001
1000
0010
0100
0010
1000
0001
1000
,
0100
0010
0001
0000
1000
0001
0100
0000
0010
1000
0001
1000
0010
0100
0001
1000
,
0001
1000
0100
0000
1000
0001
0100
0000
0001
1000
0100
0010
0100
1000
0001
0010
,
0001
1000
0010
0000
1000
0100
0010
0000
0100
1000
0001
0100
0001
1000
0010
0000
,
1000
0000
0001
0000
0010
0000
0100
1000
0100
0000
0010
0000
0001
0000
1000
0000
,
0001
0100
0001
1000
0010
1000
0100
0010
0001
1000
0001
0010
0100
1000
0001
1000
,
0001
0100
0001
1000
0010
1000
0100
0010
0001
1000
0001
0010
0100
1000
0001
1000
,
0001
0100
0001
1000
0010
1000
0100
0010
0001
1000
0001
0010
0100
1000
0001
1000
,
0001
0100
0001
1000
0010
1000
0100
0010
0001
1000
0001
0100
0010
1000
0010
1000
,
0001
0010
0001
1000
0100
1000
0010
0100
0001
1000
0001
0100
0010
1000
0001
1000
,
0001
0010
0001
1000
0100
1000
0010
0100
0001
1000
0001
0100
0010
1000
0001
1000
,
0001
0010
0001
1000
0100
1000
0010
0100
0001
1000
0001
0100
0010
1000
0001
1000
,
0001
0010
0001
1000
0100
1000
0010
0100
0001
1000
0001
0010
0100
1000
0100
1000
,
0001
0100
0001
1000
0010
1000
0100
0010
0001
1000
0001
0010
0100
1000
0001
1000
,
0001
0100
0001
1000
0010
1000
0100
0010
0001
1000
0001
0010
0100
1000
0001
1000
,
0001
0100
0001
1000
0010
1000
0100
0010
0001
1000
0001
0010
0100
1000
0001
1000
,
0001
0100
0001
1000
0010
1000
0100
0010
0001
1000
0001
0100
0010
1000
0010
1000
,
0001
0010
0001
1000
0100
1000
0010
0100
0001
1000
0001
0100
0010
1000
0001
1000
,
0001
0010
0001
1000
0100
1000
0010
0100
0001
1000
0001
0100
0010
1000
0001
1000
,
0001
0010
0001
1000
0100
1000
0010
0100
0001
1000
0001
0100
0010
1000
0001
1000
,
0001
1000
0000
0001
1000
0000
0001
0001
,
1000
0010
1000
0001
0100
0001
0010
0100
1000
0001
1000
0100
0010
0001
1000
0001
,
1000
0010
1000
0001
0100
0001
0010
0100
1000
0001
1000
0100
0010
0001
1000
0001
,
1000
0010
1000
0001
0100
0001
0010
0100
1000
0001
1000
0100
0010
0001
1000
0001
,
1000
0010
1000
0001
0100
0001
0010
0100
1000
0001
1000
0010
0100
0001
0100
0001
,
1000
0100
1000
0001
0010
0001
0100
0010
1000
0001
1000
0010
0100
0001
1000
0001
,
1000
0100
1000
0001
0010
0001
0100
0010
1000
0001
1000
0010
0100
0001
1000
0001
,
1000
0100
1000
0001
0010
0001
0100
0010
1000
0001
1000
0010
0100
0001
1000
0001
,
1000
0100
1000
0001
0010
0001
0100
0010
1000
0001
1000
0100
0010
0001
0010
0001
,
1000
0010
1000
0001
0100
0001
0010
0100
1000
0001
1000
0100
0010
0001
1000
0001
,
1000
0010
1000
0001
0100
0001
0010
0100
1000
0001
1000
0100
0010
0001
1000
0001
,
1000
0010
1000
0001
0100
0001
0010
0100
1000
0001
1000
0100
0010
0001
1000
0001
,
1000
0010
1000
0001
0100
0001
0010
0100
1000
0001
1000
0010
0100
0001
0100
0001
,
1000
0100
1000
0001
0100
0001
1000
0010
1000
0001
0010
0100
1000
0001
1000
0100
,
1000
0001
0100
0001
1000
0100
0010
0001
1000
0001
0010
0100
1000
0001
0100
0001
,
0010
0100
1000
0010
0100
0001
0010
0100
1000
0001
0100
0010
1000
0100
0010
0001
,
0200
0000
0000
0000
0300
0000
0001
0000
1000
0000
0000
0000
0100
1000
0100
1000
,
00M2
0000
0000
0000
0013
0000
0001
0000
0010
0000
0100
0000
1000
0000
0001
1000
0001
0000
0000
0000
1000
0000
0010
0000
0100
0000
0001
0000
1000
0000
0001
0010
,
0100
0000
0000
0000
1000
0000
0001
0000
0000
0000
0010
0000
0001
0000
1000
0000
0001
0000
0000
0000
0100
0000
0000
0000
0010
1000
0010
1000
0001
1000
0001
1000
,
0100
0000
0000
0000
0010
0000
0001
0000
0010
0000
0100
0000
1000
0000
0001
1000
0001
0000
0000
0000
1000
0000
0001
0000
0100
0000
0010
0000
1000
0000
0001
1000
,
0100
0000
0000
0000
0010
0000
0001
0000
0000
0000
0100
0000
0001
0000
0000
0000
1000
0000
1000
0000
0100
0000
0100
0000
0010
0001
0010
0001
4000
0000
0000
3000
,
1MM1
0000
0000
0000
1000
0000
1000
0000
0010
0000
0010
0000
0100
0000
0001
0100
,
0001
0000
0000
0000
1000
0000
1000
0000
0100
0000
0100
0000
0010
0000
0001
1000
,
0010
0000
0010
0000
0100
0000
0001
0000
0001
0000
1000
0000
0100
0000
0010
0001
,
1000
0000
1000
0000
0010
0000
0000
0000
0100
0000
0100
0000
0010
1000
0010
1000
,
0001
0000
0001
0000
1000
0000
1000
0000
0100
0000
0100
0000
0010
0000
0100
1000
,
0001
0000
0100
0100
0010
0010
0100
0001
,
1000
0000
1000
0000
0100
0000
0010
0001
0010
0001
0010
0000
0100
0000
0100
0000
,
1000
0000
0000
0000
0001
0000
0000
1000
0001
1000
0001
1000
0100
0010
0001
0010
,
0002
0000
0000
0000
0000
0000
0003
0000
0100
0001
0100
0001
0100
0001
0100
0001
,
1000
0001
0100
0010
0100
0001
1000
0001
0100
0001
1000
0100
1000
0100
0010
0100
,
0010
0001
1000
0001
1000
0010
0100
0001
0100
0010
1000
0010
0100
0001
0100
0001
,
1000
0100
1000
0100
0010
0001
1000
0001
0100
0001
1000
0010
1000
0001
1000
0100
,
0010
0001
1000
0001
0010
0100
1000
0001
1000
0010
0100
0001
0100
0010
1000
0010
,
1000
0001
0100
0001
1000
0100
0010
0001
0010
0001
1000
0001
1000
0100
0010
0001
,
1000
0100
1000
0001
0100
0001
1000
0010
1000
0001
0010
0100
1000
0001
1000
0100
,
0010
0001
1000
0100
1000
0001
1000
0001
0100
0010
0100
0001
1000
0100
1000
0001
,
2000
3000
2020
3030
0220
0330
0202
0303
,
1000
0001
1000
0010
0100
0001
0100
0010
1000
0001
1000
0010
0100
0010
0100
0001
,
1000
0001
1000
0100
0010
0001
1000
0001
1000
0010
0100
0001
0100
0010
1000
0100
,
1000
0100
0010
0001
1000
0001
0010
0100
1000
0001
1000
0100
1000
0001
0100
0010
,
0100
0001
1000
0001
1000
0100
0010
0100
1000
0001
0100
0001
1000
0010
0100
0001
,
1000
0001
0100
0001
1000
0100
0010
0001
1000
0001
1000
0010
0100
0010
1000
0001
,
1000
0001
0100
0001
1000
0100
0010
0001
0010
0001
1000
0100
1000
0001
0010
0001
,
0100
0001
0100
0010
1000
0001
1000
0010
1000
0001
0020
0031
1000
0100
0010
0001
,
4000
3040
4030
3040
0430
0304
0403
0304
1003
0000
0001
0000
0010
0000
0001
0000
,
0100
0001
1000
0001
1000
0100
1000
0001
0100
0010
1000
0001
1000
0100
0010
0001
,
1000
0001
0010
0100
1000
0001
1000
0100
1000
0001
0100
0010
0100
0001
0010
0100
,
0010
0001
1000
0001
0010
0100
1000
0100
1000
0001
0100
0001
1000
0010
0100
0001
,
1000
0001
0010
0100
1000
0001
1000
0010
0100
0001
1000
0100
0010
0001
1000
0100
,
1000
0001
0010
0100
0010
0001
1000
0001
1000
0100
0010
0100
1000
0001
0100
0010
,
1000
0010
0100
0010
1000
0001
0100
0001
1000
0100
0010
0100
1000
0001
0010
0001
,
0100
0010
0100
0001
1000
0001
0010
0100
1000
0100
1000
0001
0100
0001
1000
0010
,
0100
0010
1000
0001
1000
0100
0010
0100
1000
0001
0010
0100
0010
0001
1000
0001
,
1000
0001
0100
0010
0100
0001
1000
0100
0010
0001
1000
0001
0010
0100
1000
0001
,
1000
0001
0100
0001
1000
0010
0100
0001
1000
0001
1000
0100
1000
0100
0010
0001
,
0100
0001
0100
0010
1000
0010
1000
0001
1000
0001
0010
0100
1000
0001
1000
0010
,
0100
0001
0100
0001
1000
0010
0100
0001
0100
0010
1000
0001
1000
0100
0010
0001
,
1000
0010
0100
0010
1000
0001
0100
0001
1000
0001
0010
0100
1000
0001
1000
0100
,
0010
0100
1000
0001
1000
0001
0010
0100
1000
0001
0100
0001
1000
0010
0100
0001
,
0010
0100
1000
0001
1000
0100
0010
0001
1000
0100
1000
0001
1000
0001
0100
0010
,
0400
0304
0403
0304
4003
3400
4300
3400
0310
0000
0001
0000
0100
0000
0001
0000
,
2002
3003
0000
0000
;
