#TITLE:Turtle Eggs;
#SUBTITLE:IcyWorld;
#ARTIST:Totally Radd!!;
#TITLETRANSLIT:;
#SUBTITLETRANSLIT:;
#ARTISTTRANSLIT:;
#CREDIT:;
#BANNER:bn.JPG;
#BACKGROUND:bg.jpg;
#LYRICSPATH:;
#CDTITLE:CDTitle.png;
#MUSIC:eggs.ogg;
#OFFSET:0.000;
#SAMPLESTART:13.813;
#SAMPLELENGTH:11.980;
#SELECTABLE:YES;
#BPMS:0.000=139.007,4.000=139.000,34.000=139.007,38.000=139.000,69.000=139.007,73.000=139.000,104.000=139.007,108.000=139.000,139.000=139.007,143.000=139.000,173.000=139.007,177.000=139.000,208.000=139.007,212.000=139.000;
#STOPS:43.500=0.220
,44.500=0.220
,45.500=0.215
,74.000=0.220
,75.000=0.220
,76.000=0.215
;
#BGCHANGES:;
// cache tags:
#FIRSTBEAT:0.000;
#LASTBEAT:221.000;
#SONGFILENAME:Songs/IcyWorld MiniPack/Turtle Eggs and Mumblety Pegs IcyWorld/Turtle Eggs.sm;
#HASMUSIC:1;
#HASBANNER:1;
#MUSICLENGTH:101.870;
// end cache tags

//---------------dance-single - ----------------
#NOTES:
     dance-single:
     :
     Hard:
     3:
     1.000,1.000,1.000,1.000,0.854,580.000,177.000,229.000,0.000,70.000:
1100
1000
0010
0010
0101
0001
0100
0100
0001
0001
0010
0010
0100
0100
2000
0000
,
0010
0000
0000
3000
1100
0000
1000
0000
0010
0000
0010
0000
1100
0000
0100
0000
0011
0000
0001
0000
1010
0000
0010
0000
0100
0000
0100
0000
0011
0000
0010
0000
,
1100
1000
0100
0100
1010
0010
0100
0100
0001
0001
0010
0010
0100
0100
2000
0000
,
0010
0000
0000
3000
1100
0000
1000
0000
0010
0000
0010
0000
1100
0000
1000
0000
0011
0000
0001
0000
1010
0000
0010
0000
0100
0000
0100
0000
1010
0000
1000
0000
,
0101
0100
0010
0010
1001
0001
0100
0100
0001
0001
0010
0010
0100
0100
2000
0000
,
0010
0000
0000
3000
1100
0000
1000
0000
0010
0000
0010
0000
1100
0000
0100
0000
0011
0000
0001
0000
1010
0000
0010
0000
0100
0000
0100
0000
0011
0000
0010
0000
,
1100
1000
0100
0100
1010
0010
0100
0100
0001
0001
0010
0010
0100
0100
2000
0000
,
0010
0000
0000
3000
1100
0000
1000
0000
0010
0000
0010
0000
1100
0000
1000
0000
0101
0000
0101
0000
0110
0000
0010
0000
0101
0000
0101
0000
1001
0000
1001
0000
,
1012
0100
0013
0100
1010
0100
0012
0100
0013
0100
0012
0100
1010
0100
1010
0100
,
1000
0100
1010
0100
1010
0100
1013
0100
1002
0100
1013
0100
1012
0100
1003
0100
,
1012
0000
0000
0000
0100
0000
0000
0000
1013
0000
0000
0000
0100
0000
0000
0000
1010
0000
0000
0000
0100
0000
0000
0000
2010
0000
0000
0000
0100
0000
0000
0000
3010
0000
0000
0000
0100
0000
0000
0000
2011
0000
0000
0000
0100
0000
0000
0000
3011
0000
0000
0000
0100
0000
0000
0000
2010
3000
0000
0000
0000
0000
0000
0000
,
1100
0000
1100
0000
1100
0000
1100
0000
1010
1100
0012
0100
0013
0100
1010
0100
,
0012
0100
0013
0100
0012
0100
1013
0100
1010
0100
1000
0100
1001
0100
1001
0100
,
1000
0100
1020
0100
1031
0100
1021
0100
1030
0100
1021
0100
0031
0100
1001
0100
,
0021
0100
0031
0100
1021
0100
1031
0100
1002
0100
0010
0100
1010
0100
1010
0100
,
0010
0100
1010
1000
1003
0000
0100
0100
0100
0100
0012
0010
0103
0100
0010
0010
,
1200
1000
0310
0010
0102
0100
0010
0010
1000
1000
0010
0010
0100
0100
0013
0010
,
1000
1000
0021
0001
0130
0100
0012
0010
1003
1000
0012
0010
0103
0100
0010
0010
,
1200
0000
0000
0000
1000
0000
0000
0000
0310
0000
0000
0000
0010
0000
0000
0000
0102
0000
0000
0000
0100
0000
0000
0000
0013
0000
0000
0000
0010
0000
0000
0000
1200
0300
0000
0000
0000
0000
0000
0000
1100
0000
0000
0000
0000
0000
0000
0000
1100
0000
0000
0000
0000
0000
0000
0000
1100
0000
0000
0000
0000
0000
0000
0000
,
1100
0000
1000
0100
0012
0010
0103
0100
0010
0010
1200
1000
0310
0010
0102
0100
,
0010
0010
1000
1000
0010
0010
0100
0100
0013
0010
1000
1000
0021
0001
0130
0100
,
0012
0010
1003
1000
2010
0010
3100
0100
0010
0010
1002
1000
0013
0010
0102
0100
,
0013
0010
1002
1000
0010
0010
0100
0100
0013
0010
1000
1000
2001
3001
2001
3000
,
2001
3001
2001
3001
2001
0000
0000
3000
0100
0000
0000
0000
1200
0000
0320
0000
,
0031
0000
0200
0000
0001
0300
0000
0000
0100
0000
0000
0000
1200
0000
0320
0000
,
0031
0000
0200
0000
0001
0300
0000
0000
0120
0000
0030
0000
1002
0000
1023
0000
,
1230
0000
0000
0300
0021
0000
0000
0030
0102
0000
0023
0000
1000
0030
0200
0000
,
0010
0300
0000
0000
2001
0000
3000
0000
0100
0000
0000
0000
1200
0000
0320
0000
,
0031
0000
0200
0000
0001
0300
0000
0000
0100
0000
0000
0000
1200
0000
0320
0000
,
0031
0000
0200
0000
0001
0300
0000
0000
0120
0000
0030
0000
1002
0000
1023
0000
,
1230
0000
0000
0300
0021
0000
0000
0030
0102
0000
0023
0000
1000
0030
0200
0000
,
0011
0301
0001
0001
2001
0000
3000
0000
0100
0000
0000
0000
1200
0000
0320
0000
,
0031
0000
0200
0000
0001
0300
0000
0000
0100
0000
0000
0000
1200
0000
0320
0000
,
0031
0000
0200
0000
0001
0300
0000
0000
0120
0000
0030
0000
1002
0000
1023
0000
,
1230
0000
0000
0300
0021
0000
0000
0030
0102
0000
0023
0000
1000
0030
0200
0000
,
0010
0300
0000
0000
2001
0000
3000
0000
0100
0000
0000
0000
0201
0000
0320
0000
,
0031
0000
0200
0000
0010
0300
0000
0000
0100
0000
0000
0000
1200
0000
0320
0000
,
1030
0002
0000
0023
0000
0230
0000
2320
,
0000
0000
0000
0000
0000
0000
0000
0000
3232
0000
0000
0000
0000
0000
0000
0000
0000
0000
0000
0000
0000
0000
0000
0000
2323
0000
0000
0000
0000
0000
0000
0000
0000
0000
0000
0000
0000
0000
0000
3000
2032
0000
0000
0000
0000
0000
0000
0000
0000
0000
0000
0000
0000
0000
0000
0000
3223
0000
0000
0000
0000
0000
0000
0000
,
2331
0000
0000
0000
0001
0000
0000
0000
0001
0000
0000
0000
0001
0000
0000
3000
2001
0000
0000
0000
0000
0000
0000
0000
3020
0000
0000
0000
0000
0000
0000
0000
0132
0000
0000
0000
0000
0000
0000
0000
0203
0000
0000
0000
0000
0000
0000
0000
0302
0000
0000
0000
0000
0000
0000
0000
0023
0000
0000
0000
0000
0000
0000
0000
,
0231
0000
0000
0000
2300
0000
0000
0000
0010
0000
0000
3000
2000
0000
0000
0000
3021
0000
0000
0000
0230
0000
0000
0000
0302
0000
0000
0000
0023
0000
0000
0000
,
1230
0320
2030
3200
0321
0230
0302
0023
,
0231
0000
0000
0000
2300
0000
0000
0000
0010
0000
0000
3000
2000
0000
0000
0000
3021
0000
0000
0000
2030
0000
0000
0000
3002
0000
0000
0000
0023
0000
0000
0000
,
0231
2300
3200
0320
1032
0203
0302
0023
,
0231
0000
0000
0000
2300
0000
0000
0000
0010
0000
0000
3000
2000
0000
0000
0000
3021
0000
0000
0000
0230
0000
0000
0000
0302
0000
0000
0000
0023
0000
0000
0000
,
1230
0320
2030
3200
0321
0230
0302
0023
,
1230
0000
0000
0000
2300
0000
0000
0000
0010
0000
0000
3000
2000
0000
0000
0000
3021
0000
0000
0000
2030
0000
0000
0000
3002
0000
0000
0000
0023
0000
0000
0000
,
1231
0001
2301
0001
3201
0000
0320
0000
1032
0000
0203
0000
0302
0000
0023
0000
,
1230
0000
0000
0000
2300
0000
0000
0000
0010
0000
0000
3000
2000
0000
0000
0000
3021
0000
0000
0000
0230
0000
0000
0000
0302
0000
0000
0000
0023
0000
0000
0000
,
1230
0320
2030
3200
0321
0230
0302
0023
,
1230
0000
0000
0000
2300
0000
0000
0000
0010
0000
0000
3000
2000
0000
0000
0000
3021
0000
0000
0000
2030
0000
0000
0000
3002
0000
0000
0000
0023
0000
0000
0000
,
0231
2300
3200
0320
1032
0203
0302
0023
,
0231
0000
0000
0000
2300
0000
0000
0000
0010
0000
0000
3000
2000
0000
0000
0000
3021
0000
0000
0000
0230
0000
0000
0000
0302
0000
0000
0000
0023
0000
0000
0000
,
1230
0320
2030
3200
0321
0230
0302
0023
,
1230
0000
0000
0000
2300
0000
0000
0000
0010
0000
0000
3000
2000
0000
0000
0000
3021
0000
0000
0000
2030
0000
0000
0000
3002
0000
0000
0000
0023
0000
0000
0000
,
1231
0001
2301
0001
3111
0000
0000
0000
0000
0000
0000
0000
0000
0000
0000
0000
;

//---------------dance-single - Copied from Copied f----------------
#NOTES:
     dance-single:
     Copied from Copied f:
     Medium:
     2:
     1.000,1.000,1.000,1.000,0.854,580.000,156.000,229.000,0.000,51.000:
1100
1000
0010
0010
0101
0001
0100
0100
0001
0001
0010
0010
0100
0100
2000
0000
,
0010
0000
0000
3000
1100
0000
1000
0000
0010
0000
0010
0000
1100
0000
0100
0000
0011
0000
0001
0000
1010
0000
0010
0000
0100
0000
0100
0000
0011
0000
0010
0000
,
1100
1000
0100
0100
1010
0010
0100
0100
0001
0001
0010
0010
0100
0100
2000
0000
,
0010
0000
0000
3000
1100
0000
1000
0000
0010
0000
0010
0000
1100
0000
1000
0000
0011
0000
0001
0000
1010
0000
0010
0000
0100
0000
0100
0000
1010
0000
1000
0000
,
0101
0100
0010
0010
1001
0001
0100
0100
0001
0001
0010
0010
0100
0100
2000
0000
,
0010
0000
0000
3000
1100
0000
1000
0000
0010
0000
0010
0000
1100
0000
0100
0000
0011
0000
0001
0000
1010
0000
0010
0000
0100
0000
0100
0000
0011
0000
0010
0000
,
1100
1000
0100
0100
1010
0010
0100
0100
0001
0001
0010
0010
0100
0100
2000
0000
,
0010
0000
0000
3000
1100
0000
1000
0000
0010
0000
0010
0000
1100
0000
1000
0000
0101
0000
0101
0000
0110
0000
0010
0000
0101
0000
0101
0000
1001
0000
1001
0000
,
1012
0100
0013
0100
0010
0100
0012
0100
0013
0100
0012
0100
0010
0100
0010
0100
,
1000
0100
1000
0100
1000
0100
1003
0100
1002
0100
1003
0100
1002
0100
1003
0100
,
0012
0000
0000
0000
0100
0000
0000
0000
0013
0000
0000
0000
0100
0000
0000
0000
0010
0000
0000
0000
0100
0000
0000
0000
2010
0000
0000
0000
0100
0000
0000
0000
3010
0000
0000
0000
0100
0000
0000
0000
2010
0000
0000
0000
0100
0000
0000
0000
3010
0000
0000
0000
0100
0000
0000
0000
2010
3000
0000
0000
0000
0000
0000
0000
,
1100
0000
1100
0000
1100
0000
1100
0000
1010
1100
0012
0100
0013
0100
0010
0100
,
0012
0100
0013
0100
0012
0100
0013
0100
0010
0100
1000
0100
1000
0100
1000
0100
,
1000
0100
1020
0100
1030
0100
1020
0100
1030
0100
0021
0100
0031
0100
0001
0100
,
0021
0100
0031
0100
0021
0100
0031
0100
0002
0100
0010
0100
0010
0100
0010
0100
,
0010
0100
1010
1000
1003
0000
0100
0100
0100
0100
0012
0010
0103
0100
0010
0010
,
1200
1000
0310
0010
0102
0100
0010
0010
1000
1000
0010
0010
0100
0100
0013
0010
,
1000
1000
0021
0001
0130
0100
0012
0010
1003
1000
0012
0010
0103
0100
0010
0010
,
1200
0000
0000
0000
1000
0000
0000
0000
0310
0000
0000
0000
0010
0000
0000
0000
0102
0000
0000
0000
0100
0000
0000
0000
0013
0000
0000
0000
0010
0000
0000
0000
1200
0300
0000
0000
0000
0000
0000
0000
1100
0000
0000
0000
0000
0000
0000
0000
1100
0000
0000
0000
0000
0000
0000
0000
1100
0000
0000
0000
0000
0000
0000
0000
,
1100
0000
1000
0100
0012
0010
0103
0100
0010
0010
1200
1000
0310
0010
0102
0100
,
0010
0010
1000
1000
0010
0010
0100
0100
0013
0010
1000
1000
0021
0001
0130
0100
,
0012
0010
1003
1000
2010
0010
3100
0100
0010
0010
1002
1000
0013
0010
0102
0100
,
0013
0010
1002
1000
0010
0010
0100
0100
0013
0010
1000
1000
2001
3001
2001
3000
,
2001
3001
2001
3001
2001
0000
0000
3000
0100
0000
0000
0000
1200
0000
0320
0000
,
0031
0000
0200
0000
0001
0300
0000
0000
0100
0000
0000
0000
1200
0000
0320
0000
,
0031
0000
0200
0000
0001
0300
0000
0000
0120
0000
0030
0000
1002
0000
1023
0000
,
1230
0000
0000
0300
0021
0000
0000
0030
0102
0000
0023
0000
1000
0030
0200
0000
,
0010
0300
0000
0000
2001
0000
3000
0000
0100
0000
0000
0000
1200
0000
0320
0000
,
0031
0000
0200
0000
0001
0300
0000
0000
0100
0000
0000
0000
1200
0000
0320
0000
,
0031
0000
0200
0000
0001
0300
0000
0000
0120
0000
0030
0000
1002
0000
1023
0000
,
1230
0000
0000
0300
0021
0000
0000
0030
0102
0000
0023
0000
1000
0030
0200
0000
,
0011
0301
0001
0001
2001
0000
3000
0000
0100
0000
0000
0000
1200
0000
0320
0000
,
0031
0000
0200
0000
0001
0300
0000
0000
0100
0000
0000
0000
1200
0000
0320
0000
,
0031
0000
0200
0000
0001
0300
0000
0000
0120
0000
0030
0000
1002
0000
1023
0000
,
1230
0000
0000
0300
0021
0000
0000
0030
0102
0000
0023
0000
1000
0030
0200
0000
,
0010
0300
0000
0000
2001
0000
3000
0000
0100
0000
0000
0000
0201
0000
0320
0000
,
0031
0000
0200
0000
0010
0300
0000
0000
0100
0000
0000
0000
1200
0000
0320
0000
,
1030
0002
0000
0023
0000
0230
0000
2320
,
0000
0000
0000
0000
0000
0000
0000
0000
3232
0000
0000
0000
0000
0000
0000
0000
0000
0000
0000
0000
0000
0000
0000
0000
2323
0000
0000
0000
0000
0000
0000
0000
0000
0000
0000
0000
0000
0000
0000
3000
2032
0000
0000
0000
0000
0000
0000
0000
0000
0000
0000
0000
0000
0000
0000
0000
3223
0000
0000
0000
0000
0000
0000
0000
,
2331
0000
0000
0000
0001
0000
0000
0000
0001
0000
0000
0000
0001
0000
0000
3000
2001
0000
0000
0000
0000
0000
0000
0000
3020
0000
0000
0000
0000
0000
0000
0000
0132
0000
0000
0000
0000
0000
0000
0000
0203
0000
0000
0000
0000
0000
0000
0000
0302
0000
0000
0000
0000
0000
0000
0000
0023
0000
0000
0000
0000
0000
0000
0000
,
0231
0000
0000
0000
2300
0000
0000
0000
0010
0000
0000
3000
2000
0000
0000
0000
3021
0000
0000
0000
0230
0000
0000
0000
0302
0000
0000
0000
0023
0000
0000
0000
,
1230
0320
2030
3200
0321
0230
0302
0023
,
0231
0000
0000
0000
2300
0000
0000
0000
0010
0000
0000
3000
2000
0000
0000
0000
3021
0000
0000
0000
2030
0000
0000
0000
3002
0000
0000
0000
0023
0000
0000
0000
,
0231
2300
3200
0320
1032
0203
0302
0023
,
0231
0000
0000
0000
2300
0000
0000
0000
0010
0000
0000
3000
2000
0000
0000
0000
3021
0000
0000
0000
0230
0000
0000
0000
0302
0000
0000
0000
0023
0000
0000
0000
,
1230
0320
2030
3200
0321
0230
0302
0023
,
1230
0000
0000
0000
2300
0000
0000
0000
0010
0000
0000
3000
2000
0000
0000
0000
3021
0000
0000
0000
2030
0000
0000
0000
3002
0000
0000
0000
0023
0000
0000
0000
,
1231
0001
2301
0001
3201
0000
0320
0000
1032
0000
0203
0000
0302
0000
0023
0000
,
1230
0000
0000
0000
2300
0000
0000
0000
0010
0000
0000
3000
2000
0000
0000
0000
3021
0000
0000
0000
0230
0000
0000
0000
0302
0000
0000
0000
0023
0000
0000
0000
,
1230
0320
2030
3200
0321
0230
0302
0023
,
1230
0000
0000
0000
2300
0000
0000
0000
0010
0000
0000
3000
2000
0000
0000
0000
3021
0000
0000
0000
2030
0000
0000
0000
3002
0000
0000
0000
0023
0000
0000
0000
,
0231
2300
3200
0320
1032
0203
0302
0023
,
0231
0000
0000
0000
2300
0000
0000
0000
0010
0000
0000
3000
2000
0000
0000
0000
3021
0000
0000
0000
0230
0000
0000
0000
0302
0000
0000
0000
0023
0000
0000
0000
,
1230
0320
2030
3200
0321
0230
0302
0023
,
1230
0000
0000
0000
2300
0000
0000
0000
0010
0000
0000
3000
2000
0000
0000
0000
3021
0000
0000
0000
2030
0000
0000
0000
3002
0000
0000
0000
0023
0000
0000
0000
,
1231
0001
2301
0001
3111
0000
0000
0000
0000
0000
0000
0000
0000
0000
0000
0000
;
