#TITLE:Shiawase no Kotodama;
#SUBTITLE:Wagaya no Oinarisama. ED2;
#ARTIST:Yukana, Hayami Saori, Takahashi Mikako;
#TITLETRANSLIT:;
#SUBTITLETRANSLIT:;
#ARTISTTRANSLIT:;
#CREDIT:;
#BANNER:;
#BACKGROUND:;
#LYRICSPATH:;
#CDTITLE:;
#MUSIC:Wagaya no Oinari-sama ed 2 - A.mp3;
#OFFSET:0.000;
#SAMPLESTART:36.419;
#SAMPLELENGTH:12.000;
#SELECTABLE:YES;
#BPMS:0.000=165.020;
#STOPS:0.000=0.060
;
#BGCHANGES:0.000=Wagaya no Oinari-sama ed 2 - A.avi=1.000=0=0=1,
99999=-nosongbg-=1.000=0=0=0 // don't automatically add -songbackground-
;
// cache tags:
#FIRSTBEAT:0.500;
#LASTBEAT:246.500;
#SONGFILENAME:Songs/toune 8/Wagaya no Oinari-sama ed 2 - A/Wagaya no Oinari-sama ed 2 - A.sm;
#HASMUSIC:1;
#HASBANNER:0;
#MUSICLENGTH:90.312;
// end cache tags

//---------------dance-single - ----------------
#NOTES:
     dance-single:
     :
     Hard:
     9:
     0.766,0.751,0.498,0.155,0.155,425.000,45.000,14.000,0.000,0.000:
0000
1001
0000
0000
0000
0000
0000
0000
,
0000
1000
0000
0000
0000
0100
0000
0000
,
0000
0010
0000
0000
0000
0000
0000
0000
,
0000
0000
0011
0000
0010
0100
0000
0000
0000
0000
1010
0000
1000
0010
0000
1000
,
0010
0101
0000
0000
0000
0000
0000
0010
,
0000
0000
1010
0000
1000
0010
0000
1000
0010
0000
0100
0000
0000
0000
0010
0000
,
0000
1010
0000
0000
0000
0110
0000
0000
,
0000
0101
0100
0001
0100
0001
0000
0101
,
0000
0000
1010
0000
1000
0010
1000
0000
0100
0000
0010
0000
0001
0000
1000
0000
,
0001
0000
0100
0000
0001
0100
0010
0000
0001
1000
0001
0000
1000
0000
0010
0000
,
1000
0000
0010
0000
1000
0010
0100
0000
0001
0000
0100
0000
0010
0000
1000
0000
,
0001
0000
0100
0001
0100
0001
0100
0000
0010
0000
1000
0000
0001
0000
0100
0000
,
0010
0000
1010
0000
1000
0010
1000
0000
0100
0000
0001
0000
0100
0000
0010
0000
,
0100
0000
0101
0000
0001
0100
0001
0000
0010
0000
1000
0000
0010
0000
1000
0000
,
0100
0000
1100
0000
1000
0100
1000
0000
0010
0000
0001
0000
0010
0000
0001
0000
,
0010
0000
0011
0000
0010
0001
0010
0000
0001
0010
0200
0000
0000
0000
0000
0000
,
0300
1100
0000
0100
1000
0010
0100
0001
,
1000
0010
1000
0001
0100
0010
1000
0100
,
0010
0001
0010
0100
1000
0001
0100
0010
,
0100
0000
0010
0000
1000
0000
0100
0000
0010
0000
0100
0000
0001
0100
0001
0000
,
0100
1001
1000
0010
1000
0100
1000
0001
,
0100
0010
1000
0100
0001
0100
1000
0010
,
0100
0101
0100
0001
1000
0010
1000
0100
,
0001
0000
0100
0000
0001
1000
0010
1000
0010
0000
1000
0010
1000
0010
0100
0000
,
0000
0101
0100
0001
0100
0010
1000
0100
,
0010
1000
0100
1000
0001
0100
0001
1000
,
0010
0100
0001
0010
1000
0010
0100
0001
,
1000
0100
1000
0010
1000
0001
0100
0001
,
0010
0100
0001
1000
0010
1000
0100
1000
,
0001
1000
0010
0100
0001
0010
0001
0001
,
1000
0000
1001
0000
1000
0010
1000
0000
0010
1000
0010
0000
0100
0001
0100
0000
,
0001
0100
0001
0000
1000
0000
0100
0000
0010
0000
0001
0000
0100
0000
0010
0000
,
0001
0011
0000
0010
0001
0100
0010
1000
,
0010
1000
0010
0100
0001
0010
0000
0100
,
0001
0100
0010
1010
1000
0100
1000
0010
,
0100
0001
0100
0001
0100
0010
1000
0100
,
1000
1100
0000
1000
0001
1000
0001
0100
,
0001
0100
0001
1000
0010
1000
0010
1010
,
0000
0110
0000
0000
0000
0101
0000
0000
,
0000
1010
0000
0000
0000
2002
0000
0000
,
0000
0000
0000
0000
0000
3003
1010
1010
,
1010
1000
0010
0001
0100
0001
0100
0010
,
1000
0001
0100
0010
1000
0010
1000
0100
,
1000
0020
0000
0130
0002
0000
1003
0001
,
0000
0101
0000
0101
0000
0101
0000
0001
,
0100
0001
0100
0001
1000
0010
1000
0010
,
1000
0010
0100
0001
1000
0100
0010
0100
,
0010
0002
0000
0103
0020
0000
1030
0010
,
0000
1100
0000
1100
0000
1100
0100
1000
,
0100
1000
0100
1000
0001
0100
0010
1000
,
0010
0100
0001
1000
0010
0100
1000
0010
,
0001
0200
0000
1300
0020
0000
0130
0001
,
0000
0011
0000
0011
0000
0011
0000
0001
,
0010
0001
0010
1000
0010
1000
0010
0100
,
1000
0010
0100
0001
0010
0001
1000
0010
,
0100
2000
0000
3010
2000
0000
3001
1000
,
0000
1001
0000
1001
0000
1001
0000
1001
,
0000
0000
0001
0000
0100
0001
0100
0000
0010
0000
1000
0000
0010
0000
1000
0000
,
0010
0000
1000
0000
0010
1000
0010
0000
0100
0000
0001
0000
0100
0000
0001
0000
,
0100
0000
0010
0000
0001
0010
0001
0000
0100
0000
1000
0000
0100
0000
1000
0000
,
0100
1100
0100
0010
0002
0000
1003
0001
,
2002
0000
0000
0000
0000
3003
0000
0000
;

//---------------dance-single - Copied from----------------
#NOTES:
     dance-single:
     Copied from:
     Medium:
     7:
     0.550,0.478,0.399,0.199,0.000,294.000,36.000,18.000,0.000,0.000:
0000
0000
0000
0000
,
0000
0000
0000
0000
,
0000
0000
0000
0000
,
0000
0011
0000
0000
0000
1010
0000
0000
,
0000
0101
0000
0000
0000
0000
0000
0010
,
0000
1010
0000
0010
0000
0100
0000
0010
,
0000
1010
0000
0000
0000
0110
0000
0000
,
0000
0101
0100
0001
0100
0001
0000
0101
,
0000
1010
1000
0010
0000
0010
0001
1000
,
0000
0100
0001
0010
0000
0001
1000
0010
,
0000
0010
1000
0100
0000
0100
0010
1000
,
0000
0100
0001
0100
0010
1000
0001
0100
,
0000
1010
1000
0010
0000
0001
0100
0010
,
0000
0101
0100
0001
0000
1000
0010
1000
,
0000
1100
1000
0100
0000
0001
0010
0001
,
0000
0011
0001
0010
0100
2000
0000
0000
,
3000
1100
0000
0100
1000
0000
0100
0001
,
1000
0000
1000
0001
0100
0000
0010
0100
,
0010
0001
0010
0000
1010
0000
0001
0000
,
0101
0000
1000
0100
0000
0100
0001
0100
,
0000
0010
1000
0010
1000
0000
1000
0001
,
0100
0000
1000
0100
0001
0000
1000
0010
,
0000
0101
0000
0001
1000
0010
1000
0100
,
0000
0100
0001
0010
0000
0010
0100
0001
,
0000
0001
0100
0001
0100
0000
1000
0100
,
0010
0000
0100
0010
0001
0000
0001
1000
,
0010
0100
0010
0000
1100
0000
0100
0000
,
0011
0000
1000
0010
0000
0001
0100
0001
,
0000
0100
0001
1000
0010
0000
0100
1000
,
0001
0000
0010
0100
0001
0000
0001
0001
,
0000
1001
0000
1000
0000
0010
0000
0100
,
0000
1000
0100
0010
0001
0100
0010
0001
,
0010
0001
0000
0010
0001
0100
0000
1000
,
0010
1000
0010
0000
0001
0000
1000
0010
,
1000
0010
0000
1010
1000
0100
0000
0010
,
0100
0001
0100
0000
0100
0000
1000
0100
,
1000
0100
0000
1000
0001
1000
0000
0100
,
0001
0100
0001
0000
0010
0000
1000
1010
,
0000
0110
0000
0000
0000
0101
0000
0000
,
0000
1010
0000
0000
0000
2002
0000
0000
,
0000
0000
0000
0000
0000
3003
1010
1000
,
0010
1000
0010
0000
0200
0000
0000
0301
,
0000
1000
0000
0010
0000
1000
0000
0001
,
0000
0020
0000
0130
0002
0000
1003
0001
,
0000
0101
0000
0100
0000
0101
0000
0001
,
0000
0100
0001
0000
2000
0000
0000
3010
,
0000
1000
0000
0001
0000
0100
0000
0100
,
0000
0002
0000
0103
0020
0000
1030
0010
,
0000
1100
0000
0100
0000
1100
0100
1000
,
0100
1000
0100
0000
0002
0000
0000
1003
,
0000
0100
0000
0010
0000
0001
0000
0010
,
0000
0200
0000
1300
0020
0000
0130
0001
,
0000
0011
0000
0010
0000
0011
0000
0001
,
0000
0100
0010
0000
2000
0000
0000
3100
,
0000
0010
0000
0001
0000
0010
0000
0010
,
0000
2000
0000
3010
2000
0000
3001
1000
,
0000
1001
0000
1000
0000
0001
0000
1001
,
0000
0001
0100
0001
0000
1000
0010
1000
,
0000
1000
0010
1000
0000
0001
0100
0001
,
0000
0010
0001
0010
0000
0100
1000
0100
,
0000
1000
0100
0010
0002
0000
1003
0001
,
2002
0000
0000
0000
0000
3003
0000
0000
;
