#TITLE:Arch0wl;
#SUBTITLE:(Arch0wl edit);
#ARTIST:DJ Silk Drop Mooney feat. Arch0wl;
#TITLETRANSLIT:;
#SUBTITLETRANSLIT:;
#ARTISTTRANSLIT:;
#CREDIT:Arch0wl;
#BANNER:arch0wl-bn.png;
#BACKGROUND:arch0wl-bg.png;
#LYRICSPATH:;
#CDTITLE:!arch0wltitle.png;
#MUSIC:arch0wl.ogg;
#OFFSET:0.003;
#SAMPLESTART:29.023;
#SAMPLELENGTH:12.000;
#SELECTABLE:YES;
#BPMS:0.000=140.000;
#STOPS:;
#BGCHANGES:0.000=arch0wl-bg.png=1.000=0=0=1,
99999=-nosongbg-=1.000=0=0=0 // don't automatically add -songbackground-
;
// cache tags:
#FIRSTBEAT:0.000;
#LASTBEAT:266.750;
#SONGFILENAME:Songs/Archmage and Dark0wl Hammer of Thor UltraHyperMegaPack/Arch0wl/arch0wl.sm;
#HASMUSIC:1;
#HASBANNER:1;
#MUSICLENGTH:105.000;
// end cache tags

//---------------dance-solo - Arch0wl----------------
#NOTES:
     dance-solo:
     Arch0wl:
     Challenge:
     20:
     1.000,1.000,1.000,1.000,1.000,1070.000,584.000,195.000,0.000,274.000:
002200
000000
000000
000000
,
103300
000010
001000
000100
000100
000100
010000
000001
000001
000001
000100
000010
000010
010000
001000
001000
,
100000
000010
001000
000100
000100
000100
010000
000001
000001
000001
000100
000010
000010
010000
001000
001000
,
100000
000010
001000
000100
000100
000100
010000
000001
000001
000001
000100
000010
000010
010000
001000
001000
,
100000
000010
001000
000100
000100
000100
010000
000001
000001
000001
000100
000010
000010
010000
001000
001000
,
000100
000000
000000
000000
000000
000000
000000
000000
000000
000000
000000
000000
000000
000000
000000
000000
000100
000000
000000
000000
000000
000000
000000
000000
000000
000000
000000
000000
000000
000000
000000
000000
000100
000000
000000
000000
000000
000000
000000
000000
000000
000000
000000
000000
000000
000000
000000
000000
000000
000000
000000
000000
000000
000000
001000
000000
000000
000000
000000
000000
000100
000000
000000
000000
000000
000000
000000
000000
000000
000000
000000
000000
000100
000000
000000
000000
000000
000000
000000
000000
000000
000000
000000
000000
000100
000000
000000
000000
000000
000000
000000
000000
000000
000000
000000
000000
000000
000000
000000
000000
000000
000000
000000
000000
000000
000000
000000
000000
000100
000000
000000
000000
000000
000000
000000
000000
000000
000000
000000
000000
000000
000000
000000
000000
000000
000000
000000
000000
000000
000000
000000
000000
000100
000000
000000
000000
000000
000000
001000
000000
000000
000000
000000
000000
000100
000000
000000
000000
000000
000000
001000
000000
000000
000000
000000
000000
000100
000000
000000
000000
000000
000000
001000
000000
000000
000000
000000
000000
000100
000000
000000
000000
000000
000000
001000
000000
000000
000000
000000
000000
000100
000000
000000
000000
000000
000000
001000
000000
000000
000000
000000
000000
,
110011
000000
000000
000100
111101
000000
000000
000100
100111
000000
000000
000100
111101
000000
100100
000000
000011
000000
000000
000000
111101
000000
000000
000000
000011
000000
010000
000000
101101
000000
000000
000000
,
110111
000000
000000
000100
111101
000000
000000
000100
100111
000000
000000
000100
111101
000000
100100
000000
000011
000000
000000
000000
111101
000000
000000
000000
000011
000000
010000
000000
101101
000000
000001
000000
,
110111
000000
000000
000100
111101
000000
000000
000100
100111
000000
000000
000100
111101
000000
100100
000000
000011
000000
000000
000000
111101
000000
000000
000000
000011
000000
010000
000000
101101
000000
000000
000000
,
110111
000000
000000
000100
111101
000000
000000
000100
100111
000000
000000
000100
111101
000000
100100
000000
000011
000000
000000
000000
111101
000000
000000
000000
000011
000000
010001
000000
101101
000000
000001
000000
,
121111
000000
000000
000000
030000
000000
000000
000000
000000
000000
000000
000000
001200
000000
000000
000300
000000
000000
000100
000000
000000
000000
000000
000000
121101
000000
000000
000000
030000
000000
000000
000000
000000
000000
000000
000000
001200
000000
000000
000300
000000
000000
000100
000000
000000
000000
000000
000000
101111
000000
000000
000000
000000
000000
000000
000000
000000
000000
000000
000000
001200
000000
000000
000300
000000
000000
000100
000000
000000
000000
000000
000000
121101
000000
000000
000000
030000
000000
000000
000000
000000
000000
000000
000000
101200
000000
000000
000300
000000
000000
000000
000000
000000
000000
000000
000000
000011
000000
000000
000000
000000
000000
000000
000000
000000
000000
000000
000000
001200
000000
000000
000300
000000
000000
000000
000000
000000
000000
000000
000000
121101
000000
000000
000000
030000
000000
000000
000000
000000
000000
000000
000000
001200
000000
000000
000300
000000
000000
000000
000000
000000
000000
000000
000000
000011
000000
000000
000000
000000
000000
000000
000000
000000
000000
000000
000000
021000
000000
000000
000000
030000
000000
000000
000000
000000
000000
000000
000000
101101
000000
000000
000000
000000
000000
000000
000000
000000
000000
000000
000000
001000
000000
000000
000000
000000
000000
000000
000000
000000
000000
000000
000000
,
121111
000000
000000
000000
030000
000000
000000
000000
000000
000000
000000
000000
001200
000000
000000
000300
000000
000000
000100
000000
000000
000000
000000
000000
121101
000000
000000
000000
030000
000000
000000
000000
000000
000000
000000
000000
001200
000000
000000
000300
000000
000000
000100
000000
000000
000000
000000
000000
101111
000000
000000
000000
000000
000000
000000
000000
000000
000000
000000
000000
001200
000000
000000
000300
000000
000000
000100
000000
000000
000000
000000
000000
121101
000000
000000
000000
030000
000000
000000
000000
000000
000000
000000
000000
101200
000000
000000
000300
000000
000000
000000
000000
000000
000000
000000
000000
000011
000000
000000
000000
000000
000000
000000
000000
000000
000000
000000
000000
001200
000000
000000
000300
000000
000000
000000
000000
000000
000000
000000
000000
121101
000000
000000
000000
030000
000000
000000
000000
000000
000000
000000
000000
001200
000000
000000
000300
000000
000000
000000
000000
000000
000000
000000
000000
000011
000000
000000
000000
000000
000000
000000
000000
000000
000000
000000
000000
021000
000000
000000
000000
030000
000000
000000
000000
000000
000000
000000
000000
101101
000000
000000
000000
000000
000000
000000
000000
000000
000000
000000
000000
001001
000000
000000
000000
000000
000000
000000
000000
000000
000000
000000
000000
,
121111
000000
000000
000000
030000
000000
000000
000000
000000
000000
000000
000000
001200
000000
000000
000300
000000
000000
000100
000000
000000
000000
000000
000000
121101
000000
000000
000000
030000
000000
000000
000000
000000
000000
000000
000000
001200
000000
000000
000300
000000
000000
000100
000000
000000
000000
000000
000000
101111
000000
000000
000000
000000
000000
000000
000000
000000
000000
000000
000000
001200
000000
000000
000300
000000
000000
000100
000000
000000
000000
000000
000000
121101
000000
000000
000000
030000
000000
000000
000000
000000
000000
000000
000000
101200
000000
000000
000300
000000
000000
000000
000000
000000
000000
000000
000000
000011
000000
000000
000000
000000
000000
000000
000000
000000
000000
000000
000000
001200
000000
000000
000300
000000
000000
000000
000000
000000
000000
000000
000000
121101
000000
000000
000000
030000
000000
000000
000000
000000
000000
000000
000000
001200
000000
000000
000300
000000
000000
000000
000000
000000
000000
000000
000000
000011
000000
000000
000000
000000
000000
000000
000000
000000
000000
000000
000000
021000
000000
000000
000000
030000
000000
000000
000000
000000
000000
000000
000000
101101
000000
000000
000000
000000
000000
000000
000000
000000
000000
000000
000000
001000
000000
000000
000000
000000
000000
000000
000000
000000
000000
000000
000000
,
120001
030000
000000
000010
000000
000000
100001
000000
000000
020010
030000
000000
100100
000000
000000
000010
000000
000000
120100
030000
000000
100010
000000
000000
000001
000000
000000
000010
000000
000000
120100
030000
000000
001000
000000
000000
000010
000000
000000
000000
000000
000000
121000
030000
000000
000000
000000
000000
,
001000
000000
000000
000000
000100
000000
000000
000000
000010
000000
000000
000000
001000
000000
000100
000000
000010
000000
000001
000010
000100
001000
000001
000010
000100
000000
000000
000000
001000
000000
000000
000000
,
000100
000000
000010
000000
000001
000010
000000
000100
000000
000000
000000
000000
002000
000000
000000
000000
,
103001
010010
100001
010010
100001
010010
100001
010010
100001
010010
100001
010010
100001
010010
100001
010010
100001
010010
100001
010010
100001
010010
100001
010010
000000
000000
000000
000000
002000
000000
000000
000000
,
100101
000000
000001
000000
013000
000000
000001
000000
101100
000000
000101
000000
010100
000000
000101
000000
100100
000000
000001
000000
010000
000000
000001
000000
101100
000010
000100
000010
010101
000010
000100
000010
,
100101
000000
010001
000000
010000
000000
010001
000000
101100
000000
010101
000000
011100
000000
010101
000000
100100
000000
000001
000000
010000
000000
000001
000000
102100
000010
000100
000010
010101
000010
000100
000010
,
103101
000000
000001
000000
010000
000000
000001
000000
101100
000000
000101
000000
010100
000000
000101
000000
100100
000000
000001
000000
010000
000000
000001
000000
101100
000010
000100
000010
010101
000010
000100
000010
,
100101
000000
010001
000000
010000
000000
010001
000000
101100
000000
010101
000000
011100
000000
010101
000000
100100
000000
000001
000000
010000
000000
000001
000000
102100
000010
000100
000010
010101
000010
000100
000010
,
103101
000000
000001
000000
010000
000000
000001
000000
101100
000000
000101
000000
010100
000000
000101
000000
100100
000000
000001
000000
010000
000000
000001
000000
101100
000010
000100
000010
010101
000010
000100
000010
,
100101
000000
010001
000000
010000
000000
010001
000000
101100
000000
010101
000000
011100
000000
010101
000000
100100
000000
000001
000000
010000
000000
000001
000000
102100
000010
000100
000010
010101
000010
000100
000010
,
103101
000000
000001
000000
010000
000000
000001
000000
101100
000000
000101
000000
010100
000000
000101
000000
100100
000000
000001
000000
010000
000000
000001
000000
101100
000010
000100
000010
010101
000010
000100
000010
,
100101
010001
010000
010001
101100
010101
011100
010101
100100
000001
010000
000101
102000
000000
010001
000000
,
103001
010010
100001
010010
100001
010010
100001
010010
100001
010010
100001
010010
100001
010010
100001
010010
100001
010010
100001
010010
100001
010010
100001
010010
000000
000000
000000
000000
002000
000000
000000
000000
,
000100
003100
000100
000100
000100
000100
000100
000100
,
000100
000100
000100
000100
000100
000100
000100
000100
000100
000100
000100
000100
000100
000100
000100
000100
,
000100
001000
000100
001000
000100
001000
000100
001000
000100
001000
000100
001000
000100
001000
000100
001000
000100
001000
000100
001000
000100
001000
000100
001000
000100
001000
000100
001000
000100
001000
000100
001000
,
000100
000000
000000
000000
000000
000000
000000
000000
000000
000000
000000
000000
000100
000000
000000
000000
000000
000000
000000
000000
000000
000000
000000
000000
000100
000000
000000
000000
000000
000000
000000
000000
000000
000000
000100
000000
000000
000000
000000
000000
000000
000000
000000
000000
000000
000100
000000
000000
,
000000
000000
000000
000000
000000
000000
000000
000000
000100
000000
000000
000000
000000
000000
000000
000000
000000
000000
000000
000000
000100
000000
000000
000000
000000
000000
000000
000000
000000
000000
000000
000000
000000
000100
000000
000000
000000
000000
000000
000000
000000
000000
000000
000000
000000
000100
000000
000000
,
000000
000000
000000
000000
000000
000100
000000
000000
000000
000000
000000
000000
000000
000000
000000
000000
000000
000000
000000
000000
000000
000000
000000
000000
,
001101
001010
010101
010010
100101
100010
010101
010010
001101
100010
000101
100010
001101
100010
000101
100010
,
001101
001010
010101
010010
100101
100010
010101
010010
001101
100010
000101
100010
001101
100010
000101
100010
,
001101
001010
010101
010010
100101
100010
010101
010010
001101
100010
000101
100010
001101
100010
000101
100010
,
001101
001010
010101
010010
100101
100010
010101
010010
001101
100010
000101
100010
001101
100010
000101
100010
,
001101
001010
010101
010010
100101
100010
010101
010010
001101
100010
000101
100010
001101
100010
000101
100010
,
001101
001010
010101
010010
100101
100010
010101
010010
001101
100010
000101
100010
001101
100010
000101
100010
,
001101
001010
010101
010010
100101
100010
010101
010010
001101
100010
000101
100010
001101
100010
000101
100010
,
001101
001010
010101
010010
100101
100010
010101
010010
001101
100010
000101
100010
001101
100010
000101
100010
,
001101
000010
001000
000010
001000
000010
001000
000010
001000
000010
001000
000010
001000
000010
001000
000010
001000
000010
001000
000010
001000
000010
001000
000010
001000
000010
001000
000010
001000
000010
001000
000010
,
000000
001000
000000
000010
000000
001000
000000
000010
000000
001000
000000
000000
000000
000000
000010
000000
,
000000
000000
000000
000000
,
001000
000010
001000
000010
001000
000010
001000
000010
001000
000010
001000
000010
001000
000010
001000
000010
001000
000010
001000
000010
001000
000010
001000
000010
001000
000010
001000
000010
001000
000010
001000
000010
,
100101
000000
000001
000000
010000
000000
000001
000000
101100
000000
000101
000000
010100
000000
000101
000000
100100
000000
000001
000000
010000
000000
000001
000000
101100
000010
000100
000010
010101
000010
000100
000010
,
100101
000000
010001
000000
010000
000000
010001
000000
101100
000000
010101
000000
011100
000000
010101
000000
100100
000000
000001
000000
010000
000000
000001
000000
102100
000010
000100
000010
010101
000010
000100
000010
,
103101
000000
000001
000000
010000
000000
000001
000000
101100
000000
000101
000000
010100
000000
000101
000000
100100
000000
000001
000000
010000
000000
000001
000000
101100
000010
000100
000010
010101
000010
000100
000010
,
100101
000000
010001
000000
010000
000000
010001
000000
101100
000000
010101
000000
011100
000000
010101
000000
100100
000000
000001
000000
010000
000000
000001
000000
102100
000010
000100
000010
010101
000010
000100
000010
,
103101
000000
000001
000000
010000
000000
000001
000000
101100
000000
000101
000000
010100
000000
000101
000000
100100
000000
000001
000000
010000
000000
000001
000000
101100
000010
000100
000010
010101
000010
000100
000010
,
100101
000000
010001
000000
010000
000000
010001
000000
101100
000000
010101
000000
011100
000000
010101
000000
100100
000000
000001
000000
010000
000000
000001
000000
102100
000010
000100
000010
010101
000010
000100
000010
,
103101
000000
000000
000000
000000
000000
000000
000000
000100
000000
000100
000000
000100
000000
000100
000000
000100
000000
000000
000000
000000
000000
000000
000000
000100
000010
000100
000010
000100
000010
000100
000010
,
000100
000000
000000
000000
000100
000100
000100
000100
000100
000000
000000
000100
000000
000000
000000
000000
,
121111
000000
000000
000000
030000
000000
000000
000000
000000
000000
000000
000000
001200
000000
000000
000300
000000
000000
000100
000000
000000
000000
000000
000000
121101
000000
000000
000000
030000
000000
000000
000000
000000
000000
000000
000000
001200
000000
000000
000300
000000
000000
000100
000000
000000
000000
000000
000000
101111
000000
000000
000000
000000
000000
000000
000000
000000
000000
000000
000000
001200
000000
000000
000300
000000
000000
000100
000000
000000
000000
000000
000000
121101
000000
000000
000000
030000
000000
000000
000000
000000
000000
000000
000000
101200
000000
000000
000300
000000
000000
000000
000000
000000
000000
000000
000000
000011
000000
000000
000000
000000
000000
000000
000000
000000
000000
000000
000000
001200
000000
000000
000300
000000
000000
000000
000000
000000
000000
000000
000000
121101
000000
000000
000000
030000
000000
000000
000000
000000
000000
000000
000000
001200
000000
000000
000300
000000
000000
000000
000000
000000
000000
000000
000000
000011
000000
000000
000000
000000
000000
000000
000000
000000
000000
000000
000000
021000
000000
000000
000000
030000
000000
000000
000000
000000
000000
000000
000000
101101
000000
000000
000000
000000
000000
000000
000000
000000
000000
000000
000000
001000
000000
000000
000000
000000
000000
000000
000000
000000
000000
000000
000000
,
121111
000000
000000
000000
030000
000000
000000
000000
000000
000000
000000
000000
001200
000000
000000
000300
000000
000000
000100
000000
000000
000000
000000
000000
121101
000000
000000
000000
030000
000000
000000
000000
000000
000000
000000
000000
001200
000000
000000
000300
000000
000000
000100
000000
000000
000000
000000
000000
101111
000000
000000
000000
000000
000000
000000
000000
000000
000000
000000
000000
001200
000000
000000
000300
000000
000000
000100
000000
000000
000000
000000
000000
121101
000000
000000
000000
030000
000000
000000
000000
000000
000000
000000
000000
101200
000000
000000
000300
000000
000000
000000
000000
000000
000000
000000
000000
000011
000000
000000
000000
000000
000000
000000
000000
000000
000000
000000
000000
001200
000000
000000
000300
000000
000000
000000
000000
000000
000000
000000
000000
121101
000000
000000
000000
030000
000000
000000
000000
000000
000000
000000
000000
001200
000000
000000
000300
000000
000000
000000
000000
000000
000000
000000
000000
000011
000000
000000
000000
000000
000000
000000
000000
000000
000000
000000
000000
021000
000000
000000
000000
030000
000000
000000
000000
000000
000000
000000
000000
101101
000000
000000
000000
000000
000000
000000
000000
000000
000000
000000
000000
001001
000000
000000
000000
000000
000000
000000
000000
000000
000000
000000
000000
,
121111
000000
000000
000000
030000
000000
000000
000000
000000
000000
000000
000000
001200
000000
000000
000300
000000
000000
000100
000000
000000
000000
000000
000000
121101
000000
000000
000000
030000
000000
000000
000000
000000
000000
000000
000000
001200
000000
000000
000300
000000
000000
000100
000000
000000
000000
000000
000000
101111
000000
000000
000000
000000
000000
000000
000000
000000
000000
000000
000000
001200
000000
000000
000300
000000
000000
000100
000000
000000
000000
000000
000000
121101
000000
000000
000000
030000
000000
000000
000000
000000
000000
000000
000000
101200
000000
000000
000300
000000
000000
000000
000000
000000
000000
000000
000000
000011
000000
000000
000000
000000
000000
000000
000000
000000
000000
000000
000000
001200
000000
000000
000300
000000
000000
000000
000000
000000
000000
000000
000000
121101
000000
000000
000000
030000
000000
000000
000000
000000
000000
000000
000000
001200
000000
000000
000300
000000
000000
000000
000000
000000
000000
000000
000000
000011
000000
000000
000000
000000
000000
000000
000000
000000
000000
000000
000000
021000
000000
000000
000000
030000
000000
000000
000000
000000
000000
000000
000000
101101
000000
000000
000000
000000
000000
000000
000000
000000
000000
000000
000000
001000
000000
000000
000000
000000
000000
000000
000000
000000
000000
000000
000000
,
121111
000000
000000
000000
030000
000000
000000
000000
000000
000000
000000
000000
001200
000000
000000
000300
000000
000000
000100
000000
000000
000000
000000
000000
121101
000000
000000
000000
030000
000000
000000
000000
000000
000000
000000
000000
001200
000000
000000
000300
000000
000000
000100
000000
000000
000000
000000
000000
101111
000000
000000
000000
000000
000000
000000
000000
000000
000000
000000
000000
001200
000000
000000
000300
000000
000000
000100
000000
000000
000000
000000
000000
121101
000000
000000
000000
030000
000000
000000
000000
000000
000000
000000
000000
101200
000000
000000
000300
000000
000000
000000
000000
000000
000000
000000
000000
000011
000000
000000
000000
000000
000000
000000
000000
000000
000000
000000
000000
001200
000000
000000
000300
000000
000000
000000
000000
000000
000000
000000
000000
121101
000000
000000
000000
030000
000000
000000
000000
000000
000000
000000
000000
001200
000000
000000
000300
000000
000000
000000
000000
000000
000000
000000
000000
000011
000000
000000
000000
000000
000000
000000
000000
000000
000000
000000
000000
021001
000000
000000
000000
030000
000000
000000
000000
000000
000000
000000
000000
101101
000000
000000
000000
000000
000000
000000
000000
000000
000000
000000
000000
001001
000000
000000
000000
000000
000000
000000
000000
000000
000000
000000
000000
,
121111
000000
000000
000000
030000
000000
000000
000000
000000
000000
000000
000000
001200
000000
000000
000300
000000
000000
000100
000000
000000
000000
000000
000000
121101
000000
000000
000000
030000
000000
000000
000000
000000
000000
000000
000000
001200
000000
000000
000300
000000
000000
000100
000000
000000
000000
000000
000000
101111
000000
000000
000000
000000
000000
000000
000000
000000
000000
000000
000000
001200
000000
000000
000300
000000
000000
000100
000000
000000
000000
000000
000000
121101
000000
000000
000000
030000
000000
000000
000000
000000
000000
000000
000000
101200
000000
000000
000300
000000
000000
000000
000000
000000
000000
000000
000000
000011
000000
000000
000000
000000
000000
000000
000000
000000
000000
000000
000000
001200
000000
000000
000300
000000
000000
000000
000000
000000
000000
000000
000000
121101
000000
000000
000000
030000
000000
000000
000000
000000
000000
000000
000000
001200
000000
000000
000300
000000
000000
000000
000000
000000
000000
000000
000000
000011
000000
000000
000000
000000
000000
000000
000000
000000
000000
000000
000000
021000
000000
000000
000000
030000
000000
000000
000000
000000
000000
000000
000000
101101
000000
000000
000000
000000
000000
000000
000000
000000
000000
000000
000000
001000
000000
000000
000000
000000
000000
000000
000000
000000
000000
000000
000000
,
121111
000000
000000
000000
030000
000000
000000
000000
000000
000000
000000
000000
001200
000000
000000
000300
000000
000000
000100
000000
000000
000000
000000
000000
121101
000000
000000
000000
030000
000000
000000
000000
000000
000000
000000
000000
001200
000000
000000
000300
000000
000000
000100
000000
000000
000000
000000
000000
101111
000000
000000
000000
000000
000000
000000
000000
000000
000000
000000
000000
001200
000000
000000
000300
000000
000000
000100
000000
000000
000000
000000
000000
121101
000000
000000
000000
030000
000000
000000
000000
000000
000000
000000
000000
101200
000000
000000
000300
000000
000000
000000
000000
000000
000000
000000
000000
000011
000000
000000
000000
000000
000000
000000
000000
000000
000000
000000
000000
001200
000000
000000
000300
000000
000000
000000
000000
000000
000000
000000
000000
121101
000000
000000
000000
030000
000000
000000
000000
000000
000000
000000
000000
001200
000000
000000
000300
000000
000000
000000
000000
000000
000000
000000
000000
000011
000000
000000
000000
000000
000000
000000
000000
000000
000000
000000
000000
021000
000000
000000
000000
030000
000000
000000
000000
000000
000000
000000
000000
101101
000000
000000
000000
000000
000000
000000
000000
000000
000000
000000
000000
001001
000000
000000
000000
000000
000000
000000
000000
000000
000000
000000
000000
,
121111
000000
000000
000000
030000
000000
000000
000000
000000
000000
000000
000000
001200
000000
000000
000300
000000
000000
000100
000000
000000
000000
000000
000000
121101
000000
000000
000000
030000
000000
000000
000000
000000
000000
000000
000000
001200
000000
000000
000300
000000
000000
000100
000000
000000
000000
000000
000000
101111
000000
000000
000000
000000
000000
000000
000000
000000
000000
000000
000000
001200
000000
000000
000300
000000
000000
000100
000000
000000
000000
000000
000000
121101
000000
000000
000000
030000
000000
000000
000000
000000
000000
000000
000000
101200
000000
000000
000300
000000
000000
000000
000000
000000
000000
000000
000000
000011
000000
000000
000000
000000
000000
000000
000000
000000
000000
000000
000000
001200
000000
000000
000300
000000
000000
000000
000000
000000
000000
000000
000000
121101
000000
000000
000000
030000
000000
000000
000000
000000
000000
000000
000000
001200
000000
000000
000300
000000
000000
000000
000000
000000
000000
000000
000000
000011
000000
000000
000000
000000
000000
000000
000000
000000
000000
000000
000000
021000
000000
000000
000000
030000
000000
000000
000000
000000
000000
000000
000000
101101
000000
000000
000000
000000
000000
000000
000000
000000
000000
000000
000000
001000
000000
000000
000000
000000
000000
000000
000000
000000
000000
000000
000000
,
121111
000000
000000
000000
030000
000000
000000
000000
000000
000000
000000
000000
001200
000000
000000
000300
000000
000000
000100
000000
000000
000000
000000
000000
121101
000000
000000
000000
030000
000000
000000
000000
000000
000000
000000
000000
001200
000000
000000
000300
000000
000000
000100
000000
000000
000000
000000
000000
101111
000000
000000
000000
000000
000000
000000
000000
000000
000000
000000
000000
001200
000000
000000
000300
000000
000000
000100
000000
000000
000000
000000
000000
121101
000000
000000
000000
030000
000000
000000
000000
000000
000000
000000
000000
101200
000000
000000
000300
000000
000000
000000
000000
000000
000000
000000
000000
000011
000000
000000
000000
000000
000000
000000
000000
000000
000000
000000
000000
001200
000000
000000
000300
000000
000000
000000
000000
000000
000000
000000
000000
121101
000000
000000
000000
030000
000000
000000
000000
000000
000000
000000
000000
001200
000000
000000
000300
000000
000000
000000
000000
000000
000000
000000
000000
000011
000000
000000
000000
000000
000000
000000
000000
000000
000000
000000
000000
021001
000000
000000
000000
030000
000000
000000
000000
000000
000000
000000
000000
101101
000000
000000
000000
000000
000000
000000
000000
000000
000000
000000
000000
001001
000000
000000
000000
000000
000000
000000
000000
000000
000000
000000
000000
,
121121
000000
000000
000000
030000
000000
000000
000000
000000
000000
000000
000000
001200
000000
000000
000300
000000
000000
000100
000000
000000
000000
000000
000000
121131
000000
000000
000000
030000
000000
000000
000000
000000
000000
000000
000000
001200
000000
000000
000300
000000
000000
000100
000000
000000
000000
000000
000000
101111
000000
000000
000000
000000
000000
000000
000000
000000
000000
000000
000000
001200
000000
000000
000300
000000
000000
000100
000000
000000
000000
000000
000000
121101
000000
000000
000000
030000
000000
000000
000000
000000
000000
000000
000000
101200
000000
000000
000300
000000
000000
000000
000000
000000
000000
000000
000000
000021
000000
000000
000000
000000
000000
000000
000000
000000
000000
000000
000000
001200
000000
000000
000300
000000
000000
000000
000000
000000
000000
000000
000000
121131
000000
000000
000000
030000
000000
000000
000000
000000
000000
000000
000000
001200
000000
000000
000300
000000
000000
000000
000000
000000
000000
000000
000000
000011
000000
000000
000000
000000
000000
000000
000000
000000
000000
000000
000000
021000
000000
000000
000000
030000
000000
000000
000000
000000
000000
000000
000000
101101
000000
000000
000000
000000
000000
000000
000000
000000
000000
000000
000000
001000
000000
000000
000000
000000
000000
000000
000000
000000
000000
000000
000000
,
121121
000000
000000
000000
030000
000000
000000
000000
000000
000000
000000
000000
001200
000000
000000
000300
000000
000000
000100
000000
000000
000000
000000
000000
121131
000000
000000
000000
030000
000000
000000
000000
000000
000000
000000
000000
001200
000000
000000
000300
000000
000000
000100
000000
000000
000000
000000
000000
101111
000000
000000
000000
000000
000000
000000
000000
000000
000000
000000
000000
001200
000000
000000
000300
000000
000000
000100
000000
000000
000000
000000
000000
121101
000000
000000
000000
030000
000000
000000
000000
000000
000000
000000
000000
101200
000000
000000
000300
000000
000000
000000
000000
000000
000000
000000
000000
000021
000000
000000
000000
000000
000000
000000
000000
000000
000000
000000
000000
001200
000000
000000
000300
000000
000000
000000
000000
000000
000000
000000
000000
121131
000000
000000
000000
030000
000000
000000
000000
000000
000000
000000
000000
001200
000000
000000
000300
000000
000000
000000
000000
000000
000000
000000
000000
000011
000000
000000
000000
000000
000000
000000
000000
000000
000000
000000
000000
021000
000000
000000
000000
030000
000000
000000
000000
000000
000000
000000
000000
101101
000000
000000
000000
000000
000000
000000
000000
000000
000000
000000
000000
001001
000000
000000
000000
000000
000000
000000
000000
000000
000000
000000
000000
,
121121
000000
000000
000000
030000
000000
000000
000000
000000
000000
000000
000000
001200
000000
000000
000300
000000
000000
000100
000000
000000
000000
000000
000000
121131
000000
000000
000000
030000
000000
000000
000000
000000
000000
000000
000000
001200
000000
000000
000300
000000
000000
000100
000000
000000
000000
000000
000000
101111
000000
000000
000000
000000
000000
000000
000000
000000
000000
000000
000000
001200
000000
000000
000300
000000
000000
000100
000000
000000
000000
000000
000000
121101
000000
000000
000000
030000
000000
000000
000000
000000
000000
000000
000000
101200
000000
000000
000300
000000
000000
000000
000000
000000
000000
000000
000000
000021
000000
000000
000000
000000
000000
000000
000000
000000
000000
000000
000000
001200
000000
000000
000300
000000
000000
000000
000000
000000
000000
000000
000000
121131
000000
000000
000000
030000
000000
000000
000000
000000
000000
000000
000000
001200
000000
000000
000300
000000
000000
000000
000000
000000
000000
000000
000000
000011
000000
000000
000000
000000
000000
000000
000000
000000
000000
000000
000000
021000
000000
000000
000000
030000
000000
000000
000000
000000
000000
000000
000000
101101
000000
000000
000000
000000
000000
000000
000000
000000
000000
000000
000000
001000
000000
000000
000000
000000
000000
000000
000000
000000
000000
000000
000000
,
121121
000000
000000
000000
030000
000000
000000
000000
000000
000000
000000
000000
001200
000000
000000
000300
000000
000000
000100
000000
000000
000000
000000
000000
121131
000000
000000
000000
030000
000000
000000
000000
000000
000000
000000
000000
001200
000000
000000
000300
000000
000000
000100
000000
000000
000000
000000
000000
101111
000000
000000
000000
000000
000000
000000
000000
000000
000000
000000
000000
001200
000000
000000
000300
000000
000000
000100
000000
000000
000000
000000
000000
121101
000000
000000
000000
030000
000000
000000
000000
000000
000000
000000
000000
101200
000000
000000
000300
000000
000000
000000
000000
000000
000000
000000
000000
000021
000000
000000
000000
000000
000000
000000
000000
000000
000000
000000
000000
001200
000000
000000
000300
000000
000000
000000
000000
000000
000000
000000
000000
121131
000000
000000
000000
030000
000000
000000
000000
000000
000000
000000
000000
001200
000000
000000
000300
000000
000000
000000
000000
000000
000000
000000
000000
000011
000000
000000
000000
000000
000000
000000
000000
000000
000000
000000
000000
021001
000000
000000
000000
030000
000000
000000
000000
000000
000000
000000
000000
101101
000000
000000
000000
000000
000000
000000
000000
000000
000000
000000
000000
001001
000000
000000
000000
000000
000000
000000
000000
000000
000000
000000
000000
,
000020
000030
000020
000030
,
000020
000030
000020
000000
,
000000
000000
000000
000000
000000
000000
000000
002131
000000
000000
000000
003000
000000
000000
000000
000000
;

//---------------dance-single - Arch0wl----------------
#NOTES:
     dance-single:
     Arch0wl:
     Challenge:
     20:
     1.000,1.000,1.000,0.286,1.000,1227.000,276.000,30.000,0.000,2.000:
0220
0000
0000
0000
,
1330
0001
0100
0010
0010
0010
1000
0100
0100
0100
0010
0001
0001
0100
0010
0010
,
1000
0001
0100
0010
0010
0010
1000
0100
0100
0100
0010
0001
0001
0100
0010
0010
,
1000
0001
0100
0010
0010
0010
1000
0100
0100
0100
0010
0001
0001
0100
0010
0010
,
1000
0001
0100
0010
0010
0010
1000
0100
0100
0100
0010
0001
0001
0100
0010
0010
,
0100
0000
0000
0000
0000
0000
0000
0000
0000
0000
0000
0000
0000
0000
0000
0000
0100
0000
0000
0000
0000
0000
0000
0000
0000
0000
0000
0000
0000
0000
0000
0000
0100
0000
0000
0000
0000
0000
0000
0000
0000
0000
0000
0000
0000
0000
0000
0000
0000
0000
0000
0000
0000
0000
0010
0000
0000
0000
0000
0000
0100
0000
0000
0000
0000
0000
0000
0000
0000
0000
0000
0000
0100
0000
0000
0000
0000
0000
0000
0000
0000
0000
0000
0000
0100
0000
0000
0000
0000
0000
0000
0000
0000
0000
0000
0000
0000
0000
0000
0000
0000
0000
0000
0000
0000
0000
0000
0000
0100
0000
0000
0000
0000
0000
0000
0000
0000
0000
0000
0000
0000
0000
0000
0000
0000
0000
0000
0000
0000
0000
0000
0000
0100
0000
0000
0000
0000
0000
0010
0000
0000
0000
0000
0000
0100
0000
0000
0000
0000
0000
0010
0000
0000
0000
0000
0000
0100
0000
0000
0000
0000
0000
0010
0000
0000
0000
0000
0000
0100
0000
0000
0000
0000
0000
0010
0000
0000
0000
0000
0000
0100
0000
0000
0000
0000
0000
0010
0000
0000
0000
0000
0000
,
1001
0000
0000
0001
0101
0000
0000
0001
1001
0000
0000
0001
0101
0000
0110
0000
1010
0000
0000
0000
0101
0000
0000
0000
1010
0000
0010
0000
0101
0000
0000
0000
,
1010
0000
0000
0010
0110
0000
0000
0010
1010
0000
0000
0010
1010
0000
1001
0000
0110
0000
0000
0000
0101
0000
0000
0000
0110
0000
0010
0000
0110
0000
0010
0000
,
1010
0000
0000
0010
0110
0000
0000
0010
1010
0000
0000
0010
0110
0000
0110
0000
0101
0000
0000
0000
1010
0000
0000
0000
0110
0000
0010
0000
0101
0000
0000
0000
,
0110
0000
0000
0010
1010
0000
0000
0010
0110
0000
0000
0010
1010
0000
1001
0000
0101
0000
0000
0000
1001
0000
0000
0000
0110
0000
0110
0000
0110
0000
0110
0000
,
0110
0000
0000
0000
0200
0300
0010
0000
1010
0000
0000
0000
0200
0300
0010
0000
1010
0000
0000
0000
0200
0300
0010
0000
1010
0000
0000
0000
0210
0300
0000
0000
1010
0000
0000
0000
1002
0003
0000
0000
1001
0000
0000
0000
1002
0003
0000
0000
0110
0000
0000
0000
0101
0000
0000
0000
1001
0000
0000
0000
0110
0000
0000
0000
,
1001
0000
0000
0000
0200
0300
0001
0000
0011
0000
0000
0000
0200
0300
0001
0000
0011
0000
0000
0000
0200
0300
0001
0000
0011
0000
0000
0000
0201
0300
0000
0000
0110
0000
0000
0000
0102
0003
0000
0000
0101
0000
0000
0000
0102
0003
0000
0000
1010
0000
0000
0000
1100
0000
0000
0000
0110
0000
0000
0000
0011
0000
0000
0000
,
0110
0000
0000
0000
2000
3000
0010
0000
0110
0000
0000
0000
2000
3000
0010
0000
0110
0000
0000
0000
2000
3000
0010
0000
0110
0000
0000
0000
2010
3000
0000
0000
0110
0000
0000
0000
1020
0030
0000
0000
1010
0000
0000
0000
1020
0030
0000
0000
0101
0000
0000
0000
0110
0000
0000
0000
1001
0000
0000
0000
1000
0000
0000
0000
,
1010
0110
1010
1100
0011
0110
0011
0101
1001
0011
0110
1100
1010
0100
1001
0000
,
0001
0000
0000
0000
0010
0000
0000
0000
0100
0000
0000
0000
0001
0000
0010
0000
0100
0000
1000
0100
0010
0001
1000
0100
0010
0000
0000
0000
1000
0000
0000
0000
,
0100
0000
1000
0000
0100
0010
0000
0001
0000
0000
0000
0000
2010
0000
0000
0000
,
3001
0100
0001
0100
0001
0100
0001
0100
0001
0100
0001
0100
0001
0100
0001
0100
0001
0100
0001
0100
0001
0100
0001
0100
0000
0000
0000
0000
0202
0000
0303
0000
,
1010
0000
0100
0000
0001
0000
1000
0000
0110
0000
1010
0000
0110
0000
1010
0000
0110
0000
1000
0000
0100
0000
0010
0000
0001
0100
0001
0100
0001
0100
0001
0100
,
1010
0000
0100
0000
1000
0000
0001
0000
1100
0000
1010
0000
1100
0000
1010
0000
1100
0000
0001
0000
1000
0000
0010
0000
0100
0001
0100
0001
0100
0001
0100
0001
,
1010
0000
0100
0000
1000
0000
0001
0000
1010
0000
0110
0000
1010
0000
0110
0000
1010
0000
0001
0000
1000
0000
0100
0000
0010
0001
0010
0001
0010
0001
0010
0001
,
1100
0000
0010
0000
0001
0000
1000
0000
0011
0000
0110
0000
0011
0000
0110
0000
0011
0000
1000
0000
0001
0000
0100
0000
0010
0100
0010
0100
0010
0100
0010
0100
,
1001
0000
0100
0000
0010
0000
1000
0000
0011
0000
1010
0000
0011
0000
1010
0000
0011
0000
0100
0000
0001
0000
1000
0000
0010
1000
0010
1000
0010
1000
0010
1000
,
0101
0000
1000
0000
0001
0000
0100
0000
0011
0000
0110
0000
0011
0000
0110
0000
0011
0000
1000
0000
0001
0000
0100
0000
0010
0100
0010
0100
0010
0100
0010
0100
,
1010
0000
0100
0000
0001
0000
1000
0000
0011
0000
1001
0000
0011
0000
1001
0000
0011
0000
0100
0000
1000
0000
0001
0000
0010
0001
0010
0001
0010
0001
0010
0001
,
1100
0001
1000
0010
1100
0101
1100
0101
1100
0001
1000
0110
2002
3003
0101
0000
,
1000
0100
1000
0100
1000
0100
1000
0100
1000
0100
1000
0100
1000
0100
1000
0100
1000
0100
1000
0100
1000
0100
1000
0100
0000
0000
0000
0000
2000
0000
0000
0000
,
0100
3100
0100
0100
0100
0100
0100
0100
,
0100
0100
0100
0100
0100
0100
0100
0100
0100
0100
0100
0100
0100
0100
0100
0100
,
0100
0010
0100
0010
0100
0010
0100
0010
0100
0010
0100
0010
0100
0010
0100
0010
0100
0010
0100
0010
0100
0010
0100
0010
0100
0010
0100
0010
0100
0010
0100
0010
,
0100
0000
0000
0000
0000
0000
0000
0000
0000
0000
0000
0000
0100
0000
0000
0000
0000
0000
0000
0000
0000
0000
0000
0000
0100
0000
0000
0000
0000
0000
0000
0000
0000
0000
0100
0000
0000
0000
0000
0000
0000
0000
0000
0000
0000
0100
0000
0000
,
0000
0000
0000
0000
0000
0000
0000
0000
0100
0000
0000
0000
0000
0000
0000
0000
0000
0000
0000
0000
0100
0000
0000
0000
0000
0000
0000
0000
0000
0000
0000
0000
0000
0100
0000
0000
0000
0000
0000
0000
0000
0000
0000
0000
0000
0100
0000
0000
,
0000
0000
0000
0000
0000
0100
0000
0000
0000
0000
0000
0000
0000
0000
0000
0000
0000
0000
0000
0000
0000
0000
0000
0000
,
1001
0001
0101
0100
0110
0010
1010
1000
1001
0010
0100
0010
1001
0010
0100
0010
,
0110
0100
0101
0001
0011
0010
0110
0100
1100
0010
0001
0010
1100
0010
0001
0010
,
1100
1000
1001
0001
0101
0100
0110
0010
1010
0100
0001
0100
1010
0100
0001
0100
,
0101
0001
0011
0010
0110
0100
1100
1000
1001
0010
0100
0010
1001
0010
0100
0010
,
1001
1001
0101
0101
0110
0110
1010
1010
1001
1010
0110
1010
1001
1010
0110
1010
,
0110
0110
0101
0101
0011
0011
0110
0110
1100
0110
0011
0110
1100
0110
0011
0110
,
1100
1100
1001
1001
0101
0101
0110
0110
1010
0110
0101
0110
1010
0110
0101
0110
,
0101
0101
0011
0011
0110
0110
1100
1100
1001
0011
0110
0011
1001
0011
0110
0011
,
0001
1000
0001
1000
0001
1000
0001
1000
0001
1000
0001
1000
0001
1000
0001
1000
0001
1000
0001
1000
0001
1000
0001
1000
0001
1000
0001
1000
0001
1000
0001
1000
,
0000
0001
0000
1000
0000
0001
0000
1000
0000
0001
0000
0000
0000
0000
1000
0000
,
0000
0000
0000
0000
,
0001
1000
0001
1000
0001
1000
0001
1000
0001
1000
0001
1000
0001
1000
0001
1000
0001
1000
0001
1000
0001
1000
0001
1000
0001
1000
0001
1000
0001
1000
0001
1000
,
0101
0000
0010
0000
1000
0000
0001
0000
1010
0000
1001
0000
1010
0000
1001
0000
1010
0000
0001
0000
0010
0000
0100
0000
1000
0010
1000
0010
1000
0010
1000
0010
,
0101
0000
1000
0000
0100
0000
0010
0000
0101
0000
1001
0000
0101
0000
1001
0000
0101
0000
0010
0000
1000
0000
0100
0000
0010
0001
0010
0001
0010
0001
0010
0001
,
1100
0000
0010
0000
0001
0000
1000
0000
0101
0000
0110
0000
0101
0000
0110
0000
0101
0000
1000
0000
0001
0000
0010
0000
0100
1000
0100
1000
0100
1000
0100
1000
,
0011
0000
0100
0000
1000
0000
0001
0000
0110
0000
0101
0000
0110
0000
0101
0000
0110
0000
1000
0000
0001
0000
0010
0000
0100
0010
0100
0010
0100
0010
0100
0010
,
1001
0000
0010
0000
0100
0000
0001
0000
1100
0000
0101
0000
1100
0000
0101
0000
1100
0000
0010
0000
1000
0000
0001
0000
0100
0001
0100
0001
0100
0001
0100
0001
,
1010
0000
0100
0000
1000
0000
0001
0000
1010
0000
0110
0000
1010
0000
0110
0000
1010
0000
0001
0000
1000
0000
0010
0000
0100
0010
0100
0010
0100
0010
0100
0010
,
0101
0000
0000
0000
0000
0000
0000
0000
0100
0000
0100
0000
0100
0000
0100
0000
0101
0000
0000
0000
0000
0000
0000
0000
0100
0010
0100
0010
0100
0010
0100
0010
,
0101
0000
0000
0000
0100
0100
0100
0100
0001
0000
0000
0001
0000
0000
0000
0000
,
0001
0100
0010
1000
0001
0010
0100
1000
0001
0100
0010
1000
0001
0010
0100
0010
0001
0010
0100
0010
0001
0100
0010
0100
0001
0100
0010
0100
0001
1000
0100
0010
,
0100
1000
0001
0100
0010
1000
0001
0010
0100
1000
0001
0100
0010
1000
0001
1000
0010
1000
0001
1000
0010
0100
0001
0100
0010
0100
0001
0100
0010
1000
0100
0010
,
0001
0100
0010
1000
0001
0010
0100
1000
0001
0100
0010
1000
0001
0010
0100
1000
0001
0010
0100
1000
0001
0100
0010
1000
0001
0100
0010
1000
0001
1000
0100
0010
,
0100
1000
0001
0100
0010
1000
0001
0010
0100
1000
0001
0100
0010
1000
0001
0100
0010
1000
0001
0100
0010
1000
0100
0010
0001
1000
0100
0010
0001
0100
0010
1000
,
0001
0010
0100
1000
0001
0100
0010
1000
0001
0010
0100
1000
0001
0010
0100
1000
0010
0100
0001
0010
0001
0100
0010
1000
0100
0010
0001
0100
0010
1000
0010
0100
,
0001
0100
0010
1000
0001
0010
0100
1000
0001
0100
0010
1000
0001
0010
0100
1000
0010
0100
0001
1000
0001
0010
0100
1000
0010
0100
0001
0010
0100
1000
0100
0010
,
0001
0010
0100
1000
0001
0100
0010
1000
0001
0010
0100
1000
0001
0100
0010
1000
0010
0100
0001
0100
0001
0010
0100
1000
0100
0010
0001
0010
0100
1000
0010
0100
,
0001
0100
0010
1000
0001
0010
0100
1000
0001
0100
0010
1000
0001
0010
0100
1000
0100
0010
0001
0010
0100
1000
0010
1000
0001
0100
0001
1000
0010
0100
0001
0010
,
0100
1000
0100
1000
0100
1000
0100
1000
0100
1000
0100
1000
0100
1000
0100
1000
0001
0100
0001
0100
0001
0100
0001
0100
0001
0100
0001
0100
0001
0100
0001
0100
,
0010
1000
0010
1000
0010
1000
0010
1000
0010
1000
0010
1000
0010
1000
0010
1000
0001
0010
0001
0010
0001
0010
0001
0010
0001
0010
0001
0010
0001
0010
0001
0010
,
0100
1000
0100
1000
0100
1000
0100
1000
0100
1000
0100
1000
0100
1000
0100
1000
0001
0100
0001
0100
0001
0100
0001
0100
0001
0100
0001
0100
0001
0100
0001
0100
,
0010
1000
0010
1000
0010
1000
0010
1000
0010
1000
0010
1000
0010
1000
0010
1000
0100
0010
0100
0010
0100
0010
0100
0010
0100
0010
0100
0010
0100
0010
0100
0010
,
2001
3000
2001
3000
,
2001
3000
2001
0000
,
0000
0000
0000
0000
0000
0000
0000
3101
0000
0000
0000
0000
0000
0000
0000
0000
;

//---------------dance-single - Arch0wl----------------
#NOTES:
     dance-single:
     Arch0wl:
     Hard:
     16:
     1.000,1.000,0.114,0.057,1.000,1046.000,12.000,6.000,0.000,1.000:
0220
0000
0000
0000
,
1330
0001
0100
0010
0010
0010
1000
0100
0100
0100
0010
0001
0001
0100
0010
0010
,
1000
0001
0100
0010
0010
0010
1000
0100
0100
0100
0010
0001
0001
0100
0010
0010
,
1000
0001
0100
0010
0010
0010
1000
0100
0100
0100
0010
0001
0001
0100
0010
0010
,
1000
0001
0100
0010
0010
0010
1000
0100
0100
0100
0010
0001
0001
0100
0010
0010
,
0100
0000
0000
0000
0000
0000
0000
0000
0000
0000
0000
0000
0000
0000
0000
0000
0100
0000
0000
0000
0000
0000
0000
0000
0000
0000
0000
0000
0000
0000
0000
0000
0100
0000
0000
0000
0000
0000
0000
0000
0000
0000
0000
0000
0000
0000
0000
0000
0000
0000
0000
0000
0000
0000
0010
0000
0000
0000
0000
0000
0100
0000
0000
0000
0000
0000
0000
0000
0000
0000
0000
0000
0100
0000
0000
0000
0000
0000
0000
0000
0000
0000
0000
0000
0100
0000
0000
0000
0000
0000
0000
0000
0000
0000
0000
0000
0000
0000
0000
0000
0000
0000
0000
0000
0000
0000
0000
0000
0100
0000
0000
0000
0000
0000
0000
0000
0000
0000
0000
0000
0000
0000
0000
0000
0000
0000
0000
0000
0000
0000
0000
0000
0100
0000
0000
0000
0000
0000
0010
0000
0000
0000
0000
0000
0100
0000
0000
0000
0000
0000
0010
0000
0000
0000
0000
0000
0100
0000
0000
0000
0000
0000
0010
0000
0000
0000
0000
0000
0100
0000
0000
0000
0000
0000
0010
0000
0000
0000
0000
0000
0100
0000
0000
0000
0000
0000
0010
0000
0000
0000
0000
0000
,
1000
0000
0000
0010
1000
0000
0000
0010
1000
0000
0000
0010
1000
0000
0100
0000
0010
0000
0000
0000
1001
0000
0000
0000
1000
0000
0001
0000
1001
0000
0000
0000
,
0001
0000
0000
0010
0001
0000
0000
0010
0001
0000
0000
0010
0001
0000
0100
0000
0010
0000
0000
0000
1010
0000
0000
0000
1000
0000
0010
0000
1000
0000
0010
0000
,
0100
0000
0000
0001
0100
0000
0000
0001
0100
0000
0000
0001
0100
0000
0010
0000
1000
0000
0000
0000
1100
0000
0000
0000
0100
0000
1000
0000
1100
0000
0000
0000
,
0010
0000
0000
0100
0010
0000
0000
0100
0010
0000
0000
0100
0010
0000
0001
0000
0100
0000
0000
0000
0101
0000
0000
0000
0001
0000
0100
0000
0001
0000
0100
0000
,
0010
0000
1000
0100
1000
0000
0100
1000
0100
0000
1000
0100
1000
0000
0010
0000
0100
0000
0010
0000
1000
0000
0001
0000
1000
0000
0010
0000
0100
0000
0001
0000
,
0010
0000
0100
0010
0100
0000
0010
0100
0010
0000
0100
0010
0100
0000
1000
0000
0100
0000
1000
0000
0001
0000
0010
0000
0001
0000
0100
0000
0010
0000
1000
0000
,
0001
0000
1000
0001
1000
0000
0001
1000
0001
0000
1000
0001
1000
0000
0010
0000
0100
0000
0010
0000
1000
0000
0001
0000
1000
0000
0100
0000
0010
0000
0001
0000
,
1000
0010
0100
0001
1000
0100
0010
0001
1000
0010
0100
0001
0010
0000
1001
0000
,
0001
0000
0000
0000
0100
0000
0000
0000
0010
0000
0000
0000
1000
0000
0010
0000
0100
0000
0001
0010
0100
1000
0001
0010
0100
0000
0000
0000
1000
0000
0000
0000
,
0001
0000
1000
0000
0100
0010
0000
0001
0000
0000
0000
0000
0110
0000
0000
0000
,
1000
0001
1000
0001
1000
0001
1000
0001
1000
0001
1000
0001
1000
0001
1000
0001
1000
0001
1000
0001
1000
0001
1000
0001
0000
0000
0000
0000
1001
0000
0000
0000
,
1000
0000
0010
0000
0000
0000
0010
0000
1000
0000
1000
0000
0100
0000
0100
0000
0010
0000
0001
0000
0000
0000
0001
0000
1000
0010
1000
0010
1000
0010
1000
0010
,
0100
0000
0001
0000
0000
0000
0001
0000
1000
0000
1000
0000
0010
0000
0010
0000
0100
0000
0001
0000
0000
0000
0001
0000
0010
0100
0010
0100
0010
0100
0010
0100
,
0010
0000
0001
0000
0000
0000
0001
0000
0100
0000
0100
0000
0010
0000
0010
0000
1000
0000
0100
0000
0000
0000
0100
0000
1000
0010
1000
0010
1000
0010
1000
0010
,
0100
0000
0001
0000
0000
0000
0001
0000
0010
0000
0010
0000
0100
0000
0100
0000
1000
0000
0001
0000
0000
0000
0001
0000
0100
0001
0100
0001
0100
0001
0100
0001
,
0100
0000
0010
0000
0000
0000
0010
0000
1000
0000
1000
0000
0100
0000
0100
0000
0010
0000
0001
0000
0000
0000
0010
0000
0100
1000
0100
1000
0100
1000
0100
1000
,
0001
0000
0100
0000
0000
0000
0010
0000
1000
0000
1000
0000
0001
0000
0001
0000
0010
0000
0100
0000
0000
0000
1000
0000
0001
0010
0001
0010
0001
0010
0001
0010
,
0001
0000
1000
0000
0000
0000
1000
0000
0010
0000
0010
0000
0100
0000
0100
0000
0001
0000
1000
0000
0000
0000
1000
0000
0001
1000
0001
1000
0001
1000
0001
1000
,
0001
0010
0000
0100
1000
1000
0001
0001
1001
0000
0000
1001
0000
0000
0000
0000
,
1000
0001
1000
0001
1000
0001
1000
0001
1000
0001
1000
0001
1000
0001
1000
0001
1000
0001
1000
0001
1000
0001
1000
0001
0000
0000
0000
0000
0000
0000
0000
0000
,
0001
0001
0001
0001
0001
0001
0001
0001
,
0001
0010
0001
0010
0001
0010
0001
0010
0001
0010
0001
0010
0001
0010
0001
0010
,
0001
0010
0001
0010
0001
0010
0001
0010
0001
0010
0001
0010
0001
0010
0001
0010
0001
0010
0001
0010
0001
0010
0001
0010
0001
0010
0001
0010
0001
0010
0001
0010
,
0100
0000
0000
0000
0000
0000
0000
0000
0000
0000
0000
0000
0100
0000
0000
0000
0000
0000
0000
0000
0000
0000
0000
0000
0100
0000
0000
0000
0000
0000
0000
0000
0000
0000
0100
0000
0000
0000
0000
0000
0000
0000
0000
0000
0000
0100
0000
0000
,
0000
0000
0000
0000
0000
0000
0000
0000
0100
0000
0000
0000
0000
0000
0000
0000
0000
0000
0000
0000
0100
0000
0000
0000
0000
0000
0000
0000
0000
0000
0000
0000
0000
0100
0000
0000
0000
0000
0000
0000
0000
0000
0000
0000
0000
0100
0000
0000
,
0000
0000
0000
0000
0000
0100
0000
0000
0000
0000
0000
0000
0000
0000
0000
0000
0000
0000
0000
0000
0000
0000
0000
0000
,
0100
0100
1000
1000
0100
0100
0010
0010
0001
0010
1000
0010
0001
0010
1000
0010
,
0001
0001
0100
0100
0001
0001
0010
0010
0100
1000
0010
1000
0100
1000
0010
1000
,
0100
0100
0010
0010
0100
0100
1000
1000
0001
0100
1000
0100
0001
0100
1000
0100
,
0010
0010
1000
1000
0010
0010
0100
0100
0010
0100
0001
0100
0010
0100
0001
0100
,
0010
0010
1000
1000
0010
0010
0100
0100
1000
0100
0001
0100
1000
0100
0001
0100
,
0010
0010
1000
1000
0010
0010
0100
0100
0010
1000
0100
1000
0010
1000
0100
1000
,
0010
0010
0100
0100
0010
0010
1000
1000
0001
0010
1000
0010
0001
0010
1000
0010
,
0100
0100
1000
1000
0100
0100
0010
0010
0100
1000
0001
1000
0100
1000
0001
1000
,
0100
1000
0100
1000
0100
1000
0100
1000
0100
1000
0100
1000
0100
1000
0100
1000
0100
1000
0100
1000
0100
1000
0100
1000
0100
1000
0100
1000
0100
1000
0100
1000
,
0000
0100
0000
1000
0000
0100
0000
1000
0000
0100
0000
0000
0000
0000
1000
0000
,
0000
0000
0000
0000
,
0100
1000
0100
1000
0100
1000
0100
1000
0100
1000
0100
1000
0100
1000
0100
1000
0100
1000
0100
1000
0100
1000
0100
1000
0100
1000
0100
1000
0100
1000
0100
1000
,
0001
0000
0100
0000
0000
0000
0100
0000
0001
0000
0001
0000
0010
0000
0010
0000
0100
0000
1000
0000
0000
0000
1000
0000
0001
0100
0001
0100
0001
0100
0001
0100
,
0010
0000
1000
0000
0000
0000
1000
0000
0001
0000
0001
0000
0100
0000
0100
0000
0010
0000
1000
0000
0000
0000
1000
0000
0100
0010
0100
0010
0100
0010
0100
0010
,
0100
0000
1000
0000
0000
0000
1000
0000
0010
0000
0010
0000
0100
0000
0100
0000
0001
0000
0010
0000
0000
0000
0010
0000
0001
0100
0001
0100
0001
0100
0001
0100
,
0010
0000
1000
0000
0000
0000
1000
0000
0100
0000
0100
0000
0010
0000
0010
0000
0001
0000
1000
0000
0000
0000
1000
0000
0010
1000
0010
1000
0010
1000
0010
1000
,
0010
0000
0100
0000
0000
0000
0100
0000
0001
0000
0001
0000
0010
0000
0010
0000
0100
0000
1000
0000
0000
0000
0100
0000
0010
0001
0010
0001
0010
0001
0010
0001
,
1000
0000
0010
0000
0000
0000
0100
0000
0001
0000
0001
0000
1000
0000
1000
0000
0100
0000
0010
0000
0000
0000
0001
0000
1000
0100
1000
0100
1000
0100
1000
0100
,
0010
0000
0000
0000
0000
0000
0000
0000
0001
0000
1000
0000
0001
0000
1000
0000
0010
0000
0000
0000
0000
0000
0000
0000
1000
0001
1000
0001
1000
0001
1000
0001
,
0010
0000
0000
0000
0001
1000
0001
1000
0010
0000
0000
0010
0000
0000
0000
0000
,
0010
0000
1000
0100
1000
0000
0001
0100
0001
0000
1000
0100
1000
0000
0010
0000
0100
0000
0001
0000
0010
0000
0001
0000
1000
0000
0010
0000
0100
0000
0001
0000
,
0010
0000
0100
1000
0100
0000
0010
0001
0010
0000
0100
1000
0100
0000
0010
0000
0100
0000
1000
0000
0001
0000
1000
0000
0010
0000
0100
0000
0001
0000
1000
0000
,
0100
0000
1000
0010
1000
0000
0001
0010
0001
0000
1000
0010
1000
0000
0010
0000
0100
0000
0001
0000
0010
0000
0001
0000
1000
0000
0100
0000
0010
0000
0001
0000
,
1000
0000
0001
0100
0001
0000
1000
0010
1000
0000
0001
0100
0001
0000
0010
0000
0100
0000
1000
0000
0010
0000
1000
0000
0001
0000
0100
0000
0010
0000
1000
0000
,
0100
0000
1000
0100
1000
0000
0001
0100
0001
0000
1000
0100
1000
0000
0010
0000
0100
0000
0001
0000
1000
0000
0001
0000
0010
0000
0100
0000
1000
0000
0010
0000
,
0100
0000
0001
1000
0001
0000
0010
0100
0010
0000
0001
1000
0001
0000
0100
0000
0010
0000
1000
0000
0100
0000
1000
0000
0001
0000
0010
0000
0100
0000
1000
0000
,
0010
0000
1000
0100
1000
0000
0001
0100
0001
0000
1000
0100
1000
0000
0010
0000
0100
0000
0001
0000
0010
0000
0001
0000
1000
0000
0010
0000
0100
0000
0001
0000
,
0010
0000
0100
1000
0100
0000
0010
0001
0010
0000
0100
1000
0100
0000
0010
0000
0001
0000
1000
0000
0010
0000
1000
0000
0001
0000
0100
0000
0010
0000
1000
0000
,
0001
0010
0100
1000
0100
0000
0010
0001
0010
0000
0100
1000
0100
0000
0010
0000
0100
1000
0001
0000
0010
0000
0001
0000
0100
0000
0010
0000
1000
0000
0100
0000
,
0010
0001
1000
0010
1000
0000
0001
0010
0001
0000
1000
0010
1000
0000
0100
0000
0010
0001
1000
0000
0100
0000
1000
0000
0001
0000
0010
0000
0100
0000
1000
0000
,
0100
0010
0001
0100
0001
0000
1000
0010
1000
0000
0001
0100
0001
0000
0010
0000
0100
1000
0001
0000
0100
0000
0001
0000
1000
0000
0100
0000
0010
0000
0001
0000
,
0100
0010
1000
0100
1000
0000
0001
0100
0001
0000
1000
0100
1000
0000
0010
0000
0100
0001
1000
0000
0010
0000
1000
0000
0001
0000
0010
0000
0100
0000
1000
0000
,
0020
0030
0020
0030
,
0020
0030
0020
0000
,
0000
0000
0000
0000
0000
0000
0000
0130
0000
0000
0000
0000
0000
0000
0000
0000
;

//---------------dance-solo - Arch0wl----------------
#NOTES:
     dance-solo:
     Arch0wl:
     Hard:
     17:
     1.000,1.000,1.000,1.000,1.000,1070.000,491.000,195.000,0.000,188.000:
002200
000000
000000
000000
,
103300
000010
001000
000100
000100
000100
010000
000001
000001
000001
000100
000010
000010
010000
001000
001000
,
100000
000010
001000
000100
000100
000100
010000
000001
000001
000001
000100
000010
000010
010000
001000
001000
,
100000
000010
001000
000100
000100
000100
010000
000001
000001
000001
000100
000010
000010
010000
001000
001000
,
100000
000010
001000
000100
000100
000100
010000
000001
000001
000001
000100
000010
000010
010000
001000
001000
,
000100
000000
000000
000000
000000
000000
000000
000000
000000
000000
000000
000000
000000
000000
000000
000000
000100
000000
000000
000000
000000
000000
000000
000000
000000
000000
000000
000000
000000
000000
000000
000000
000100
000000
000000
000000
000000
000000
000000
000000
000000
000000
000000
000000
000000
000000
000000
000000
000000
000000
000000
000000
000000
000000
001000
000000
000000
000000
000000
000000
000100
000000
000000
000000
000000
000000
000000
000000
000000
000000
000000
000000
000100
000000
000000
000000
000000
000000
000000
000000
000000
000000
000000
000000
000100
000000
000000
000000
000000
000000
000000
000000
000000
000000
000000
000000
000000
000000
000000
000000
000000
000000
000000
000000
000000
000000
000000
000000
000100
000000
000000
000000
000000
000000
000000
000000
000000
000000
000000
000000
000000
000000
000000
000000
000000
000000
000000
000000
000000
000000
000000
000000
000100
000000
000000
000000
000000
000000
001000
000000
000000
000000
000000
000000
000100
000000
000000
000000
000000
000000
001000
000000
000000
000000
000000
000000
000100
000000
000000
000000
000000
000000
001000
000000
000000
000000
000000
000000
000100
000000
000000
000000
000000
000000
001000
000000
000000
000000
000000
000000
000100
000000
000000
000000
000000
000000
001000
000000
000000
000000
000000
000000
,
110001
000000
000000
000100
111011
000000
000000
000100
100011
000000
000000
000100
111011
000000
100100
000000
000001
000000
000000
000000
111011
000000
000000
000000
000001
000000
010000
000000
101011
000000
000000
000000
,
110011
000000
000000
000100
111011
000000
000000
000100
100011
000000
000000
000100
111011
000000
100100
000000
000001
000000
000000
000000
111011
000000
000000
000000
000001
000000
010000
000000
101011
000000
000001
000000
,
110011
000000
000000
000100
111011
000000
000000
000100
100011
000000
000000
000100
111011
000000
100100
000000
000001
000000
000000
000000
111011
000000
000000
000000
000001
000000
010000
000000
101011
000000
000000
000000
,
110011
000000
000000
000100
111011
000000
000000
000100
100011
000000
000000
000100
111011
000000
100100
000000
000001
000000
000000
000000
111011
000000
000000
000000
000001
000000
010001
000000
101011
000000
000001
000000
,
121011
000000
000000
000000
030000
000000
000000
000000
000000
000000
000000
000000
001200
000000
000000
000300
000000
000000
000100
000000
000000
000000
000000
000000
121011
000000
000000
000000
030000
000000
000000
000000
000000
000000
000000
000000
001200
000000
000000
000300
000000
000000
000100
000000
000000
000000
000000
000000
101011
000000
000000
000000
000000
000000
000000
000000
000000
000000
000000
000000
001200
000000
000000
000300
000000
000000
000100
000000
000000
000000
000000
000000
121011
000000
000000
000000
030000
000000
000000
000000
000000
000000
000000
000000
101200
000000
000000
000300
000000
000000
000000
000000
000000
000000
000000
000000
000001
000000
000000
000000
000000
000000
000000
000000
000000
000000
000000
000000
001200
000000
000000
000300
000000
000000
000000
000000
000000
000000
000000
000000
121011
000000
000000
000000
030000
000000
000000
000000
000000
000000
000000
000000
001200
000000
000000
000300
000000
000000
000000
000000
000000
000000
000000
000000
000001
000000
000000
000000
000000
000000
000000
000000
000000
000000
000000
000000
021000
000000
000000
000000
030000
000000
000000
000000
000000
000000
000000
000000
101011
000000
000000
000000
000000
000000
000000
000000
000000
000000
000000
000000
001000
000000
000000
000000
000000
000000
000000
000000
000000
000000
000000
000000
,
121011
000000
000000
000000
030000
000000
000000
000000
000000
000000
000000
000000
001200
000000
000000
000300
000000
000000
000100
000000
000000
000000
000000
000000
121011
000000
000000
000000
030000
000000
000000
000000
000000
000000
000000
000000
001200
000000
000000
000300
000000
000000
000100
000000
000000
000000
000000
000000
101011
000000
000000
000000
000000
000000
000000
000000
000000
000000
000000
000000
001200
000000
000000
000300
000000
000000
000100
000000
000000
000000
000000
000000
121011
000000
000000
000000
030000
000000
000000
000000
000000
000000
000000
000000
101200
000000
000000
000300
000000
000000
000000
000000
000000
000000
000000
000000
000001
000000
000000
000000
000000
000000
000000
000000
000000
000000
000000
000000
001200
000000
000000
000300
000000
000000
000000
000000
000000
000000
000000
000000
121011
000000
000000
000000
030000
000000
000000
000000
000000
000000
000000
000000
001200
000000
000000
000300
000000
000000
000000
000000
000000
000000
000000
000000
000001
000000
000000
000000
000000
000000
000000
000000
000000
000000
000000
000000
021000
000000
000000
000000
030000
000000
000000
000000
000000
000000
000000
000000
101101
000000
000000
000000
000000
000000
000000
000000
000000
000000
000000
000000
001001
000000
000000
000000
000000
000000
000000
000000
000000
000000
000000
000000
,
121011
000000
000000
000000
030000
000000
000000
000000
000000
000000
000000
000000
001200
000000
000000
000300
000000
000000
000100
000000
000000
000000
000000
000000
121011
000000
000000
000000
030000
000000
000000
000000
000000
000000
000000
000000
001200
000000
000000
000300
000000
000000
000100
000000
000000
000000
000000
000000
101011
000000
000000
000000
000000
000000
000000
000000
000000
000000
000000
000000
001200
000000
000000
000300
000000
000000
000100
000000
000000
000000
000000
000000
121011
000000
000000
000000
030000
000000
000000
000000
000000
000000
000000
000000
101200
000000
000000
000300
000000
000000
000000
000000
000000
000000
000000
000000
000001
000000
000000
000000
000000
000000
000000
000000
000000
000000
000000
000000
001200
000000
000000
000300
000000
000000
000000
000000
000000
000000
000000
000000
121011
000000
000000
000000
030000
000000
000000
000000
000000
000000
000000
000000
001200
000000
000000
000300
000000
000000
000000
000000
000000
000000
000000
000000
000001
000000
000000
000000
000000
000000
000000
000000
000000
000000
000000
000000
021000
000000
000000
000000
030000
000000
000000
000000
000000
000000
000000
000000
101011
000000
000000
000000
000000
000000
000000
000000
000000
000000
000000
000000
001000
000000
000000
000000
000000
000000
000000
000000
000000
000000
000000
000000
,
120001
030000
000000
000010
000000
000000
100001
000000
000000
020010
030000
000000
100100
000000
000000
000010
000000
000000
120100
030000
000000
100010
000000
000000
000001
000000
000000
000010
000000
000000
120100
030000
000000
001000
000000
000000
000010
000000
000000
000000
000000
000000
121000
030000
000000
000000
000000
000000
,
001000
000000
000000
000000
000100
000000
000000
000000
000010
000000
000000
000000
001000
000000
000100
000000
000010
000000
000001
000010
000100
001000
000001
000010
000100
000000
000000
000000
001000
000000
000000
000000
,
000100
000000
000010
000000
000001
000010
000000
000100
000000
000000
000000
000000
002000
000000
000000
000000
,
003010
010000
000010
010000
000010
010000
000010
010000
000010
010000
000010
010000
000010
010000
000010
010000
000010
010000
000010
010000
000010
010000
000010
010000
000000
000000
000000
000000
002000
000000
000000
000000
,
000101
000000
000001
000000
013000
000000
000001
000000
001100
000000
000101
000000
010100
000000
000101
000000
000100
000000
000001
000000
010000
000000
000001
000000
001100
100000
000100
100000
010101
100000
000100
100000
,
000101
000000
010001
000000
010000
000000
010001
000000
001100
000000
010101
000000
011100
000000
010101
000000
000100
000000
000001
000000
010000
000000
000001
000000
002100
100000
000100
100000
010101
100000
000100
100000
,
003101
000000
000001
000000
010000
000000
000001
000000
001100
000000
000101
000000
010100
000000
000101
000000
000100
000000
000001
000000
010000
000000
000001
000000
001100
100000
000100
100000
010101
100000
000100
100000
,
000101
000000
010001
000000
010000
000000
010001
000000
001100
000000
010101
000000
011100
000000
010101
000000
000100
000000
000001
000000
010000
000000
000001
000000
002100
100000
000100
100000
010101
100000
000100
100000
,
003101
000000
000001
000000
010000
000000
000001
000000
001100
000000
000101
000000
010100
000000
000101
000000
000100
000000
000001
000000
010000
000000
000001
000000
001100
100000
000100
100000
010101
100000
000100
100000
,
000101
000000
010001
000000
010000
000000
010001
000000
001100
000000
010101
000000
011100
000000
010101
000000
000100
000000
000001
000000
010000
000000
000001
000000
002100
100000
000100
100000
010101
100000
000100
100000
,
003101
000000
000001
000000
010000
000000
000001
000000
001100
000000
000101
000000
010100
000000
000101
000000
000100
000000
000001
000000
010000
000000
000001
000000
001100
100000
000100
100000
010101
100000
000100
100000
,
000101
010001
010000
010001
001100
010101
011100
010101
000100
000001
010000
000101
002000
000000
010001
000000
,
003010
010000
000010
010000
000010
010000
000010
010000
000010
010000
000010
010000
000010
010000
000010
010000
000010
010000
000010
010000
000010
010000
000010
010000
000000
000000
000000
000000
002000
000000
000000
000000
,
000100
003100
000100
000100
000100
000100
000100
000100
,
000100
000100
000100
000100
000100
000100
000100
000100
000100
000100
000100
000100
000100
000100
000100
000100
,
000100
001000
000100
001000
000100
001000
000100
001000
000100
001000
000100
001000
000100
001000
000100
001000
000100
001000
000100
001000
000100
001000
000100
001000
000100
001000
000100
001000
000100
001000
000100
001000
,
000100
000000
000000
000000
000000
000000
000000
000000
000000
000000
000000
000000
000100
000000
000000
000000
000000
000000
000000
000000
000000
000000
000000
000000
000100
000000
000000
000000
000000
000000
000000
000000
000000
000000
000100
000000
000000
000000
000000
000000
000000
000000
000000
000000
000000
000100
000000
000000
,
000000
000000
000000
000000
000000
000000
000000
000000
000100
000000
000000
000000
000000
000000
000000
000000
000000
000000
000000
000000
000100
000000
000000
000000
000000
000000
000000
000000
000000
000000
000000
000000
000000
000100
000000
000000
000000
000000
000000
000000
000000
000000
000000
000000
000000
000100
000000
000000
,
000000
000000
000000
000000
000000
000100
000000
000000
000000
000000
000000
000000
000000
000000
000000
000000
000000
000000
000000
000000
000000
000000
000000
000000
,
001001
001010
010001
010010
100001
100010
010001
010010
001001
100010
000001
100010
001001
100010
000001
100010
,
001001
001010
010001
010010
100001
100010
010001
010010
001001
100010
000001
100010
001001
100010
000001
100010
,
001001
001010
010001
010010
100001
100010
010001
010010
001001
100010
000001
100010
001001
100010
000001
100010
,
001001
001010
010001
010010
100001
100010
010001
010010
001001
100010
000001
100010
001001
100010
000001
100010
,
001001
001010
010001
010010
100001
100010
010001
010010
001001
100010
000001
100010
001001
100010
000001
100010
,
001001
001010
010001
010010
100001
100010
010001
010010
001001
100010
000001
100010
001001
100010
000001
100010
,
001001
001010
010001
010010
100001
100010
010001
010010
001001
100010
000001
100010
001001
100010
000001
100010
,
001001
001010
010001
010010
100001
100010
010001
010010
001001
100010
000001
100010
001001
100010
000001
100010
,
001001
000010
001000
000010
001000
000010
001000
000010
001000
000010
001000
000010
001000
000010
001000
000010
001000
000010
001000
000010
001000
000010
001000
000010
001000
000010
001000
000010
001000
000010
001000
000010
,
000000
001000
000000
000010
000000
001000
000000
000010
000000
001000
000000
000000
000000
000000
000010
000000
,
000000
000000
000000
000000
,
001000
000010
001000
000010
001000
000010
001000
000010
001000
000010
001000
000010
001000
000010
001000
000010
001000
000010
001000
000010
001000
000010
001000
000010
001000
000010
001000
000010
001000
000010
001000
000010
,
000101
000000
000001
000000
010000
000000
000001
000000
001100
000000
000101
000000
010100
000000
000101
000000
000100
000000
000001
000000
010000
000000
000001
000000
001100
100000
000100
100000
010101
100000
000100
100000
,
000101
000000
010001
000000
010000
000000
010001
000000
001100
000000
010101
000000
011100
000000
010101
000000
000100
000000
000001
000000
010000
000000
000001
000000
002100
100000
000100
100000
010101
100000
000100
100000
,
003101
000000
000001
000000
010000
000000
000001
000000
001100
000000
000101
000000
010100
000000
000101
000000
000100
000000
000001
000000
010000
000000
000001
000000
001100
100000
000100
100000
010101
100000
000100
100000
,
000101
000000
010001
000000
010000
000000
010001
000000
001100
000000
010101
000000
011100
000000
010101
000000
000100
000000
000001
000000
010000
000000
000001
000000
002100
100000
000100
100000
010101
100000
000100
100000
,
003101
000000
000001
000000
010000
000000
000001
000000
001100
000000
000101
000000
010100
000000
000101
000000
000100
000000
000001
000000
010000
000000
000001
000000
001100
100000
000100
100000
010101
100000
000100
100000
,
000101
000000
010001
000000
010000
000000
010001
000000
001100
000000
010101
000000
011100
000000
010101
000000
000100
000000
000001
000000
010000
000000
000001
000000
002100
100000
000100
100000
010101
100000
000100
100000
,
003101
000000
000000
000000
000000
000000
000000
000000
000100
000000
000100
000000
000100
000000
000100
000000
000100
000000
000000
000000
000000
000000
000000
000000
000100
100000
000100
100000
000100
100000
000100
100000
,
000100
000000
000000
000000
000100
000100
000100
000100
000100
000000
000000
000100
000000
000000
000000
000000
,
121011
000000
000000
000000
030000
000000
000000
000000
000000
000000
000000
000000
001200
000000
000000
000300
000000
000000
000100
000000
000000
000000
000000
000000
121011
000000
000000
000000
030000
000000
000000
000000
000000
000000
000000
000000
001200
000000
000000
000300
000000
000000
000100
000000
000000
000000
000000
000000
101011
000000
000000
000000
000000
000000
000000
000000
000000
000000
000000
000000
001200
000000
000000
000300
000000
000000
000100
000000
000000
000000
000000
000000
121011
000000
000000
000000
030000
000000
000000
000000
000000
000000
000000
000000
101200
000000
000000
000300
000000
000000
000000
000000
000000
000000
000000
000000
000011
000000
000000
000000
000000
000000
000000
000000
000000
000000
000000
000000
001200
000000
000000
000300
000000
000000
000000
000000
000000
000000
000000
000000
121011
000000
000000
000000
030000
000000
000000
000000
000000
000000
000000
000000
001200
000000
000000
000300
000000
000000
000000
000000
000000
000000
000000
000000
000011
000000
000000
000000
000000
000000
000000
000000
000000
000000
000000
000000
021000
000000
000000
000000
030000
000000
000000
000000
000000
000000
000000
000000
101101
000000
000000
000000
000000
000000
000000
000000
000000
000000
000000
000000
001000
000000
000000
000000
000000
000000
000000
000000
000000
000000
000000
000000
,
121011
000000
000000
000000
030000
000000
000000
000000
000000
000000
000000
000000
001200
000000
000000
000300
000000
000000
000100
000000
000000
000000
000000
000000
121011
000000
000000
000000
030000
000000
000000
000000
000000
000000
000000
000000
001200
000000
000000
000300
000000
000000
000100
000000
000000
000000
000000
000000
101011
000000
000000
000000
000000
000000
000000
000000
000000
000000
000000
000000
001200
000000
000000
000300
000000
000000
000100
000000
000000
000000
000000
000000
121011
000000
000000
000000
030000
000000
000000
000000
000000
000000
000000
000000
101200
000000
000000
000300
000000
000000
000000
000000
000000
000000
000000
000000
000011
000000
000000
000000
000000
000000
000000
000000
000000
000000
000000
000000
001200
000000
000000
000300
000000
000000
000000
000000
000000
000000
000000
000000
121011
000000
000000
000000
030000
000000
000000
000000
000000
000000
000000
000000
001200
000000
000000
000300
000000
000000
000000
000000
000000
000000
000000
000000
000011
000000
000000
000000
000000
000000
000000
000000
000000
000000
000000
000000
021000
000000
000000
000000
030000
000000
000000
000000
000000
000000
000000
000000
101101
000000
000000
000000
000000
000000
000000
000000
000000
000000
000000
000000
001001
000000
000000
000000
000000
000000
000000
000000
000000
000000
000000
000000
,
121011
000000
000000
000000
030000
000000
000000
000000
000000
000000
000000
000000
001200
000000
000000
000300
000000
000000
000100
000000
000000
000000
000000
000000
121011
000000
000000
000000
030000
000000
000000
000000
000000
000000
000000
000000
001200
000000
000000
000300
000000
000000
000100
000000
000000
000000
000000
000000
101011
000000
000000
000000
000000
000000
000000
000000
000000
000000
000000
000000
001200
000000
000000
000300
000000
000000
000100
000000
000000
000000
000000
000000
121011
000000
000000
000000
030000
000000
000000
000000
000000
000000
000000
000000
101200
000000
000000
000300
000000
000000
000000
000000
000000
000000
000000
000000
000011
000000
000000
000000
000000
000000
000000
000000
000000
000000
000000
000000
001200
000000
000000
000300
000000
000000
000000
000000
000000
000000
000000
000000
121011
000000
000000
000000
030000
000000
000000
000000
000000
000000
000000
000000
001200
000000
000000
000300
000000
000000
000000
000000
000000
000000
000000
000000
000011
000000
000000
000000
000000
000000
000000
000000
000000
000000
000000
000000
021000
000000
000000
000000
030000
000000
000000
000000
000000
000000
000000
000000
101011
000000
000000
000000
000000
000000
000000
000000
000000
000000
000000
000000
001000
000000
000000
000000
000000
000000
000000
000000
000000
000000
000000
000000
,
121011
000000
000000
000000
030000
000000
000000
000000
000000
000000
000000
000000
001200
000000
000000
000300
000000
000000
000100
000000
000000
000000
000000
000000
121011
000000
000000
000000
030000
000000
000000
000000
000000
000000
000000
000000
001200
000000
000000
000300
000000
000000
000100
000000
000000
000000
000000
000000
101011
000000
000000
000000
000000
000000
000000
000000
000000
000000
000000
000000
001200
000000
000000
000300
000000
000000
000100
000000
000000
000000
000000
000000
121011
000000
000000
000000
030000
000000
000000
000000
000000
000000
000000
000000
101200
000000
000000
000300
000000
000000
000000
000000
000000
000000
000000
000000
000011
000000
000000
000000
000000
000000
000000
000000
000000
000000
000000
000000
001200
000000
000000
000300
000000
000000
000000
000000
000000
000000
000000
000000
121011
000000
000000
000000
030000
000000
000000
000000
000000
000000
000000
000000
001200
000000
000000
000300
000000
000000
000000
000000
000000
000000
000000
000000
000011
000000
000000
000000
000000
000000
000000
000000
000000
000000
000000
000000
021001
000000
000000
000000
030000
000000
000000
000000
000000
000000
000000
000000
101011
000000
000000
000000
000000
000000
000000
000000
000000
000000
000000
000000
001001
000000
000000
000000
000000
000000
000000
000000
000000
000000
000000
000000
,
121011
000000
000000
000000
030000
000000
000000
000000
000000
000000
000000
000000
001200
000000
000000
000300
000000
000000
000100
000000
000000
000000
000000
000000
121011
000000
000000
000000
030000
000000
000000
000000
000000
000000
000000
000000
001200
000000
000000
000300
000000
000000
000100
000000
000000
000000
000000
000000
101011
000000
000000
000000
000000
000000
000000
000000
000000
000000
000000
000000
001200
000000
000000
000300
000000
000000
000100
000000
000000
000000
000000
000000
121011
000000
000000
000000
030000
000000
000000
000000
000000
000000
000000
000000
101200
000000
000000
000300
000000
000000
000000
000000
000000
000000
000000
000000
000011
000000
000000
000000
000000
000000
000000
000000
000000
000000
000000
000000
001200
000000
000000
000300
000000
000000
000000
000000
000000
000000
000000
000000
121011
000000
000000
000000
030000
000000
000000
000000
000000
000000
000000
000000
001200
000000
000000
000300
000000
000000
000000
000000
000000
000000
000000
000000
000011
000000
000000
000000
000000
000000
000000
000000
000000
000000
000000
000000
021000
000000
000000
000000
030000
000000
000000
000000
000000
000000
000000
000000
101011
000000
000000
000000
000000
000000
000000
000000
000000
000000
000000
000000
001000
000000
000000
000000
000000
000000
000000
000000
000000
000000
000000
000000
,
121011
000000
000000
000000
030000
000000
000000
000000
000000
000000
000000
000000
001200
000000
000000
000300
000000
000000
000100
000000
000000
000000
000000
000000
121011
000000
000000
000000
030000
000000
000000
000000
000000
000000
000000
000000
001200
000000
000000
000300
000000
000000
000100
000000
000000
000000
000000
000000
101011
000000
000000
000000
000000
000000
000000
000000
000000
000000
000000
000000
001200
000000
000000
000300
000000
000000
000100
000000
000000
000000
000000
000000
121011
000000
000000
000000
030000
000000
000000
000000
000000
000000
000000
000000
101200
000000
000000
000300
000000
000000
000000
000000
000000
000000
000000
000000
000011
000000
000000
000000
000000
000000
000000
000000
000000
000000
000000
000000
001200
000000
000000
000300
000000
000000
000000
000000
000000
000000
000000
000000
121011
000000
000000
000000
030000
000000
000000
000000
000000
000000
000000
000000
001200
000000
000000
000300
000000
000000
000000
000000
000000
000000
000000
000000
000011
000000
000000
000000
000000
000000
000000
000000
000000
000000
000000
000000
021000
000000
000000
000000
030000
000000
000000
000000
000000
000000
000000
000000
101011
000000
000000
000000
000000
000000
000000
000000
000000
000000
000000
000000
001001
000000
000000
000000
000000
000000
000000
000000
000000
000000
000000
000000
,
121011
000000
000000
000000
030000
000000
000000
000000
000000
000000
000000
000000
001200
000000
000000
000300
000000
000000
000100
000000
000000
000000
000000
000000
121011
000000
000000
000000
030000
000000
000000
000000
000000
000000
000000
000000
001200
000000
000000
000300
000000
000000
000100
000000
000000
000000
000000
000000
101011
000000
000000
000000
000000
000000
000000
000000
000000
000000
000000
000000
001200
000000
000000
000300
000000
000000
000100
000000
000000
000000
000000
000000
121011
000000
000000
000000
030000
000000
000000
000000
000000
000000
000000
000000
101200
000000
000000
000300
000000
000000
000000
000000
000000
000000
000000
000000
000011
000000
000000
000000
000000
000000
000000
000000
000000
000000
000000
000000
001200
000000
000000
000300
000000
000000
000000
000000
000000
000000
000000
000000
121011
000000
000000
000000
030000
000000
000000
000000
000000
000000
000000
000000
001200
000000
000000
000300
000000
000000
000000
000000
000000
000000
000000
000000
000011
000000
000000
000000
000000
000000
000000
000000
000000
000000
000000
000000
021000
000000
000000
000000
030000
000000
000000
000000
000000
000000
000000
000000
101011
000000
000000
000000
000000
000000
000000
000000
000000
000000
000000
000000
001000
000000
000000
000000
000000
000000
000000
000000
000000
000000
000000
000000
,
121011
000000
000000
000000
030000
000000
000000
000000
000000
000000
000000
000000
001200
000000
000000
000300
000000
000000
000100
000000
000000
000000
000000
000000
121011
000000
000000
000000
030000
000000
000000
000000
000000
000000
000000
000000
001200
000000
000000
000300
000000
000000
000100
000000
000000
000000
000000
000000
101011
000000
000000
000000
000000
000000
000000
000000
000000
000000
000000
000000
001200
000000
000000
000300
000000
000000
000100
000000
000000
000000
000000
000000
121011
000000
000000
000000
030000
000000
000000
000000
000000
000000
000000
000000
101200
000000
000000
000300
000000
000000
000000
000000
000000
000000
000000
000000
000011
000000
000000
000000
000000
000000
000000
000000
000000
000000
000000
000000
001200
000000
000000
000300
000000
000000
000000
000000
000000
000000
000000
000000
121011
000000
000000
000000
030000
000000
000000
000000
000000
000000
000000
000000
001200
000000
000000
000300
000000
000000
000000
000000
000000
000000
000000
000000
000011
000000
000000
000000
000000
000000
000000
000000
000000
000000
000000
000000
021001
000000
000000
000000
030000
000000
000000
000000
000000
000000
000000
000000
101011
000000
000000
000000
000000
000000
000000
000000
000000
000000
000000
000000
001001
000000
000000
000000
000000
000000
000000
000000
000000
000000
000000
000000
,
121021
000000
000000
000000
030000
000000
000000
000000
000000
000000
000000
000000
001230
000000
000000
000300
000000
000000
000100
000000
000000
000000
000000
000000
121011
000000
000000
000000
030000
000000
000000
000000
000000
000000
000000
000000
001200
000000
000000
000300
000000
000000
000100
000000
000000
000000
000000
000000
101011
000000
000000
000000
000000
000000
000000
000000
000000
000000
000000
000000
001200
000000
000000
000300
000000
000000
000100
000000
000000
000000
000000
000000
121011
000000
000000
000000
030000
000000
000000
000000
000000
000000
000000
000000
101200
000000
000000
000300
000000
000000
000000
000000
000000
000000
000000
000000
000021
000000
000000
000000
000000
000000
000000
000000
000000
000000
000000
000000
001230
000000
000000
000300
000000
000000
000000
000000
000000
000000
000000
000000
121011
000000
000000
000000
030000
000000
000000
000000
000000
000000
000000
000000
001200
000000
000000
000300
000000
000000
000000
000000
000000
000000
000000
000000
000011
000000
000000
000000
000000
000000
000000
000000
000000
000000
000000
000000
021000
000000
000000
000000
030000
000000
000000
000000
000000
000000
000000
000000
101011
000000
000000
000000
000000
000000
000000
000000
000000
000000
000000
000000
001000
000000
000000
000000
000000
000000
000000
000000
000000
000000
000000
000000
,
121021
000000
000000
000000
030000
000000
000000
000000
000000
000000
000000
000000
001230
000000
000000
000300
000000
000000
000100
000000
000000
000000
000000
000000
121011
000000
000000
000000
030000
000000
000000
000000
000000
000000
000000
000000
001200
000000
000000
000300
000000
000000
000100
000000
000000
000000
000000
000000
101011
000000
000000
000000
000000
000000
000000
000000
000000
000000
000000
000000
001200
000000
000000
000300
000000
000000
000100
000000
000000
000000
000000
000000
121011
000000
000000
000000
030000
000000
000000
000000
000000
000000
000000
000000
101200
000000
000000
000300
000000
000000
000000
000000
000000
000000
000000
000000
000021
000000
000000
000000
000000
000000
000000
000000
000000
000000
000000
000000
001230
000000
000000
000300
000000
000000
000000
000000
000000
000000
000000
000000
121011
000000
000000
000000
030000
000000
000000
000000
000000
000000
000000
000000
001200
000000
000000
000300
000000
000000
000000
000000
000000
000000
000000
000000
000011
000000
000000
000000
000000
000000
000000
000000
000000
000000
000000
000000
021000
000000
000000
000000
030000
000000
000000
000000
000000
000000
000000
000000
101011
000000
000000
000000
000000
000000
000000
000000
000000
000000
000000
000000
001001
000000
000000
000000
000000
000000
000000
000000
000000
000000
000000
000000
,
121121
000000
000000
000000
030000
000000
000000
000000
000000
000000
000000
000000
001230
000000
000000
000300
000000
000000
000100
000000
000000
000000
000000
000000
121011
000000
000000
000000
030000
000000
000000
000000
000000
000000
000000
000000
001200
000000
000000
000300
000000
000000
000100
000000
000000
000000
000000
000000
101011
000000
000000
000000
000000
000000
000000
000000
000000
000000
000000
000000
001200
000000
000000
000300
000000
000000
000100
000000
000000
000000
000000
000000
121011
000000
000000
000000
030000
000000
000000
000000
000000
000000
000000
000000
101200
000000
000000
000300
000000
000000
000000
000000
000000
000000
000000
000000
000021
000000
000000
000000
000000
000000
000000
000000
000000
000000
000000
000000
001230
000000
000000
000300
000000
000000
000000
000000
000000
000000
000000
000000
121011
000000
000000
000000
030000
000000
000000
000000
000000
000000
000000
000000
001200
000000
000000
000300
000000
000000
000000
000000
000000
000000
000000
000000
000011
000000
000000
000000
000000
000000
000000
000000
000000
000000
000000
000000
021000
000000
000000
000000
030000
000000
000000
000000
000000
000000
000000
000000
101011
000000
000000
000000
000000
000000
000000
000000
000000
000000
000000
000000
001000
000000
000000
000000
000000
000000
000000
000000
000000
000000
000000
000000
,
121121
000000
000000
000000
030000
000000
000000
000000
000000
000000
000000
000000
001230
000000
000000
000300
000000
000000
000100
000000
000000
000000
000000
000000
121011
000000
000000
000000
030000
000000
000000
000000
000000
000000
000000
000000
001200
000000
000000
000300
000000
000000
000100
000000
000000
000000
000000
000000
101011
000000
000000
000000
000000
000000
000000
000000
000000
000000
000000
000000
001200
000000
000000
000300
000000
000000
000100
000000
000000
000000
000000
000000
121011
000000
000000
000000
030000
000000
000000
000000
000000
000000
000000
000000
101200
000000
000000
000300
000000
000000
000000
000000
000000
000000
000000
000000
000021
000000
000000
000000
000000
000000
000000
000000
000000
000000
000000
000000
001230
000000
000000
000300
000000
000000
000000
000000
000000
000000
000000
000000
121011
000000
000000
000000
030000
000000
000000
000000
000000
000000
000000
000000
001200
000000
000000
000300
000000
000000
000000
000000
000000
000000
000000
000000
000011
000000
000000
000000
000000
000000
000000
000000
000000
000000
000000
000000
021001
000000
000000
000000
030000
000000
000000
000000
000000
000000
000000
000000
101011
000000
000000
000000
000000
000000
000000
000000
000000
000000
000000
000000
001001
000000
000000
000000
000000
000000
000000
000000
000000
000000
000000
000000
,
000020
000030
000020
000030
,
000020
000030
000020
000000
,
000000
000000
000000
000000
000000
000000
000000
002131
000000
000000
000000
003000
000000
000000
000000
000000
;

//---------------dance-single - Arch0wl----------------
#NOTES:
     dance-single:
     Arch0wl:
     Medium:
     12:
     1.000,1.000,0.514,0.143,1.000,735.000,54.000,15.000,0.000,4.000:
0220
0000
0000
0000
,
1330
0001
0100
0010
0001
0010
1000
0100
0001
0100
0010
0001
1000
0100
0010
0001
,
1000
0001
0100
0010
0001
0010
1000
0100
0001
0100
0010
0001
1000
0100
0010
0001
,
1000
0001
0100
0010
0001
0010
1000
0100
0001
0100
0010
0001
1000
0100
0010
0001
,
1000
0001
0100
0010
0001
0010
1000
0100
0001
0100
0010
0001
1000
0100
0010
0001
,
0100
0000
0000
0000
0000
0000
0000
0000
0000
0000
0000
0000
0000
0000
0000
0000
0100
0000
0000
0000
0000
0000
0000
0000
0000
0000
0000
0000
0000
0000
0000
0000
0100
0000
0000
0000
0000
0000
0000
0000
0000
0000
0000
0000
0000
0000
0000
0000
0000
0000
0000
0000
0000
0000
0100
0000
0000
0000
0000
0000
0000
0000
0000
0000
0000
0000
0000
0000
0000
0000
0000
0000
0000
0000
0000
0000
0000
0000
0000
0000
0000
0000
0000
0000
0100
0000
0000
0000
0000
0000
0000
0000
0000
0000
0000
0000
0000
0000
0000
0000
0000
0000
0000
0000
0000
0000
0000
0000
0100
0000
0000
0000
0000
0000
0000
0000
0000
0000
0000
0000
0000
0000
0000
0000
0000
0000
0000
0000
0000
0000
0000
0000
0220
0000
0000
0000
0000
0000
0000
0000
0000
0000
0000
0000
0000
0000
0000
0000
0000
0000
0000
0000
0000
0000
0000
0000
0000
0000
0000
0000
0000
0000
0000
0000
0000
0000
0000
0000
0000
0000
0000
0000
0000
0000
0000
0000
0000
0000
0000
0000
0000
0000
0000
0000
0000
0000
0000
0000
0000
0000
0000
0000
,
1330
0000
0000
0010
1000
0000
0000
0010
1000
0000
0000
0010
1000
0000
0100
0000
0010
0000
0000
0000
1001
0000
0000
0000
1000
0000
0001
0000
1000
0000
0000
0000
,
0001
0000
0000
0010
0001
0000
0000
0010
0001
0000
0000
0010
0001
0000
0100
0000
0010
0000
0000
0000
1010
0000
0000
0000
1000
0000
0010
0000
1000
0000
0010
0000
,
0100
0000
0000
0001
0100
0000
0000
0001
0100
0000
0000
0001
0100
0000
0010
0000
1000
0000
0000
0000
1100
0000
0000
0000
0100
0000
1000
0000
0100
0000
0000
0000
,
0010
0000
0000
0100
0010
0000
0000
0100
0010
0000
0000
0100
0010
0000
0001
0000
0100
0000
0000
0000
0101
0000
0000
0000
0001
0000
0100
0000
0001
0000
0100
0000
,
0010
1000
1000
0100
0100
1000
1000
0010
0000
0000
1001
0000
0000
0000
1001
0000
,
0010
0100
0100
0010
0010
0100
0100
0001
0000
0000
0011
0000
0000
0000
0011
0000
,
0100
1000
1000
0001
0001
1000
1000
0010
0000
0000
0110
0000
0000
0000
0110
0000
,
1000
0010
0100
0001
1000
0100
0010
0001
1000
0010
0100
0001
0010
0000
1001
0000
,
0001
0000
0100
0000
0010
0000
1000
0010
0100
0002
0023
0230
1300
0000
1000
0000
,
0001
0000
1000
0000
0100
0010
0000
0001
0000
0000
0000
0000
0110
0000
0000
0000
,
1000
0001
1000
0001
1000
0001
1000
0001
1000
0001
1000
0001
0000
0000
1001
0000
,
1010
0000
0000
0000
1000
1000
0100
0100
0110
0000
0000
0000
0100
1000
0100
1000
,
1001
0000
0000
0000
0001
0001
0100
0100
0101
0000
0000
0000
0001
0100
0001
0100
,
0110
0000
0000
0000
1000
1000
0010
0010
1010
0000
0000
0000
0001
0100
0001
0100
,
0101
0000
0000
0000
1000
1000
0010
0010
1010
0000
0000
0000
0100
0010
0100
0010
,
0011
0000
0000
0000
0100
0100
1000
1000
0001
0000
0000
0000
0100
0100
0010
0010
,
1010
0000
0000
0000
0100
0100
0001
0001
1001
0000
0000
0000
0100
0010
0100
0010
,
1010
0000
0000
0000
0001
0001
0010
0010
0110
0000
0000
0000
1000
0010
1000
0010
,
1010
0000
0000
0000
0100
0100
0010
0010
1001
0000
0000
1001
0000
0000
0000
0000
,
1000
0001
1000
0001
1000
0001
1000
0001
1000
0001
1000
0001
0000
0000
0000
0000
,
0001
0001
0001
0001
0001
0001
0001
0001
,
0001
0010
0001
0010
0001
0010
0001
0010
0001
0010
0001
0010
0001
0010
0001
0010
,
0022
0000
0000
0000
,
0133
0000
0000
0000
0000
0000
0000
0000
0000
0000
0000
0000
0100
0000
0000
0000
0000
0000
0000
0000
0000
0000
0000
0000
0100
0000
0000
0000
0000
0000
0000
0000
0000
0000
0100
0000
0000
0000
0000
0000
0000
0000
0000
0000
0000
0100
0000
0000
,
0000
0000
0000
0000
0000
0000
0000
0000
0100
0000
0000
0000
0000
0000
0000
0000
0000
0000
0000
0000
0100
0000
0000
0000
0000
0000
0000
0000
0000
0000
0000
0000
0000
0100
0000
0000
0000
0000
0000
0000
0000
0000
0000
0000
0000
0100
0000
0000
,
0000
0000
0000
0000
0000
0100
0000
0000
0000
0000
0000
0000
0000
0000
0000
0000
0000
0000
0000
0000
0000
0000
0000
0000
,
0100
0100
1000
1000
0100
0100
0010
0010
0001
0010
1000
0010
0001
0010
1000
0010
,
0001
0001
0100
0100
0001
0001
0010
0010
0100
1000
0010
1000
0100
1000
0010
1000
,
0100
0100
0010
0010
0100
0100
1000
1000
0001
0100
1000
0100
0001
0100
1000
0100
,
0010
0010
1000
1000
0010
0010
0100
0100
0010
0100
0001
0100
0010
0100
0001
0100
,
0010
0010
1000
1000
0010
0010
0100
0100
1000
0100
0001
0100
1000
0100
0001
0100
,
0010
0010
1000
1000
0010
0010
0100
0100
0010
1000
0100
1000
0010
1000
0100
1000
,
0010
0010
0100
0100
0010
0010
1000
1000
0001
0010
1000
0010
0001
0010
1000
0010
,
0100
0100
1000
1000
0100
0100
0010
0010
0100
1000
0001
1000
0100
1000
0001
1000
,
0200
0000
0000
0000
0000
0000
0000
0000
0000
0000
0000
0000
0000
0000
0000
0000
0000
0000
0000
0000
0000
0000
0000
0000
0000
0000
0000
0000
0000
0000
0000
1300
,
0000
0100
0000
1000
0000
0100
0000
1000
0000
0100
0000
0000
0000
0000
1000
0000
,
0000
0000
0000
0000
,
0200
0000
0000
0000
,
1301
0000
0000
0000
1000
1000
0100
0100
0110
0000
0000
0000
0100
1000
0100
1000
,
1001
0000
0000
0000
0001
0001
0100
0100
0101
0000
0000
0000
0001
0100
0001
0100
,
0110
0000
0000
0000
1000
1000
0010
0010
1010
0000
0000
0000
0001
0100
0001
0100
,
0101
0000
0000
0000
1000
1000
0010
0010
1010
0000
0000
0000
0100
0010
0100
0010
,
0011
0000
0000
0000
0100
0100
1000
1000
0001
0000
0000
0000
0100
0100
0010
0010
,
1010
0000
0000
0000
0100
0100
0001
0001
1001
0000
0000
0000
0100
0010
0100
0010
,
1001
0000
0000
0000
1000
0001
1000
0001
1001
0000
0000
0000
0001
1000
0001
1000
,
1001
0000
0000
0000
1000
0001
1000
0001
0100
0000
0000
0100
0000
0000
0000
0000
,
0100
0100
0001
0001
0100
0100
0001
0100
0010
1000
0100
1000
0001
0100
0010
1000
,
0100
0100
0010
0010
0100
0100
0010
0100
0010
0001
1000
0001
0100
0010
1000
0001
,
0010
0010
0001
0001
0010
0010
0001
0100
0010
1000
0100
1000
0001
0010
0100
1000
,
0001
0001
1000
1000
0001
0001
1000
0100
0010
0001
0100
0001
1000
0010
0100
0001
,
0010
0010
0001
0001
0010
0010
0001
0100
0010
1000
0001
1000
0100
0010
0001
0100
,
0010
0010
1000
1000
0010
0010
1000
0010
0100
0001
0010
0001
1000
0100
0010
0001
,
0100
0100
0001
0001
0100
0100
0001
0100
0010
1000
0100
1000
0001
0100
0010
1000
,
0100
0100
0010
0010
0100
0100
0010
0100
1000
0001
0100
0001
1000
0010
0100
0001
,
1010
1000
0010
0010
1000
1000
0010
0100
1010
1000
0100
1000
0010
0100
0001
0010
,
1100
0100
1000
1000
0001
0001
1000
0010
1100
0001
0010
0001
1000
0100
0010
0001
,
0011
0010
0100
0100
0010
0010
1000
0010
0011
1000
0010
1000
0001
0010
0100
1000
,
1010
0010
0100
0100
0010
0010
1000
0100
1010
0001
0100
0001
1000
0100
0010
0001
,
0200
0300
0200
0300
,
0200
0300
0200
0000
,
0000
0000
0000
0000
0000
0000
0000
0310
0000
0000
0000
0000
0000
0000
0000
0000
;

//---------------dance-single - Arch0wl----------------
#NOTES:
     dance-single:
     Arch0wl:
     Easy:
     10:
     0.845,1.000,0.124,0.305,1.000,576.000,13.000,32.000,0.000,2.000:
0220
0000
0000
0000
,
1330
0000
0100
0000
0000
0000
0010
0000
0000
0000
0001
0000
0000
0001
0000
0000
,
1000
0000
0100
0000
0000
0000
0010
0000
0000
0000
0001
0000
0000
0001
0000
0000
,
1000
0000
0100
0000
0000
0000
0010
0000
0000
0000
0001
0000
0000
0001
0000
0000
,
1000
0000
0100
0000
0000
0000
0010
0000
0000
0000
0001
0000
0000
0001
0000
0000
,
0100
0000
0000
0000
0000
0000
0000
0000
0000
0000
0000
0000
0000
0000
0000
0000
0010
0000
0000
0000
0000
0000
0000
0000
0000
0000
0000
0000
0000
0000
0000
0000
0100
0000
0000
0000
0000
0000
0000
0000
0000
0000
0000
0000
0000
0000
0000
0000
0000
0000
0000
0000
0000
0000
0010
0000
0000
0000
0000
0000
0000
0000
0000
0000
0000
0000
0000
0000
0000
0000
0000
0000
0000
0000
0000
0000
0000
0000
0000
0000
0000
0000
0000
0000
0100
0000
0000
0000
0000
0000
0000
0000
0000
0000
0000
0000
0000
0000
0000
0000
0000
0000
0000
0000
0000
0000
0000
0000
0010
0000
0000
0000
0000
0000
0000
0000
0000
0000
0000
0000
0000
0000
0000
0000
0000
0000
0000
0000
0000
0000
0000
0000
0220
0000
0000
0000
0000
0000
0000
0000
0000
0000
0000
0000
0000
0000
0000
0000
0000
0000
0000
0000
0000
0000
0000
0000
0000
0000
0000
0000
0000
0000
0000
0000
0000
0000
0000
0000
0000
0000
0000
0000
0000
0000
0000
0000
0000
0000
0000
0000
0000
0000
0000
0000
0000
0000
0000
0000
0000
0000
0000
0000
,
1330
0000
1000
0000
1000
0000
1000
0100
0000
0000
1001
0000
0000
0000
1000
0000
,
0001
0000
0001
0000
0001
0000
0001
0100
0000
0000
1010
0000
0000
0000
1000
0000
,
0100
0000
0100
0000
0100
0000
0100
0010
0000
0000
1100
0000
0000
0000
0100
0000
,
0010
0000
0010
0000
0010
0000
0010
0001
0000
0000
0101
0000
0000
0000
0001
0000
,
0100
0000
0100
0000
0100
0000
0100
0010
0000
0000
1001
0000
0000
0000
1001
0000
,
0010
0000
0010
0000
0010
0000
0010
0100
0000
0000
0101
0000
0000
0000
0010
0000
,
0100
0000
0100
0000
0100
0000
0100
1000
0000
0000
1010
0000
0000
0000
1000
0000
,
0001
0010
0100
1000
0001
0010
0100
1000
0001
0100
0010
1000
0100
0000
1000
0000
,
1000
0000
0001
0000
0010
0000
0100
1000
0001
0020
0230
2300
3001
0000
1000
0000
,
0001
0000
1000
0000
0100
0010
0000
0001
0000
0000
0000
0000
0110
0000
0000
0000
,
2002
0000
0000
0000
0000
0000
0000
0000
0000
0000
0000
0000
0000
0000
0000
0000
0000
0000
0000
0000
0000
0000
0000
3003
0000
0000
0000
0000
0100
0000
0000
0000
,
1000
0000
0000
0000
0001
0010
0001
0010
0100
0000
0000
0000
2000
0000
0000
0000
,
3010
0000
0000
0000
0100
0001
0100
0001
0010
0000
0000
0000
0200
0000
0000
0000
,
1300
0000
0000
0000
0010
0100
0010
0100
0001
0000
0000
0000
0020
0000
0000
0000
,
0130
0000
0000
0000
1000
0010
1000
0010
0100
0000
0000
0000
0002
0000
0000
0000
,
0013
0000
0000
0000
1000
0010
1000
0010
0001
0000
0000
0000
0200
0000
0000
0000
,
0310
0000
0000
0000
1000
0100
1000
0100
0001
0000
0000
0000
0200
0000
0000
0000
,
1300
0000
0000
0000
0010
0001
0010
0001
1000
0000
0000
0000
0200
0000
0000
0000
,
0301
0000
0000
0000
0010
1000
0010
1000
0001
0000
0000
0001
0000
0000
0000
0000
,
0220
0000
0000
0000
0000
0000
0000
0000
0000
0000
0000
0000
0000
0000
0000
0000
0000
0000
0000
0000
0000
0000
0000
0330
0000
0000
0000
0000
0000
0000
0000
0000
,
0001
0001
0001
0001
0001
0001
0001
0001
,
0001
0010
0001
0010
0001
0010
0001
0010
0001
0010
0001
0010
0001
0010
0001
0010
,
0002
0000
0000
0000
,
0103
0000
0000
0000
0000
0000
0000
0000
0000
0000
0000
0000
0100
0000
0000
0000
0000
0000
0000
0000
0000
0000
0000
0000
0100
0000
0000
0000
0000
0000
0000
0000
0000
0000
0100
0000
0000
0000
0000
0000
0000
0000
0000
0000
0000
0100
0000
0000
,
0000
0000
0000
0000
0000
0000
0000
0000
0100
0000
0000
0000
0000
0000
0000
0000
0000
0000
0000
0000
0100
0000
0000
0000
0000
0000
0000
0000
0000
0000
0000
0000
0000
0100
0000
0000
0000
0000
0000
0000
0000
0000
0000
0000
0000
0100
0000
0000
,
0000
0000
0000
0000
0000
0100
0000
0000
0000
0000
0000
0000
0000
0000
0000
0000
0000
0000
0000
0000
0000
0000
0000
0000
,
0100
0010
1000
0010
0100
0010
0001
0010
1000
0100
0000
0100
1000
0100
0000
0100
,
0010
0001
0100
0001
0010
0001
1000
0001
0010
0100
0000
0100
0010
0100
0000
0100
,
0010
1000
0001
1000
0010
1000
0100
1000
0010
0001
0000
0001
0010
0001
0000
0001
,
1000
0010
0001
0010
1000
0010
0100
0010
1000
0010
0000
0010
1000
0010
0000
0010
,
1000
0001
0010
0001
1000
0001
0100
0001
0010
1000
0000
1000
0010
1000
0000
1000
,
0001
0100
1000
0100
0001
0100
0010
0100
0001
1000
0000
1000
0001
1000
0000
1000
,
0010
0001
0100
0001
0010
0001
1000
0001
0010
0100
0000
0100
0010
0100
0000
0100
,
0010
0001
0100
0001
0010
0001
1000
0001
0010
0001
0000
0001
0010
0001
0000
0001
,
0200
0000
0000
0000
0000
0000
0000
0000
0000
0000
0000
0000
0000
0000
0000
0000
0000
0000
0000
0000
0000
0000
0000
0000
0000
0000
0000
0000
0000
0000
0000
1300
,
0000
0100
0000
1000
0000
0100
0000
1000
0000
0100
0000
0000
0000
0000
1000
0000
,
0000
0000
0000
0000
,
0200
0000
0000
0000
,
1300
0000
0000
0000
0001
0010
0001
0010
0100
0000
0000
0000
2000
0000
0000
0000
,
3010
0000
0000
0000
0100
0001
0100
0001
0010
0000
0000
0000
0200
0000
0000
0000
,
1300
0000
0000
0000
0010
0100
0010
0100
0001
0000
0000
0000
0020
0000
0000
0000
,
0130
0000
0000
0000
1000
0010
1000
0010
0100
0000
0000
0000
0002
0000
0000
0000
,
0013
0000
0000
0000
1000
0010
1000
0010
0001
0000
0000
0000
0200
0000
0000
0000
,
0310
0000
0000
0000
1000
0100
1000
0100
0001
0000
0000
0000
0200
0000
0000
0000
,
1300
0000
0000
0000
0001
0100
0001
0100
0010
0000
0000
0000
0020
0000
0000
0000
,
0130
0000
0000
0000
0001
1000
0001
1000
0100
0000
0000
0100
0000
0000
0000
0000
,
0010
0100
0010
0100
0010
0100
1000
0010
0100
0001
0010
0001
1000
0010
0100
0001
,
0100
0010
0100
0010
0100
0010
1000
0001
0100
0010
1000
0010
0100
0001
1000
0100
,
1000
0010
1000
0010
1000
0010
0100
0001
1000
0001
0010
0001
1000
0100
0010
0001
,
0010
0100
0010
0100
0010
0100
1000
0001
0100
0010
1000
0010
0100
0001
0010
1000
,
0010
0100
0010
0100
0010
0100
1000
0010
0100
0001
1000
0001
0010
0100
1000
0001
,
1000
0010
1000
0010
1000
0010
0100
0001
1000
0010
0100
0010
1000
0100
0010
1000
,
0010
0001
0010
0001
0010
0001
1000
0010
0100
0001
0010
0001
1000
0010
0100
0001
,
0010
0100
0010
0100
0010
0100
1000
0001
0100
0010
1000
0010
0100
0001
0010
0100
,
1000
0001
0100
0010
0100
0010
0100
0010
1000
0001
0100
0010
0100
0010
0100
0010
,
1000
0001
0100
0010
0100
0010
0100
0010
1000
0001
0100
0010
0100
0010
0100
0010
,
1000
0001
0100
0010
0100
0010
0100
0010
1000
0001
0100
0010
0100
0010
0100
0010
,
1000
0001
0100
0010
0100
0010
0100
0010
1000
0001
0100
0010
0100
0010
0100
0010
,
0200
0300
0200
0300
,
0200
0300
0200
0000
,
0000
0000
0000
0000
0000
0000
0000
0310
0000
0000
0000
0000
0000
0000
0000
0000
;
