#TITLE:Pure Hatred;
#SUBTITLE:;
#ARTIST:The Berzerker;
#TITLETRANSLIT:;
#SUBTITLETRANSLIT:;
#ARTISTTRANSLIT:;
#CREDIT:Dog_E;
#BANNER:banner.PNG;
#BACKGROUND:bg.PNG;
#LYRICSPATH:;
#CDTITLE:DogETitle.PNG;
#MUSIC:The Berzerker - Industrial Death Metal.mp3;
#OFFSET:0.733;
#SAMPLESTART:11.663;
#SAMPLELENGTH:12.380;
#SELECTABLE:YES;
#BPMS:0.000=242.000;
#STOPS:;
#BGCHANGES:;
// cache tags:
#FIRSTBEAT:3.000;
#LASTBEAT:340.000;
#SONGFILENAME:Songs/hard shit/Pure Hatred (Dog_E)/The Berzerker - Industrial Death Metal.sm;
#HASMUSIC:1;
#HASBANNER:1;
#MUSICLENGTH:84.060;
// end cache tags

//---------------dance-single - Blank----------------
#NOTES:
     dance-single:
     Blank:
     Hard:
     14:
     1.000,1.000,1.000,0.238,1.000,894.000,356.000,20.000,0.000,5.000:

0000
0000
0000
0002
,
0113
1000
0011
1000
0101
1000
0011
0100
,
1001
0100
0011
0100
1010
0110
1001
0110
,
0101
0010
1100
0010
1001
0010
0101
0010
,
1100
0000
0110
0000
0011
0000
0110
0000
0011
0000
0110
0000
0001
0010
0100
1000
,
0011
0110
0011
1100
0011
0110
1001
0011
,
1001
1100
1001
0101
0011
1010
1001
0110
,
1100
1001
1100
1001
0011
1001
0011
1001
,
1000
0100
0010
0001
1000
0010
0100
0001
1100
0000
0110
0000
0011
0000
0110
0000
,
0011
1000
0110
0001
1100
0010
1001
0100
,
0011
0000
1000
0000
0110
0000
0001
0000
1100
0000
0010
0000
0101
0000
0010
0100
,
1001
0100
0011
1100
0001
0110
0011
0110
,
1100
0011
0110
1001
0110
1001
0011
1100
,
0001
1000
0001
1000
0001
1000
0001
1000
0001
1000
0001
1000
0001
1000
0001
1000
,
0001
0010
0100
1000
0001
0100
0010
1000
0001
0010
0100
1000
0001
0010
0100
1000
,
0001
1000
0001
1000
0001
1000
0001
1000
0010
0100
0010
0100
0010
0100
0010
0100
,
1000
0100
0010
0001
1000
0100
0010
0001
1000
0010
0100
0001
1000
0100
0010
0001
,
1000
0100
0010
0001
1000
0100
0010
0001
1000
0010
0100
0001
1000
0010
0100
0001
,
1000
0001
1000
0001
1000
0001
1000
0001
1000
0010
1000
0010
1000
0010
1000
0010
,
0100
0001
0100
0001
0100
0001
0100
0001
1000
0001
1000
0001
1000
0001
1000
0001
,
1000
0100
0010
0001
1000
0010
0100
0001
1000
0100
0010
0001
1000
0100
0010
0100
,
1001
0011
1001
1010
1001
0011
1001
1010
,
1001
1100
1001
0101
1001
1100
1001
0101
,
1010
0101
1010
0101
1010
0101
1010
0101
,
1001
0110
1001
0110
1001
0110
1001
0110
,
0011
1100
0011
1100
0011
1100
0011
1100
,
0110
1001
0110
1001
0110
1001
0110
1001
,
1100
0110
0011
0110
1100
0110
0011
0110
,
0011
1100
0011
1100
0110
1001
0110
1001
,
0110
1000
0100
1000
0002
1003
0100
1000
,
0100
0010
0100
1000
0001
0100
0010
0100
,
1001
0100
0001
0010
0100
1000
0100
0010
,
2002
3003
2002
3003
2002
3003
2002
3003
2002
3003
2002
3003
0022
0033
0022
0033
,
1001
1000
0100
1000
0110
1000
0100
1000
,
0011
1000
0100
0010
0101
0110
1100
0110
,
0011
0000
1000
0100
1000
0000
0110
0000
0011
0000
1100
0000
0110
0000
0011
0000
,
1100
0000
0101
0000
0011
0000
1010
0000
1001
0000
0100
0010
0100
0000
1001
0000
,
0001
0010
0100
1000
0001
0010
0100
1000
0001
0100
0010
1000
0001
0100
0010
1000
,
0001
1000
0001
1000
0001
0010
0001
0010
0001
0100
0001
0100
0001
1000
0001
1000
,
0001
0010
0100
1000
0001
0100
0010
1000
0001
0100
0010
1000
0001
0010
0100
1000
,
0001
0010
0001
0010
0001
0100
0001
0100
0001
0010
0001
0010
0001
1000
0001
1000
,
0001
0010
0100
1000
0001
0010
0100
1000
0001
0100
0010
1000
0001
0010
0100
1000
,
0010
0100
0001
1000
0010
0100
0001
1000
0010
0100
0001
1000
0100
0010
0001
0100
,
0010
0001
1000
0010
0100
0001
1000
0010
0100
0001
1000
0001
0010
0100
1000
0100
,
0010
0100
0010
0100
1000
0100
1000
0100
0010
0001
0010
0001
0010
0100
0010
0100
,
1000
0100
0010
0001
1000
0100
0010
0001
1000
0010
0100
0001
1000
0010
0100
0001
,
1000
0100
1000
0100
1000
0010
1000
0010
1000
0001
1000
0001
1000
0010
1000
0010
,
1000
0100
0010
0001
1000
0010
0100
0001
1000
0010
0100
0001
1000
0100
0010
0001
,
1000
0001
1000
0001
0010
0001
0010
0001
0100
0010
0100
0010
0100
0001
0100
0001
,
1000
0100
0010
0001
1000
0100
0010
0001
0010
0100
1000
0001
0010
0100
1000
0001
,
1000
0100
0010
0001
1000
0001
0010
0100
1000
0001
0010
0100
1000
0001
1000
0100
,
0010
0001
1000
0001
0010
0001
1000
0100
1000
0010
1000
0100
0010
0001
1000
0100
,
1001
0000
0000
0000
0011
0000
0000
0000
0001
1010
0100
1000
0110
1000
0100
0010
,
1001
0011
0110
1100
0011
0110
1100
0011
,
1100
0110
0011
1100
0110
0011
1100
0110
,
1001
0011
1001
1001
1100
1001
1001
0011
,
1001
0011
0110
1100
0011
0110
1100
0110
,
1001
0011
0110
0011
0101
0011
0101
1100
,
1001
0110
1100
0110
0011
1100
0101
0110
,
1100
0110
0011
1100
0110
0011
1100
0110
,
1001
0011
0110
1001
0110
1001
1100
0110
,
1001
0011
1100
0110
1100
0110
0011
0110
,
1001
0010
1001
0100
0011
1000
0110
0001
,
1001
1100
1001
0101
1001
1100
1001
0101
,
1100
0011
1100
0011
0110
1001
0110
1001
,
0011
0000
1100
0000
0011
0000
1100
0000
1010
0000
0101
0000
1000
0100
0010
0001
,
1100
0000
0000
0011
0000
0000
1100
0000
0010
0000
0001
0000
1000
0000
0100
0000
0010
0000
1001
0000
0000
0110
0000
0000
,
1100
0000
0000
0011
0000
0000
1000
0000
0001
0000
1000
0000
0001
0000
1000
0000
0001
0000
1000
0000
0001
0000
1000
0000
,
0001
0000
0000
0000
1000
0000
0000
0000
0001
0000
0000
0000
1000
0000
0000
0000
0001
0000
0000
0000
1000
0000
0000
0000
0001
0000
0000
1000
0000
0000
0001
0000
0000
1000
0000
0000
0001
0000
0000
1000
0000
0000
0001
0000
0000
1000
0000
0000
,
0001
0010
1100
0001
0110
0001
1100
0010
,
0101
1000
0110
1000
0101
0010
1100
0001
,
0110
1000
0101
1000
0110
0001
1010
0100
,
0011
1000
0110
0001
1010
0100
1001
0010
,
1001
0000
0100
0000
0011
0000
0100
0000
1000
0100
0010
0001
0010
0100
1000
0100
,
1001
0010
1100
0001
0110
1000
0011
0100
,
1010
0000
0100
0000
1001
0000
0100
0000
0001
0010
0100
1000
0100
0010
0001
0010
,
0100
1000
0100
0010
0001
0010
0100
1000
0100
0010
0001
0010
0100
1000
0100
0010
,
1001
0110
1001
0110
1001
0110
1001
0110
,
0011
1100
0011
1100
0011
1100
0011
1100
,
1010
0101
1010
0101
1010
0101
1010
0101
,
1100
0011
1100
0011
1100
0011
1100
0011
,
1001
0011
1001
1100
1001
0011
1001
1100
,
0110
1100
0110
0011
0110
1100
0110
0011
,
1001
0110
0011
1100
0101
1010
0110
0101
,
2002
0000
0000
0000
0000
0000
0110
0000
0110
0000
0110
3003
,
1111
0000
0000
0000
;
