#TITLE:Sigatrev;
#SUBTITLE:;
#ARTIST:Cardboard Box;
#TITLETRANSLIT:;
#SUBTITLETRANSLIT:;
#ARTISTTRANSLIT:;
#CREDIT:Arvin;
#BANNER:../Banner.png;
#BACKGROUND:../bg.png;
#LYRICSPATH:;
#CDTITLE:;
#MUSIC:sigatrev.ogg;
#OFFSET:0.000;
#SAMPLESTART:59.987;
#SAMPLELENGTH:10.000;
#SELECTABLE:YES;
#BPMS:0.000=160.000;
#STOPS:;
#BGCHANGES:;
// cache tags:
#FIRSTBEAT:15.000;
#LASTBEAT:322.000;
#SONGFILENAME:Songs/Tachyon Epsilon/Sigatrev - [TheBoxX]/Sigatrev.sm;
#HASMUSIC:1;
#HASBANNER:1;
#MUSICLENGTH:121.617;
// end cache tags

//---------------dance-single - Mad Matt----------------
#NOTES:
     dance-single:
     Mad Matt:
     Hard:
     20:
     1.000,1.000,0.107,0.699,1.000,1279.000,13.000,85.000,0.000,0.000:















0000
0000
0000
0000
,
0000
0000
0000
0000
,
0000
0000
0000
0000
,
0000
0000
0000
0000
0000
0000
0000
0000
0000
0000
0000
0000
0000
0000
0000
0000
0000
0000
0001
0100
0010
1000
0010
0100
,
0001
0000
1000
0001
0000
0000
1000
0000
0001
0010
0000
0001
,
0020
0000
0000
0000
0000
0000
0230
0000
0000
0000
0000
0000
2300
0000
0000
0000
0000
0000
3001
0010
0100
1000
0100
0010
,
0001
0000
1000
0001
0000
0000
1000
0000
0001
0100
0000
0001
,
0200
0000
0000
0000
0000
0000
0320
0000
0000
0000
0000
0000
2030
0000
0000
0000
0000
0000
3010
0100
0001
0100
0010
1000
,
0001
0000
0000
0000
0100
0000
0010
0000
0000
0000
0000
0000
1000
0000
0000
0000
0010
0000
1000
0001
1000
0010
0100
0010
,
2000
0000
0000
0000
0000
0000
3200
0000
0000
0000
0000
0000
0320
0000
0000
0000
0000
0000
0130
1000
0001
1000
0010
0100
,
0001
0000
0000
0000
1000
0000
0001
0000
0000
0000
0000
0000
0100
0000
0000
0000
0010
0000
1000
0001
0100
0010
1000
0010
,
0200
0000
0000
0000
0000
0000
0302
0000
0000
0000
0000
0000
2003
0000
0000
0000
0000
0000
3100
0010
0001
0010
0100
1000
,
0001
0000
0100
0000
0001
0000
1000
0000
0100
0000
1000
0000
0100
0000
0010
0000
0001
0000
1000
0001
0100
0010
1000
0001
,
1000
0000
0100
0000
0100
0000
0010
0000
0001
0000
0001
0000
1000
0000
0010
0000
0010
0000
0100
0001
0100
0001
1000
0100
,
0010
0000
0001
0000
1000
0000
0010
0000
1000
0000
0001
0000
0100
0000
0001
0000
1000
0000
0100
0010
0001
0010
0100
1000
,
0001
0000
0100
0000
0100
0000
0010
0000
1000
0000
1000
0000
0001
0000
0010
0000
0010
0000
0100
1000
0001
0100
0001
0100
,
0020
0000
0000
0000
0000
0000
1030
0010
1000
0001
0100
0010
2000
0000
0000
0000
0000
0000
0100
0000
0000
0000
0000
0000
,
3002
0010
0023
0230
,
2300
0000
0000
0000
0000
0000
3001
0100
0010
1000
0001
0010
0002
0000
0000
0000
0000
0000
2003
0000
0000
0000
0000
0000
,
3200
0320
0230
2300
,
3020
0000
0000
0000
0000
0000
0130
0001
0100
0010
1000
0001
0020
0000
0000
0000
0000
0000
0100
0000
0000
0000
0000
0000
,
0230
1000
2300
3020
,
0230
0000
0000
0000
0000
0000
0301
1000
0010
0100
0001
1000
0002
0000
0000
0000
0000
0000
0023
0000
0000
0000
0000
0000
,
0230
0000
2300
0000
3200
0000
0320
0030
,
0012
0000
0000
0000
0000
0000
0013
0100
1000
0001
0010
0100
2000
0000
0000
0000
0000
0000
0001
0000
0000
3000
0000
0000
,
0102
0000
0000
0000
0000
0000
1003
0010
0100
0001
1000
0010
0200
0000
0000
0300
0000
0000
0202
0000
0000
0303
0000
0000
,
2002
0000
0000
3000
0000
0000
1003
0100
0010
0001
0010
0100
2000
0000
0000
3000
0000
0000
2002
0000
0000
3003
0000
0000
,
0202
0000
0000
0300
0000
0000
0103
0010
1000
0010
0100
0001
2000
0000
0000
3000
0000
0000
2200
0000
0000
3300
0000
0000
,
0220
0000
0000
0030
0000
0000
0310
0001
0010
0100
1000
0001
2000
0000
0000
0000
0000
0000
0010
0000
0000
3000
0000
0000
,
2020
0000
0000
3000
0000
0000
1030
0010
0100
0001
0100
0010
2000
0000
0000
3000
0000
0000
2200
0000
0000
3300
0000
0000
,
0022
0000
0000
0003
0000
0000
0031
0010
0100
0010
0001
1000
0020
0000
0000
0030
0000
0000
0220
0000
0000
0330
0000
0000
,
0202
0000
0000
0003
0000
0000
0301
1000
0010
0100
0001
1000
0002
0000
0000
0000
0000
0000
0103
0010
0100
0010
1000
0001
,
0020
0100
0230
1000
,
2300
0000
0000
0000
0000
0000
0010
0000
0000
0000
0000
0000
3020
0000
0000
0000
0000
0000
0130
0001
0100
0010
1000
0001
,
0020
0100
0230
1000
,
2300
0000
0000
0000
0000
0000
0010
0000
0000
0000
0000
0000
3020
0000
0000
0000
0000
0000
0130
0001
1000
0100
0010
0001
,
2000
0100
3200
0010
,
0320
0000
0000
0000
0000
0000
0001
0000
0000
0000
0000
0000
0032
0000
0000
0000
0000
0000
1003
0010
0100
0010
0100
0001
,
2000
0100
3200
0010
,
0320
0001
0032
2003
,
3001
0010
0001
1000
0001
0100
0010
1000
0001
1000
0010
0100
0001
1000
0010
1000
0001
1000
0100
0010
0001
1000
0100
0010
,
0001
1000
0001
0100
0001
1000
0010
0100
0001
1000
0100
1000
0001
1000
0010
0100
0001
1000
0010
0100
0001
1000
0001
0010
,
0001
1000
0100
0010
0001
1000
0100
1000
0001
1000
0010
0100
0001
1000
0001
0100
0010
1000
0001
1000
0100
1000
0001
0010
,
0100
1000
0001
0010
0100
1000
0001
1000
0010
1000
0001
0100
0010
1000
0001
1000
0100
1000
0001
0100
0010
1000
0001
1000
,
0100
1000
0001
0100
0010
1000
0001
0100
0010
0100
0001
1000
0001
0010
0100
1000
0001
0010
0100
0010
0001
1000
0001
0100
,
0001
1000
0010
0100
0001
1000
0001
0010
0001
1000
0100
0010
0100
1000
0001
1000
0010
0100
0001
1000
0010
1000
0001
1000
,
0100
0010
0100
1000
0001
0010
0100
0010
0001
1000
0100
0010
0001
1000
0001
0100
0001
1000
0010
1000
0001
1000
0100
0010
,
0100
1000
0001
1000
0100
1000
0001
0100
0001
1000
0010
0100
0001
1000
0100
1000
0001
1000
0010
0100
0001
1000
0010
1000
,
0001
0100
0010
1000
0001
1000
0100
1000
0001
0010
0100
1000
0001
0010
0100
1000
0001
1000
0010
0100
0001
1000
0010
1000
,
0001
0100
0010
1000
0001
1000
0100
1000
0001
0100
0010
0100
0001
1000
0001
0010
0001
1000
0100
1000
0001
0010
0100
1000
,
0001
0010
0100
1000
0001
1000
0010
1000
0001
0100
0010
0100
0001
1000
0001
0010
0001
1000
0100
0010
0100
1000
0001
0010
,
0100
0010
0001
1000
0001
0100
0001
1000
0010
0100
0010
1000
0001
0100
0001
0010
0001
1000
0100
1000
0010
1000
0001
0100
,
0010
1000
0001
1000
0100
0010
0001
1000
0100
0010
0001
1000
0001
0100
0001
1000
0010
0100
0010
1000
0001
1000
0100
1000
,
0001
1000
0010
0100
0001
1000
0001
0010
0001
1000
0001
0100
0010
1000
0001
0100
0010
0100
0001
1000
0001
0010
0001
1000
,
0100
0010
0001
1000
0001
0010
0100
1000
0001
0100
0001
1000
0010
0100
0001
1000
0001
0010
0001
1000
0100
0010
0100
1000
,
0001
0010
0100
0010
0001
1000
0100
1000
0001
1000
0010
0100
0001
1000
0001
0010
0100
1000
0001
0100
0010
1000
0001
0100
,
0001
1000
0001
0010
0100
0010
0001
1000
0100
0010
0100
1000
0001
1000
0010
0100
0001
1000
0010
1000
0001
0100
0010
1000
,
0001
1000
0100
1000
0001
0010
0100
1000
0001
0010
0100
1000
0001
1000
0010
0100
0010
1000
0001
0100
0010
1000
0001
0100
,
0001
1000
0001
0010
0001
1000
0100
0010
0001
1000
0001
0100
0010
0100
0001
1000
0010
0100
0001
1000
0100
1000
0001
0010
,
0100
1000
0001
0010
0100
1000
0001
0100
0010
0100
0001
1000
0010
0100
0001
1000
0100
1000
0001
0010
0001
0100
0001
1000
,
0100
1000
0001
0010
0100
0010
0001
1000
0001
0100
0001
1000
0010
0100
0010
1000
0001
1000
0100
1000
0001
0010
0100
0010
,
0001
1000
0100
0010
0001
1000
0001
0100
0001
1000
0010
0100
0001
1000
0010
0100
0001
1000
0001
0010
0100
1000
0001
0010
,
0100
1000
0001
1000
0010
0100
0010
1000
0001
0100
0001
1000
0001
0010
0001
1000
0100
0010
0001
1000
0100
0010
0001
1000
,
0001
0100
0001
1000
0010
0100
0001
1000
0010
0100
0010
1000
0001
1000
0100
0010
0001
1000
0100
0010
0100
1000
0001
1000
,
0010
0100
0001
0100
0010
1000
0001
1000
0100
1000
0001
0100
0010
1000
0001
0100
0010
1000
0001
1000
0100
1000
0001
0100
,
0010
1000
0001
1000
0010
0100
0001
1000
0100
1000
0001
0100
0010
1000
0001
1000
0010
0100
0001
0100
0010
1000
0001
1000
,
0100
1000
0001
0010
0100
0010
0001
1000
0100
0010
0001
1000
0001
0100
0001
1000
0010
0100
0001
1000
0001
0010
0001
1000
,
0001
0100
0010
1000
0001
1000
0100
1000
0001
0010
0100
1000
0001
0010
0100
1000
0001
1000
0010
0100
0001
1000
0001
0010
,
0001
1000
0100
0010
0001
0010
0100
1000
0001
1000
0010
1000
0001
0100
0010
1000
0001
1000
0100
1000
0001
0010
0100
0010
,
0001
1000
0100
0010
0001
1000
0001
0100
0001
1000
0100
1000
0001
1000
0010
0100
0001
1000
0001
0010
0001
1000
0001
0100
,
0010
1000
0001
1000
0100
0010
0001
1000
0100
0010
0001
1000
0001
0100
0001
1000
0010
0100
0001
1000
0001
0010
0001
1000
,
0001
0010
0100
1000
0001
0010
0100
1000
0001
1000
0010
0100
0010
1000
0001
0100
0010
1000
0001
1000
0100
0010
0001
1000
,
0100
0010
0001
1000
0001
0100
0010
1000
0001
1000
0100
1000
0001
0010
0100
1000
0001
1000
0010
1000
0001
0100
0001
1000
,
0100
1000
0001
0010
0100
1000
0001
1000
0010
0100
0001
1000
0010
0100
0001
1000
0100
1000
0001
0100
0010
1000
0001
1000
,
0100
0010
0100
1000
0001
1000
0100
0010
0001
1000
0001
0100
0010
0100
0001
1000
0010
0100
0001
1000
0001
0010
0100
1000
,
0100
0010
0001
1000
0001
0100
0010
1000
0001
1000
0100
0010
0001
0010
0100
1000
0001
1000
0010
0100
0001
1000
0001
0010
,
0100
1000
0100
0010
0001
1000
0001
0100
0010
1000
0001
1000
0100
1000
0001
0100
0010
0100
0001
1000
0001
0010
0001
1000
,
0100
0010
0100
1000
0001
0010
0100
0010
0001
1000
0001
0100
0010
1000
0010
0100
0001
1000
0001
0100
0001
1000
0010
0100
,
0001
1000
0100
0010
0100
1000
0001
0010
0100
0010
0001
1000
0001
0100
0010
0100
0001
1000
0010
1000
0001
0100
0001
1000
,
0001
0010
0001
1000
0010
1000
0001
0100
0010
1000
0010
0100
0001
1000
0100
0010
0001
0010
0100
1000
0001
0100
0001
1000
,
0010
0000
0000
0100
0001
0100
0001
0000
0000
0000
0000
0000
;

//---------------dance-single - Mad Matt----------------
#NOTES:
     dance-single:
     Mad Matt:
     Easy:
     18:
     1.000,1.000,0.107,0.806,1.000,1116.000,13.000,98.000,0.000,0.000:







0000
0000
0000
0000
,
0000
0000
0000
0000
,
0000
0000
0000
0000
,
0000
0000
0000
0000
0000
0000
0000
0000
0000
0000
0000
0000
0000
0000
0000
0000
0000
0000
0001
0100
0010
1000
0010
0100
,
0001
0000
1000
0001
0000
0000
1000
0000
0001
0010
0000
0001
,
0020
0000
0000
0000
0000
0000
0230
0000
0000
0000
0000
0000
2300
0000
0000
0000
0000
0000
3001
0010
0100
1000
0100
0010
,
0001
0000
1000
0001
0000
0000
1000
0000
0001
0100
0000
0001
,
0200
0000
0000
0000
0000
0000
0320
0000
0000
0000
0000
0000
2030
0000
0000
0000
0000
0000
3010
0100
0001
0100
0010
1000
,
0001
0000
0000
0000
0100
0000
0010
0000
0000
0000
0000
0000
1000
0000
0000
0000
0010
0000
1000
0001
1000
0010
0100
0010
,
2000
0000
0000
0000
0000
0000
3200
0000
0000
0000
0000
0000
0320
0000
0000
0000
0000
0000
0130
1000
0001
1000
0010
0100
,
0001
0000
0000
0000
1000
0000
0001
0000
0000
0000
0000
0000
0100
0000
0000
0000
0010
0000
1000
0001
0100
0010
1000
0010
,
0200
0000
0000
0000
0000
0000
0302
0000
0000
0000
0000
0000
2003
0000
0000
0000
0000
0000
3100
0010
0001
0010
0100
1000
,
0001
0000
0100
0000
0001
0000
1000
0000
0100
0000
1000
0000
0100
0000
0010
0000
0001
0000
1000
0001
0100
0010
1000
0001
,
1000
0000
0100
0000
0100
0000
0010
0000
0001
0000
0001
0000
1000
0000
0010
0000
0010
0000
0100
0001
0100
0001
1000
0100
,
0010
0000
0001
0000
1000
0000
0010
0000
1000
0000
0001
0000
0100
0000
0001
0000
1000
0000
0100
0010
0001
0010
0100
1000
,
0001
0000
0100
0000
0100
0000
0010
0000
1000
0000
1000
0000
0001
0000
0010
0000
0010
0000
0100
1000
0001
0100
0001
0100
,
0020
0000
0000
0000
0000
0000
1030
0010
1000
0001
0100
0010
2000
0000
0000
0000
0000
0000
0100
0000
0000
0000
0000
0000
,
3002
0010
0023
0230
,
2300
0000
0000
0000
0000
0000
3001
0100
0010
1000
0001
0010
0002
0000
0000
0000
0000
0000
2003
0000
0000
0000
0000
0000
,
3200
0320
0230
2300
,
3020
0000
0000
0000
0000
0000
0130
0001
0100
0010
1000
0001
0020
0000
0000
0000
0000
0000
0100
0000
0000
0000
0000
0000
,
0230
1000
2300
3020
,
0230
0000
0000
0000
0000
0000
0301
1000
0010
0100
0001
1000
0002
0000
0000
0000
0000
0000
0023
0000
0000
0000
0000
0000
,
0230
0000
2300
0000
3200
0000
0320
0030
,
0012
0000
0000
0000
0000
0000
0013
0100
1000
0001
0010
0100
2000
0000
0000
0000
0000
0000
0001
0000
0000
3000
0000
0000
,
0102
0000
0000
0000
0000
0000
1003
0010
0100
0001
1000
0010
0200
0000
0000
0300
0000
0000
0202
0000
0000
0303
0000
0000
,
2002
0000
0000
3000
0000
0000
1003
0100
0010
0001
0010
0100
2000
0000
0000
3000
0000
0000
2002
0000
0000
3003
0000
0000
,
0202
0000
0000
0300
0000
0000
0103
0010
1000
0010
0100
0001
2000
0000
0000
3000
0000
0000
2200
0000
0000
3300
0000
0000
,
0220
0000
0000
0030
0000
0000
0310
0001
0010
0100
1000
0001
2000
0000
0000
0000
0000
0000
0010
0000
0000
3000
0000
0000
,
2020
0000
0000
3000
0000
0000
1030
0010
0100
0001
0100
0010
2000
0000
0000
3000
0000
0000
2200
0000
0000
3300
0000
0000
,
0022
0000
0000
0003
0000
0000
0031
0010
0100
0010
0001
1000
0020
0000
0000
0030
0000
0000
0220
0000
0000
0330
0000
0000
,
0202
0000
0000
0003
0000
0000
0301
1000
0010
0100
0001
1000
0002
0000
0000
0000
0000
0000
0103
0010
0100
0010
1000
0001
,
0020
0100
0230
1000
,
2300
0000
0000
0000
0000
0000
0010
0000
0000
0000
0000
0000
3020
0000
0000
0000
0000
0000
0130
0001
0100
0010
1000
0001
,
0020
0100
0230
1000
,
2300
0000
0000
0000
0000
0000
0010
0000
0000
0000
0000
0000
3020
0000
0000
0000
0000
0000
0130
0001
1000
0100
0010
0001
,
2000
0100
3200
0010
,
0320
0000
0000
0000
0000
0000
0001
0000
0000
0000
0000
0000
0032
0000
0000
0000
0000
0000
1003
0010
0100
0010
0100
0001
,
2000
0100
3200
0010
,
0320
0001
0032
2003
,
3001
0100
0001
1000
0010
0100
0001
1000
0001
0100
0010
1000
0001
1000
0100
1000
0001
0010
0100
0010
0001
1000
0100
0010
,
0001
1000
0001
0100
0001
1000
0010
0100
0001
1000
0001
0100
0010
1000
0001
1000
0010
0100
0001
1000
0001
0010
0100
0010
,
0001
1000
0001
0100
0001
1000
0010
0100
0001
1000
0001
0010
0001
1000
0100
0010
0001
1000
0100
0010
0001
0010
0100
1000
,
0001
1000
0010
0100
0001
1000
0010
0100
0001
1000
0010
0100
0010
1000
0001
0100
0010
1000
0001
0100
0010
0100
0001
1000
,
0001
0010
0100
1000
0001
1000
0100
0010
0001
1000
0100
1000
0001
1000
0010
0100
0010
1000
0001
1000
0100
0010
0001
1000
,
0100
0010
0001
1000
0001
0010
0100
1000
0001
0010
0100
1000
0001
1000
0010
0100
0001
1000
0010
0100
0010
1000
0001
0100
,
0010
0100
0001
1000
0001
0010
0001
1000
0100
0010
0001
1000
0100
0010
0100
1000
0001
0010
0100
0010
0001
1000
0001
0100
,
0001
1000
0010
0100
0001
1000
0010
0100
0001
1000
0001
0010
0100
1000
0001
0010
0100
1000
0100
0010
0001
1000
0001
0100
,
0001
1000
0010
0100
0001
1000
0010
0100
0010
1000
0001
0100
0010
0100
0001
1000
0001
0010
0100
1000
0001
1000
0100
0010
,
0001
1000
0100
0010
0100
1000
0001
0010
0100
1000
0001
1000
0010
0100
0001
0100
0010
1000
0001
1000
0010
0100
0001
1000
,
0001
0100
0010
0100
0001
1000
0010
0100
0001
1000
0100
1000
0001
1000
0010
0100
0001
1000
0001
0010
0001
1000
0100
0010
,
0100
1000
0001
0010
0100
1000
0001
1000
0100
0010
0001
1000
0001
0100
0010
1000
0001
0100
0010
1000
0001
1000
0010
0100
,
0010
1000
0001
1000
0100
0010
0001
1000
0100
0010
0001
1000
0001
0100
0010
1000
0010
0100
0001
1000
0001
0010
0001
1000
,
0100
0010
0001
1000
0100
0010
0100
1000
0001
1000
0010
0100
0010
1000
0001
0100
0010
0100
0001
1000
0001
0010
0001
1000
,
0100
0010
0001
1000
0100
0010
0100
1000
0001
0010
0100
0010
0001
1000
0100
1000
0001
0010
0001
1000
0001
0100
0010
1000
,
0001
0100
0010
0100
0001
1000
0100
1000
0001
1000
0010
0100
0001
1000
0001
0010
0100
1000
0001
1000
0010
0100
0001
0100
,
0010
1000
0001
0100
0010
0100
0001
1000
0010
0100
0010
1000
0001
1000
0100
1000
0001
0010
0100
1000
0001
0010
0100
1000
,
0001
0010
0100
0010
0001
1000
0100
0010
0001
1000
0100
1000
0001
1000
0010
0100
0010
1000
0001
0100
0010
1000
0001
0100
,
0001
1000
0001
0010
0001
1000
0100
0010
0001
1000
0001
0100
0010
0100
0001
1000
0010
0100
0001
1000
0001
0010
0100
1000
,
0002
0000
0000
0000
0000
0000
2003
0000
0000
0000
0000
0000
3020
0000
0000
0000
0000
0000
1030
0001
0100
0010
1000
0001
,
0020
0000
0000
0230
0000
0000
1300
0000
0010
0000
0100
0000
,
0001
0000
1000
0000
0100
0000
0100
0000
0010
0000
0001
0000
,
2000
0000
0000
3020
0000
0000
0130
0000
0001
0000
1000
0000
,
0200
0000
0000
0000
0310
0000
0001
0000
1000
0000
0010
0000
,
0200
0000
0000
0302
0000
0000
1003
0000
0100
0000
0010
0000
,
0100
0000
1000
0000
0001
0000
0001
0000
1000
0000
0010
0000
,
0100
0000
0001
0000
1000
0000
0200
0000
0000
0320
0000
0000
,
0032
0000
0000
0000
0000
0000
0000
0000
0000
0000
0000
0000
0000
0000
0000
0000
0000
0000
0103
0010
1000
0001
1000
0100
,
1000
0001
0010
0100
1000
0100
0010
0001
1000
0001
0100
0001
1000
0010
0100
0001
1000
0010
0100
0010
1000
0001
1000
0100
,
0010
0001
0010
0100
1000
0001
0010
0001
1000
0100
0010
0001
1000
0001
0100
0010
1000
0001
0100
0010
1000
0001
1000
0100
,
0010
0001
1000
0001
0010
0100
1000
0001
0010
0100
1000
0001
1000
0010
0100
0001
0100
0010
1000
0001
1000
0100
1000
0001
,
0010
0100
0010
0001
1000
0100
0010
0100
1000
0001
1000
0100
0010
0001
1000
0001
0100
0001
1000
0010
0100
0010
1000
0001
,
1000
0100
1000
0001
0010
0100
1000
0001
0010
0100
0010
0001
1000
0100
0010
0001
1000
0001
0100
0010
0100
0001
1000
0010
,
0100
0001
1000
0001
0010
0100
1000
0001
1000
0010
1000
0001
0100
0010
1000
0001
0100
0001
1000
0010
0100
0001
1000
0001
,
0010
0100
0010
0001
1000
0001
0010
0100
1000
0001
1000
0010
0100
0010
1000
0001
0100
0010
1000
0001
1000
0100
0010
0001
,
0010
0100
1000
0001
1000
0010
0100
0001
1000
0001
0010
0100
1000
0100
0010
0001
1000
0001
0100
0010
1000
0001
1000
0100
,
0010
0001
0010
0100
1000
0001
1000
0010
0100
0001
1000
0001
0010
0001
1000
0010
0100
0010
1000
0001
1000
0100
1000
0001
,
0010
0100
0010
0001
1000
0100
0010
0100
1000
0001
1000
0010
0100
0001
0100
0010
1000
0001
1000
0010
1000
0001
0100
0010
,
1000
0001
0010
0100
0010
0001
1000
0100
0010
0100
1000
0001
1000
0010
0100
0010
1000
0001
0100
0001
1000
0010
1000
0001
,
1000
0100
1000
0001
0100
0001
1000
0010
0100
0001
0100
0010
1000
0001
0010
0100
1000
0100
0010
0001
1000
0010
1000
0001
,
0100
0000
0000
0010
1000
0010
1000
0000
0000
0000
0000
0000
;

//---------------dance-single - Mad Matt----------------
#NOTES:
     dance-single:
     Mad Matt:
     Challenge:
     21:
     1.000,1.000,0.107,0.699,1.000,1279.000,13.000,85.000,0.000,0.000:

0000
0000
0000
0000
,
0000
0000
0000
0000
,
0000
0000
0000
0000
,
0000
0000
0000
0000
0000
0000
0000
0000
0000
0000
0000
0000
0000
0000
0000
0000
0000
0000
0001
0100
0010
1000
0100
1000
,
0001
0000
1000
0001
0000
0000
1000
0000
0001
0010
0000
0001
,
0020
0000
0000
0000
0000
0000
0230
0000
0000
0000
0000
0000
2300
0000
0000
0000
0000
0000
3001
0010
0100
1000
0010
1000
,
0001
0000
1000
0001
0000
0000
1000
0000
0001
0100
0000
0001
,
0200
0000
0000
0000
0000
0000
0320
0000
0000
0000
0000
0000
2030
0000
0000
0000
0000
0000
3010
0100
0001
0010
0100
1000
,
0001
0000
0000
0000
0100
0000
0010
0000
0000
0000
0000
0000
1000
0000
0000
0000
0010
0000
1000
0100
0010
0001
0100
0001
,
2000
0000
0000
0000
0000
0000
3200
0000
0000
0000
0000
0000
0320
0000
0000
0000
0000
0000
0130
1000
0010
0100
0001
1000
,
0100
0000
0000
0000
1000
0000
0001
0000
0000
0000
0000
0000
0100
0000
0000
0000
0010
0000
1000
0100
0010
0001
1000
0010
,
0200
0000
0000
0000
0000
0000
0302
0000
0000
0000
0000
0000
2003
0000
0000
0000
0000
0000
3100
0010
0100
1000
0010
1000
,
0001
0000
0100
0000
0001
0000
1000
0000
0100
0000
1000
0000
0100
0000
0010
0000
0001
0000
1000
0010
0100
0010
1000
0001
,
0010
0000
0100
0000
0100
0000
0010
0000
0001
0000
0001
0000
1000
0000
0010
0000
0010
0000
0100
0001
0010
0001
1000
0010
,
0100
0000
0001
0000
1000
0000
0010
0000
1000
0000
0001
0000
0100
0000
0001
0000
1000
0000
0100
0010
0001
0100
0010
1000
,
0001
0000
0100
0000
0100
0000
0010
0000
1000
0000
1000
0000
0001
0000
0010
0000
0010
0000
0100
0010
0001
0100
0001
1000
,
0020
0000
0000
0000
0000
0000
1030
0010
1000
0001
0010
0100
2000
0000
0000
0000
0000
0000
0100
0000
0000
0000
0000
0000
,
3002
0010
0023
0230
,
2300
0000
0000
0000
0000
0000
3001
0100
0010
1000
0100
1000
0002
0000
0000
0000
0000
0000
2003
0000
0000
0000
0000
0000
,
3200
0320
0230
2300
,
3020
0000
0000
0000
0000
0000
0130
0001
0100
0010
1000
0100
0020
0000
0000
0000
0000
0000
0100
0000
0000
0000
0000
0000
,
0230
1000
2300
3020
,
0230
0000
0000
0000
0000
0000
0301
1000
0100
1000
0010
0100
0002
0000
0000
0000
0000
0000
0023
0000
0000
0000
0000
0000
,
0230
0000
2300
0000
3200
0000
0320
0030
,
0012
0000
0000
0000
0000
0000
0013
0100
1000
0010
0100
0001
2000
0000
0000
0000
0000
0000
0001
0000
0000
3000
0000
0000
,
0102
0000
0000
0000
0000
0000
1003
0100
0010
0001
1000
0010
0200
0000
0000
0300
0000
0000
0202
0000
0000
0303
0000
0000
,
2002
0000
0000
3000
0000
0000
1003
0100
0010
0001
0100
0001
2000
0000
0000
3000
0000
0000
2002
0000
0000
3003
0000
0000
,
0202
0000
0000
0300
0000
0000
1003
0010
0100
0001
0010
0100
2000
0000
0000
3000
0000
0000
2200
0000
0000
3300
0000
0000
,
0220
0000
0000
0030
0000
0000
0310
0001
1000
0010
0100
0001
2000
0000
0000
0000
0000
0000
0010
0000
0000
3000
0000
0000
,
2020
0000
0000
3000
0000
0000
1030
0010
0100
0001
0010
0100
2000
0000
0000
3000
0000
0000
2200
0000
0000
3300
0000
0000
,
0022
0000
0000
0003
0000
0000
0031
0010
0100
1000
0001
0100
0020
0000
0000
0030
0000
0000
0220
0000
0000
0330
0000
0000
,
0202
0000
0000
0003
0000
0000
0301
1000
0010
1000
0100
0010
0002
0000
0000
0000
0000
0000
0103
0010
1000
0100
1000
0001
,
0020
0100
0230
1000
,
2300
0000
0000
0000
0000
0000
0010
0000
0000
0000
0000
0000
3020
0000
0000
0000
0000
0000
0130
0001
1000
0100
1000
0001
,
0020
0100
0230
1000
,
2300
0000
0000
0000
0000
0000
0010
0000
0000
0000
0000
0000
3020
0000
0000
0000
0000
0000
0130
0001
1000
0100
0010
0001
,
2000
0100
3200
0010
,
0320
0000
0000
0000
0000
0000
0001
0000
0000
0000
0000
0000
0032
0000
0000
0000
0000
0000
1003
0010
0100
0001
0010
0100
,
2000
0100
3200
0010
,
0320
0001
0032
2003
,
3001
0010
0100
0010
0001
0100
0010
1000
0001
1000
0100
0010
0100
1000
0010
0100
0001
1000
0100
0010
0001
0010
0100
1000
,
0001
1000
0010
0100
0010
1000
0100
0010
0001
1000
0001
0100
0010
0100
0001
0010
0100
1000
0001
1000
0010
0100
0001
0100
,
0010
1000
0100
1000
0001
0100
0010
1000
0001
1000
0100
0010
0100
1000
0010
0100
0001
1000
0001
0010
0100
0010
0001
0100
,
0010
1000
0001
0010
0100
0010
0001
1000
0010
1000
0001
0100
0010
1000
0001
0010
0100
0010
0001
0100
0010
1000
0001
0100
,
0010
1000
0001
0010
0100
0010
0001
1000
0010
0100
0001
1000
0001
0010
0100
1000
0010
0100
0001
1000
0100
0010
0001
0100
,
0001
1000
0100
0010
0100
1000
0010
0100
0001
1000
0010
0100
0001
0010
0100
1000
0010
0100
0001
1000
0010
0100
0001
0010
,
0100
1000
0001
0100
0001
0010
0100
0010
0001
0100
0010
1000
0100
1000
0001
0100
0001
1000
0010
0100
0001
1000
0100
0010
,
0100
1000
0010
0100
0001
0010
0001
1000
0010
0100
0001
1000
0100
0010
0100
1000
0001
1000
0010
0100
0001
0010
0100
1000
,
0001
0100
0010
1000
0100
0010
0100
1000
0001
0100
0010
1000
0001
0010
0100
1000
0001
1000
0010
0100
0001
1000
0100
1000
,
0010
0100
0001
1000
0100
0010
0100
1000
0001
1000
0010
0100
0001
1000
0100
0010
0100
1000
0010
1000
0001
0010
0100
1000
,
0001
0010
0100
1000
0001
0100
0010
0100
0001
1000
0100
0010
0001
0100
0010
1000
0001
0010
0001
0100
0010
1000
0001
1000
,
0100
0010
0001
1000
0001
0100
0010
0100
0001
0010
0100
1000
0001
0100
0001
0010
0001
1000
0100
1000
0010
1000
0001
0100
,
0010
1000
0001
0010
0001
0010
0100
1000
0010
0100
0001
0100
0001
0010
0100
1000
0100
1000
0010
0100
0001
1000
0100
0010
,
0001
1000
0100
0010
0001
0100
0010
1000
0010
1000
0100
0010
0001
0010
0001
0100
0010
1000
0001
1000
0100
0010
0001
1000
,
0010
0100
0010
0100
0001
0010
0100
1000
0100
0010
0001
0100
0010
1000
0010
1000
0001
0010
0100
1000
0010
1000
0010
0100
,
0001
1000
0001
1000
0100
0010
0001
0100
0010
1000
0001
0010
0001
0010
0100
1000
0100
0010
0001
0100
0001
0100
0010
1000
,
0001
0010
0100
1000
0010
0100
0001
0100
0001
0010
0100
1000
0100
1000
0010
0100
0001
0100
0010
1000
0001
0010
0100
0010
,
0001
0100
0010
1000
0010
1000
0001
0010
0100
1000
0010
0100
0001
0100
0001
0010
0100
1000
0001
0100
0010
0100
0001
1000
,
0100
1000
0100
0010
0001
1000
0001
0100
0010
1000
0010
1000
0100
0010
0001
0100
0010
1000
0001
0010
0100
1000
0010
0100
,
0001
0010
0001
0010
0100
1000
0010
0100
0010
0100
0001
1000
0100
0010
0001
0010
0100
1000
0001
0010
0001
0100
0001
1000
,
0100
1000
0001
0100
0001
0010
0100
1000
0001
1000
0010
0100
0001
1000
0100
0010
0100
1000
0010
1000
0001
0010
0100
0010
,
0001
0100
0001
1000
0100
0010
0100
1000
0001
0100
0010
0100
0001
1000
0100
0010
0100
1000
0001
0100
0010
1000
0001
0010
,
0001
0100
0001
1000
0100
0010
0100
1000
0010
0100
0001
1000
0001
0010
0100
1000
0001
1000
0010
0100
0001
1000
0100
1000
,
0010
1000
0001
0010
0100
0010
0001
1000
0010
0100
0010
1000
0001
1000
0100
0010
0001
1000
0100
0010
0001
0100
0001
1000
,
0100
0010
0100
1000
0010
0100
0001
1000
0100
0010
0100
1000
0010
1000
0001
0100
0010
0100
0001
0010
0100
1000
0001
0100
,
0010
0100
0001
1000
0100
0010
0001
1000
0100
1000
0001
0100
0010
1000
0001
1000
0100
0010
0001
0100
0010
1000
0100
1000
,
0001
0100
0010
0100
0001
1000
0100
1000
0001
1000
0010
0100
0001
0010
0100
1000
0010
0100
0001
1000
0100
1000
0010
1000
,
0001
0010
0100
0010
0001
1000
0010
0100
0001
1000
0100
0010
0001
0010
0100
1000
0001
1000
0010
0100
0001
1000
0100
0010
,
0100
1000
0001
0100
0010
1000
0100
1000
0001
0010
0001
0100
0010
1000
0010
0100
0001
1000
0100
1000
0001
0010
0100
0010
,
0001
1000
0010
0100
0001
1000
0100
0010
0100
1000
0010
0100
0001
1000
0100
0010
0100
1000
0010
0100
0001
1000
0100
1000
,
0010
1000
0001
0010
0100
0010
0001
1000
0010
0100
0001
1000
0100
1000
0001
0100
0010
0100
0001
1000
0100
0010
0001
0100
,
0010
1000
0001
0010
0100
0010
0001
0100
0010
1000
0001
1000
0100
0010
0100
1000
0010
1000
0001
0010
0100
0010
0001
0100
,
0001
0010
0100
1000
0001
0100
0010
1000
0001
1000
0100
0010
0001
0010
0100
1000
0010
0100
0001
1000
0100
1000
0001
0100
,
0010
0100
0001
1000
0100
0010
0001
0010
0100
1000
0001
1000
0010
0100
0001
1000
0100
1000
0001
0100
0010
1000
0001
0010
,
0100
1000
0010
0100
0001
0010
0100
1000
0001
0100
0001
1000
0100
0010
0001
0100
0010
1000
0100
1000
0001
0100
0001
1000
,
0100
0010
0001
0100
0010
1000
0100
1000
0001
0100
0010
1000
0001
0010
0100
1000
0010
0100
0001
0010
0001
1000
0100
0010
,
0001
0100
0010
1000
0100
0010
0001
0100
0010
1000
0001
0010
0100
1000
0010
0100
0001
0010
0001
1000
0100
0010
0001
1000
,
0010
0100
0001
0010
0100
1000
0001
0100
0010
1000
0001
1000
0100
0010
0001
1000
0001
0100
0010
0100
0001
1000
0001
0010
,
0100
1000
0010
0100
0001
0010
0100
1000
0001
0100
0010
1000
0001
1000
0100
0010
0001
1000
0001
0100
0010
1000
0001
0010
,
0100
0010
0001
0100
0001
1000
0100
1000
0010
0100
0010
1000
0100
1000
0001
0010
0001
0100
0010
0100
0001
0010
0001
1000
,
0010
0000
0000
0100
0001
0100
0001
0000
0000
0000
0000
0000
;

//---------------dance-single - Aoreo----------------
#NOTES:
     dance-single:
     Aoreo:
     Beginner:
     17:
     1.000,1.000,0.107,1.000,1.000,907.000,13.000,122.000,0.000,0.000:













0000
0000
0000
0000
,
0000
0000
0000
0000
,
0000
0000
0000
0000
,
0000
0000
0000
0000
0000
0000
0000
0000
0000
0000
0000
0000
0000
0000
0000
0000
0000
0000
0001
0100
0010
1000
0010
0100
,
0001
0000
1000
0001
0000
0000
1000
0000
0001
0010
0000
0001
,
0020
0000
0000
0000
0000
0000
0230
0000
0000
0000
0000
0000
2300
0000
0000
0000
0000
0000
3001
0010
0100
1000
0100
0010
,
0001
0000
1000
0001
0000
0000
1000
0000
0001
0100
0000
0001
,
0200
0000
0000
0000
0000
0000
0320
0000
0000
0000
0000
0000
2030
0000
0000
0000
0000
0000
3010
0100
0001
0100
0010
1000
,
0001
0000
0000
0000
0100
0000
0010
0000
0000
0000
0000
0000
1000
0000
0000
0000
0010
0000
1000
0001
1000
0010
0100
0010
,
2000
0000
0000
0000
0000
0000
3200
0000
0000
0000
0000
0000
0320
0000
0000
0000
0000
0000
0130
1000
0001
1000
0010
0100
,
0001
0000
0000
0000
1000
0000
0001
0000
0000
0000
0000
0000
0100
0000
0000
0000
0010
0000
1000
0001
0100
0010
1000
0010
,
0200
0000
0000
0000
0000
0000
0302
0000
0000
0000
0000
0000
2003
0000
0000
0000
0000
0000
3100
0010
0001
0010
0100
1000
,
0001
0000
0100
0000
0001
0000
1000
0000
0100
0000
1000
0000
0100
0000
0010
0000
0001
0000
1000
0001
0100
0010
1000
0001
,
1000
0000
0100
0000
0100
0000
0010
0000
0001
0000
0001
0000
1000
0000
0010
0000
0010
0000
0100
0001
0100
0001
1000
0100
,
0010
0000
0001
0000
1000
0000
0010
0000
1000
0000
0001
0000
0100
0000
0001
0000
1000
0000
0100
0010
0001
0010
0100
1000
,
0001
0000
0100
0000
0100
0000
0010
0000
1000
0000
1000
0000
0001
0000
0010
0000
0010
0000
0100
1000
0001
0100
0001
0100
,
0020
0000
0000
0000
0000
0000
1030
0010
1000
0001
0100
0010
2000
0000
0000
0000
0000
0000
0100
0000
0000
0000
0000
0000
,
3002
0010
0023
0230
,
2300
0000
0000
0000
0000
0000
3001
0100
0010
1000
0001
0010
0002
0000
0000
0000
0000
0000
2003
0000
0000
0000
0000
0000
,
3200
0320
0230
2300
,
3020
0000
0000
0000
0000
0000
0130
0001
0100
0010
1000
0001
0020
0000
0000
0000
0000
0000
0100
0000
0000
0000
0000
0000
,
0230
1000
2300
3020
,
0230
0000
0000
0000
0000
0000
0301
1000
0010
0100
0001
1000
0002
0000
0000
0000
0000
0000
0023
0000
0000
0000
0000
0000
,
0230
0000
2300
0000
3200
0000
0320
0030
,
0012
0000
0000
0000
0000
0000
0013
0100
1000
0001
0010
0100
2000
0000
0000
0000
0000
0000
0001
0000
0000
3000
0000
0000
,
0102
0000
0000
0000
0000
0000
1003
0010
0100
0001
1000
0010
0200
0000
0000
0300
0000
0000
0202
0000
0000
0303
0000
0000
,
2002
0000
0000
3000
0000
0000
1003
0100
0010
0001
0010
0100
2000
0000
0000
3000
0000
0000
2002
0000
0000
3003
0000
0000
,
0202
0000
0000
0300
0000
0000
0103
0010
1000
0010
0100
0001
2000
0000
0000
3000
0000
0000
2200
0000
0000
3300
0000
0000
,
0220
0000
0000
0030
0000
0000
0310
0001
0010
0100
1000
0001
2000
0000
0000
0000
0000
0000
0010
0000
0000
3000
0000
0000
,
2020
0000
0000
3000
0000
0000
1030
0010
0100
0001
0100
0010
2000
0000
0000
3000
0000
0000
2200
0000
0000
3300
0000
0000
,
0022
0000
0000
0003
0000
0000
0031
0010
0100
0010
0001
1000
0020
0000
0000
0030
0000
0000
0220
0000
0000
0330
0000
0000
,
0202
0000
0000
0003
0000
0000
0301
1000
0010
0100
0001
1000
0002
0000
0000
0000
0000
0000
0103
0010
0100
0010
1000
0001
,
0020
0100
0230
1000
,
2300
0000
0000
0000
0000
0000
0010
0000
0000
0000
0000
0000
3020
0000
0000
0000
0000
0000
0130
0001
0100
0010
1000
0001
,
0020
0100
0230
1000
,
2300
0000
0000
0000
0000
0000
0010
0000
0000
0000
0000
0000
3020
0000
0000
0000
0000
0000
0130
0001
1000
0100
0010
0001
,
2000
0100
3200
0010
,
0320
0000
0000
0000
0000
0000
0001
0000
0000
0000
0000
0000
0032
0000
0000
0000
0000
0000
1003
0010
0100
0010
0100
0001
,
2000
0100
3200
0010
,
0320
0001
0032
2003
,
3001
0000
0010
0200
0000
0000
1000
0000
0310
0001
0000
1000
,
0200
0000
0000
1300
0000
0010
0200
0000
0000
0301
0000
0000
,
0020
0000
0130
1000
0000
0001
0200
0000
0000
0310
0000
1000
,
0002
0000
0000
1003
0000
0001
0020
0000
0000
0130
0000
1000
,
0002
0000
0000
0203
0000
0310
2000
0000
0000
3100
0000
1000
,
0020
0000
0000
0130
0000
0001
0020
0000
0000
0130
0000
1000
,
0200
0000
0000
2300
0000
3001
0200
0000
0300
0010
0000
1000
,
0020
0000
0000
0130
0000
0001
0020
0000
0000
0130
0000
0000
,
2000
0000
0000
3100
0000
1000
0002
0000
0000
0103
0000
0000
,
0020
0000
0000
0130
0000
0001
2000
0000
0000
3100
0000
0000
,
0020
0000
0000
0031
0000
1000
0200
0000
0000
1300
0000
0001
,
0020
0000
0000
0000
0000
0000
0130
0000
0000
0000
1000
0000
0001
0100
0010
1000
0001
0100
0010
1000
0001
1000
0010
0100
,
0010
1000
0001
1000
0100
0010
0001
1000
0100
0010
0001
1000
0001
0100
0010
1000
0010
0100
0001
1000
0001
0010
0001
1000
,
0100
0010
0001
1000
0100
0010
0100
1000
0001
1000
0010
0100
0010
1000
0001
0100
0010
0100
0001
1000
0001
0010
0001
1000
,
0100
0010
0001
1000
0100
0010
0100
1000
0001
0010
0100
0010
0001
1000
0100
1000
0001
0010
0001
1000
0001
0100
0010
1000
,
0001
0100
0010
0100
0001
1000
0100
1000
0001
1000
0010
0100
0001
1000
0001
0010
0100
1000
0001
1000
0010
0100
0001
0100
,
0010
1000
0001
0100
0010
0100
0001
1000
0010
0100
0010
1000
0001
1000
0100
1000
0001
0010
0100
1000
0001
0010
0100
1000
,
0001
0010
0100
0010
0001
1000
0100
0010
0001
1000
0100
1000
0001
1000
0010
0100
0010
1000
0001
0100
0010
1000
0001
0100
,
0001
1000
0001
0010
0001
1000
0100
0010
0001
1000
0001
0100
0010
0100
0001
1000
0010
0100
0001
1000
0001
0010
0100
1000
,
0002
0000
0000
0000
0000
0000
2003
0000
0000
0000
0000
0000
3020
0000
0000
0000
0000
0000
1030
0001
0100
0010
1000
0001
,
0020
0000
0000
0230
0000
0000
1300
0000
0010
0000
0100
0000
,
0001
0000
1000
0000
0100
0000
0100
0000
0010
0000
0001
0000
,
2000
0000
0000
3020
0000
0000
0130
0000
0001
0000
1000
0000
,
0200
0000
0000
0000
0310
0000
0001
0000
1000
0000
0010
0000
,
0200
0000
0000
0302
0000
0000
1003
0000
0100
0000
0010
0000
,
0100
0000
1000
0000
0001
0000
0001
0000
1000
0000
0010
0000
,
0100
0000
0001
0000
1000
0000
0200
0000
0000
0320
0000
0000
,
0032
0000
0000
0000
0000
0000
0000
0000
0000
0000
0000
0000
0000
0000
0000
0000
0000
0000
0103
0010
1000
0001
1000
0100
,
1000
0001
0010
0100
1000
0100
0010
0001
1000
0001
0100
0001
1000
0010
0100
0001
1000
0010
0100
0010
1000
0001
1000
0100
,
0010
0001
0010
0100
1000
0001
0010
0001
1000
0100
0010
0001
1000
0001
0100
0010
1000
0001
0100
0010
1000
0001
1000
0100
,
0010
0001
1000
0001
0010
0100
1000
0001
0010
0100
1000
0001
1000
0010
0100
0001
0100
0010
1000
0001
1000
0100
1000
0001
,
0010
0100
0010
0001
1000
0100
0010
0100
1000
0001
1000
0100
0010
0001
1000
0001
0100
0001
1000
0010
0100
0010
1000
0001
,
1000
0100
1000
0001
0010
0100
1000
0001
0010
0100
0010
0001
1000
0100
0010
0001
1000
0001
0100
0010
0100
0001
1000
0010
,
0100
0001
1000
0001
0010
0100
1000
0001
1000
0010
1000
0001
0100
0010
1000
0001
0100
0001
1000
0010
0100
0001
1000
0001
,
0010
0100
0010
0001
1000
0001
0010
0100
1000
0001
1000
0010
0100
0010
1000
0001
0100
0010
1000
0001
1000
0100
0010
0001
,
0010
0100
1000
0001
1000
0010
0100
0001
1000
0001
0010
0100
1000
0100
0010
0001
1000
0001
0100
0010
1000
0001
1000
0100
,
0010
0001
0010
0100
1000
0001
1000
0010
0100
0001
1000
0001
0010
0001
1000
0010
0100
0010
1000
0001
1000
0100
1000
0001
,
0010
0100
0010
0001
1000
0100
0010
0100
1000
0001
1000
0010
0100
0001
0100
0010
1000
0001
1000
0010
1000
0001
0100
0010
,
1000
0001
0010
0100
0010
0001
1000
0100
0010
0100
1000
0001
1000
0010
0100
0010
1000
0001
0100
0001
1000
0010
1000
0001
,
1000
0100
1000
0001
0100
0001
1000
0010
0100
0001
0100
0010
1000
0001
0010
0100
1000
0100
0010
0001
1000
0010
1000
0001
,
0100
0000
0000
0010
1000
0010
1000
0000
0000
0000
0000
0000
;

//---------------dance-single - Mad Matt----------------
#NOTES:
     dance-single:
     Mad Matt:
     Medium:
     19:
     1.000,1.000,0.107,0.806,1.000,1116.000,13.000,98.000,0.000,0.000:





0000
0000
0000
0000
,
0000
0000
0000
0000
,
0000
0000
0000
0000
,
0000
0000
0000
0000
0000
0000
0000
0000
0000
0000
0000
0000
0000
0000
0000
0000
0000
0000
0001
0100
0010
1000
0100
1000
,
0001
0000
1000
0001
0000
0000
1000
0000
0001
0010
0000
0001
,
0020
0000
0000
0000
0000
0000
0230
0000
0000
0000
0000
0000
2300
0000
0000
0000
0000
0000
3001
0010
0100
1000
0010
1000
,
0001
0000
1000
0001
0000
0000
1000
0000
0001
0100
0000
0001
,
0200
0000
0000
0000
0000
0000
0320
0000
0000
0000
0000
0000
2030
0000
0000
0000
0000
0000
3010
0100
0001
0010
0100
1000
,
0001
0000
0000
0000
0100
0000
0010
0000
0000
0000
0000
0000
1000
0000
0000
0000
0010
0000
1000
0100
0010
0001
0100
0001
,
2000
0000
0000
0000
0000
0000
3200
0000
0000
0000
0000
0000
0320
0000
0000
0000
0000
0000
0130
1000
0010
0100
0001
1000
,
0100
0000
0000
0000
1000
0000
0001
0000
0000
0000
0000
0000
0100
0000
0000
0000
0010
0000
1000
0100
0010
0001
1000
0010
,
0200
0000
0000
0000
0000
0000
0302
0000
0000
0000
0000
0000
2003
0000
0000
0000
0000
0000
3100
0010
0100
1000
0010
1000
,
0001
0000
0100
0000
0001
0000
1000
0000
0100
0000
1000
0000
0100
0000
0010
0000
0001
0000
1000
0010
0100
0010
1000
0001
,
0010
0000
0100
0000
0100
0000
0010
0000
0001
0000
0001
0000
1000
0000
0010
0000
0010
0000
0100
0001
0010
0001
1000
0010
,
0100
0000
0001
0000
1000
0000
0010
0000
1000
0000
0001
0000
0100
0000
0001
0000
1000
0000
0100
0010
0001
0100
0010
1000
,
0001
0000
0100
0000
0100
0000
0010
0000
1000
0000
1000
0000
0001
0000
0010
0000
0010
0000
0100
0010
0001
0100
0001
1000
,
0020
0000
0000
0000
0000
0000
1030
0010
1000
0001
0010
0100
2000
0000
0000
0000
0000
0000
0100
0000
0000
0000
0000
0000
,
3002
0010
0023
0230
,
2300
0000
0000
0000
0000
0000
3001
0100
0010
1000
0100
1000
0002
0000
0000
0000
0000
0000
2003
0000
0000
0000
0000
0000
,
3200
0320
0230
2300
,
3020
0000
0000
0000
0000
0000
0130
0001
0100
0010
1000
0100
0020
0000
0000
0000
0000
0000
0100
0000
0000
0000
0000
0000
,
0230
1000
2300
3020
,
0230
0000
0000
0000
0000
0000
0301
1000
0100
1000
0010
0100
0002
0000
0000
0000
0000
0000
0023
0000
0000
0000
0000
0000
,
0230
0000
2300
0000
3200
0000
0320
0030
,
0012
0000
0000
0000
0000
0000
0013
0100
1000
0010
0100
0001
2000
0000
0000
0000
0000
0000
0001
0000
0000
3000
0000
0000
,
0102
0000
0000
0000
0000
0000
1003
0100
0010
0001
1000
0010
0200
0000
0000
0300
0000
0000
0202
0000
0000
0303
0000
0000
,
2002
0000
0000
3000
0000
0000
1003
0100
0010
0001
0100
0001
2000
0000
0000
3000
0000
0000
2002
0000
0000
3003
0000
0000
,
0202
0000
0000
0300
0000
0000
1003
0010
0100
0001
0010
0100
2000
0000
0000
3000
0000
0000
2200
0000
0000
3300
0000
0000
,
0220
0000
0000
0030
0000
0000
0310
0001
1000
0010
0100
0001
2000
0000
0000
0000
0000
0000
0010
0000
0000
3000
0000
0000
,
2020
0000
0000
3000
0000
0000
1030
0010
0100
0001
0010
0100
2000
0000
0000
3000
0000
0000
2200
0000
0000
3300
0000
0000
,
0022
0000
0000
0003
0000
0000
0031
0010
0100
1000
0001
0100
0020
0000
0000
0030
0000
0000
0220
0000
0000
0330
0000
0000
,
0202
0000
0000
0003
0000
0000
0301
1000
0010
1000
0100
0010
0002
0000
0000
0000
0000
0000
0103
0010
1000
0100
1000
0001
,
0020
0100
0230
1000
,
2300
0000
0000
0000
0000
0000
0010
0000
0000
0000
0000
0000
3020
0000
0000
0000
0000
0000
0130
0001
1000
0100
1000
0001
,
0020
0100
0230
1000
,
2300
0000
0000
0000
0000
0000
0010
0000
0000
0000
0000
0000
3020
0000
0000
0000
0000
0000
0130
0001
1000
0100
0010
0001
,
2000
0100
3200
0010
,
0320
0000
0000
0000
0000
0000
0001
0000
0000
0000
0000
0000
0032
0000
0000
0000
0000
0000
1003
0010
0100
0001
0010
0100
,
2000
0100
3200
0010
,
0320
0001
0032
2003
,
3001
0010
0100
0010
0001
0100
0010
1000
0001
1000
0100
0010
0100
1000
0010
0100
0001
1000
0100
0010
0001
0010
0100
1000
,
0001
1000
0010
0100
0010
1000
0100
0010
0001
1000
0001
0100
0010
0100
0001
0010
0100
1000
0001
1000
0010
0100
0001
0100
,
0010
1000
0100
1000
0001
0100
0010
1000
0001
1000
0100
0010
0100
1000
0010
0100
0001
1000
0001
0010
0100
0010
0001
0100
,
0010
1000
0001
0010
0100
0010
0001
1000
0010
1000
0001
0100
0010
1000
0001
0010
0100
0010
0001
0100
0010
1000
0001
0100
,
0010
1000
0001
0010
0100
0010
0001
1000
0010
0100
0001
1000
0001
0010
0100
1000
0010
0100
0001
1000
0100
0010
0001
0100
,
0001
1000
0100
0010
0100
1000
0010
0100
0001
1000
0010
0100
0001
0010
0100
1000
0010
0100
0001
1000
0010
0100
0001
0010
,
0100
1000
0001
0100
0001
0010
0100
0010
0001
0100
0010
1000
0100
1000
0001
0100
0001
1000
0010
0100
0001
1000
0100
0010
,
0100
1000
0010
0100
0001
0010
0001
1000
0010
0100
0001
1000
0100
0010
0100
1000
0001
1000
0010
0100
0001
0010
0100
1000
,
0001
0100
0010
1000
0100
0010
0100
1000
0001
0100
0010
1000
0001
0010
0100
1000
0001
1000
0010
0100
0001
1000
0100
1000
,
0010
0100
0001
1000
0100
0010
0100
1000
0001
1000
0010
0100
0001
1000
0100
0010
0100
1000
0010
1000
0001
0010
0100
1000
,
0001
0010
0100
1000
0001
0100
0010
0100
0001
1000
0100
0010
0001
0100
0010
1000
0001
0010
0001
0100
0010
1000
0001
1000
,
0100
0010
0001
1000
0001
0100
0010
0100
0001
0010
0100
1000
0001
0100
0001
0010
0001
1000
0100
1000
0010
1000
0001
0100
,
0010
1000
0001
0010
0001
0010
0100
1000
0010
0100
0001
0100
0001
0010
0100
1000
0100
1000
0010
0100
0001
1000
0100
0010
,
0001
1000
0100
0010
0001
0100
0010
1000
0010
1000
0100
0010
0001
0010
0001
0100
0010
1000
0001
1000
0100
0010
0001
1000
,
0010
0100
0010
0100
0001
0010
0100
1000
0100
0010
0001
0100
0010
1000
0010
1000
0001
0010
0100
1000
0010
1000
0010
0100
,
0001
1000
0001
1000
0100
0010
0001
0100
0010
1000
0001
0010
0001
0010
0100
1000
0100
0010
0001
0100
0001
0100
0010
1000
,
0001
0010
0100
1000
0010
0100
0001
0100
0001
0010
0100
1000
0100
1000
0010
0100
0001
0100
0010
1000
0001
0010
0100
0010
,
0001
0100
0010
1000
0010
1000
0001
0010
0100
1000
0010
0100
0001
0100
0001
0010
0100
1000
0001
0100
0010
0100
0001
1000
,
0100
1000
0100
0010
0001
1000
0001
0100
0010
1000
0010
1000
0100
0010
0001
0100
0010
1000
0001
0010
0100
1000
0010
0100
,
0002
0000
0000
0000
0000
0000
2003
0000
0000
0000
0000
0000
3020
0000
0000
0000
0000
0000
1030
0001
0100
0010
1000
0001
,
0020
0000
0000
0230
0000
0000
1300
0000
0010
0000
0100
0000
,
0001
0000
1000
0000
0100
0000
0100
0000
0010
0000
0001
0000
,
2000
0000
0000
3020
0000
0000
0130
0000
0001
0000
1000
0000
,
0200
0000
0000
0000
0310
0000
0001
0000
1000
0000
0010
0000
,
0200
0000
0000
0302
0000
0000
1003
0000
0100
0000
0010
0000
,
0100
0000
1000
0000
0001
0000
0001
0000
1000
0000
0010
0000
,
0100
0000
0001
0000
1000
0000
0200
0000
0000
0320
0000
0000
,
0032
0000
0000
0000
0000
0000
0000
0000
0000
0000
0000
0000
0000
0000
0000
0000
0000
0000
0013
0100
1000
0001
1000
0010
,
0100
0001
1000
0100
0010
0001
0100
0001
1000
0010
1000
0100
0010
0001
0010
0100
1000
0001
0100
0001
1000
0010
0100
0010
,
1000
0001
0010
0100
1000
0001
0100
0010
0100
0001
0010
0100
1000
0001
0100
0010
0100
0001
0010
0100
1000
0001
0100
0001
,
0010
0001
1000
0010
0100
0010
1000
0001
0010
0100
1000
0001
0100
0001
1000
0100
0010
0100
1000
0001
0100
0010
1000
0100
,
0010
0001
1000
0010
0100
0010
1000
0100
0010
0001
1000
0001
0100
0010
0100
0001
0010
0001
1000
0010
0100
0010
1000
0100
,
1000
0010
0100
0001
1000
0100
0010
0001
1000
0001
0100
0010
1000
0010
0100
0001
0010
0100
1000
0001
0100
0001
1000
0100
,
0010
0100
1000
0001
0100
0010
1000
0010
0100
0001
1000
0001
0010
0100
1000
0001
0100
0001
1000
0100
0010
0001
1000
0010
,
0100
0001
0010
0100
1000
0010
0100
0001
1000
0100
1000
0001
0100
0010
1000
0100
0010
0001
0100
0001
1000
0100
1000
0001
,
0100
0010
1000
0100
0010
0001
0100
0001
1000
0100
0010
0001
1000
0010
0100
0001
0010
0100
1000
0010
1000
0001
0100
0010
,
1000
0100
0010
0001
0100
0010
1000
0100
0010
0001
1000
0010
0100
0001
0010
0100
1000
0010
1000
0001
0100
0010
1000
0001
,
0010
0100
1000
0010
0100
0001
1000
0100
0010
0001
1000
0001
0100
0010
1000
0001
1000
0100
0010
0100
1000
0001
1000
0010
,
0100
0001
0010
0100
1000
0010
0100
0001
1000
0100
0010
0001
1000
0001
0100
0010
1000
0001
1000
0100
0010
0001
1000
0010
,
0100
0010
1000
0100
1000
0001
0010
0001
0100
0010
0100
0001
0010
0001
1000
0100
1000
0010
0100
0010
1000
0100
1000
0001
,
0100
0000
0000
0010
1000
0010
1000
0000
0000
0000
0000
0000
;
