#TITLE:FLOWER FOREVER;
#SUBTITLE:v2;
#ARTIST:DJ Sharpnel;
#TITLETRANSLIT:;
#SUBTITLETRANSLIT:;
#ARTISTTRANSLIT:;
#CREDIT:;
#BANNER:FLOWER FOREVER.png;
#BACKGROUND:FLOWER FOREVER-bg.png;
#LYRICSPATH:;
#CDTITLE:!HSTTitle.png;
#MUSIC:FLOWER FOREVER.mp3;
#OFFSET:0.040;
#SAMPLESTART:123.334;
#SAMPLELENGTH:12.000;
#SELECTABLE:YES;
#BPMS:0.000=87.600,34.125=76.600,34.250=66.600,34.375=56.600,35.333=175.200,163.000=87.600,195.000=175.200,323.000=87.600,387.375=76.600,387.500=66.600,387.625=56.600,387.750=46.600,388.375=175.200,884.500=87.600,916.750=14.600;
#STOPS:500.750=1.280
;
#BGCHANGES:;
// cache tags:
#FIRSTBEAT:1.000;
#LASTBEAT:917.500;
#SONGFILENAME:Songs/Ace Megapack/FLOWER FOREVER/FLOWER FOREVER.sm;
#HASMUSIC:1;
#HASBANNER:1;
#MUSICLENGTH:376.325;
// end cache tags

//---------------dance-single - ----------------
#NOTES:
     dance-single:
     :
     Challenge:
     12:
     0.974,1.000,0.741,0.173,1.000,2221.000,279.000,65.000,0.000,0.000:
0000
0000
0000
0000
0010
1000
0001
0010
0001
0000
0000
0000
0010
0001
1000
0010
,
1000
0000
0000
0000
1000
0100
1000
0001
2000
0000
0000
3200
0000
0000
2300
0000
,
3002
0000
0003
0000
0001
0010
0001
1000
0001
0000
0000
0000
0001
0100
0010
1000
,
0100
0000
0100
1000
0000
0000
1000
0000
2200
0000
0000
0000
0000
0000
0000
0000
,
3300
0000
0000
0000
1000
0010
1000
0100
1000
0000
0000
0000
0001
0010
0001
0100
,
0001
0000
0000
0000
0100
1000
0100
0010
0002
0000
0000
2003
0000
0000
3002
0000
,
0203
0000
0300
0000
0001
0000
0001
0000
0100
0000
0000
0100
0000
0000
0010
0000
,
0010
0000
0000
0000
0000
0000
1000
0000
0000
0000
0000
0000
1000
0000
0000
0000
0001
1000
0001
1000
0001
1000
0001
1000
0010
0100
0010
0100
0010
0100
0010
0100
,
0001
0010
0100
1000
0001
1000
0100
0010
0001
1000
0010
0100
0001
0010
0100
1000
2002
0000
0000
0000
0000
0000
0000
0000
3003
0000
0000
0000
1000
0000
0000
0000
,
0100
1000
0010
0100
0001
0100
0010
1000
,
0100
1000
0001
0100
0001
0010
0100
1000
,
0010
0100
0001
0100
0010
1000
0100
1000
,
0001
0010
0001
0100
0010
0100
0001
1000
,
0001
0010
0100
0010
0001
1000
0010
0100
,
0010
1000
0100
1000
0100
0010
0001
0010
,
0001
1000
0001
1000
0001
0010
0100
0010
,
0100
1000
0100
1000
0100
0010
0001
1001
,
0101
0001
0011
0000
1100
1000
1010
0000
,
0110
0100
0101
0000
0110
0100
1100
0000
,
1001
0001
0101
0000
1001
1000
1100
0000
,
0110
0010
0011
0000
0110
0100
1100
0000
,
0001
1000
0001
1000
0001
1000
0001
1000
,
0001
0000
0010
0000
0100
0000
0010
0000
0100
0000
0010
0000
0100
0000
1000
0100
,
1000
0100
1000
0100
1000
0100
0010
0001
0010
0001
0010
0001
0010
0001
1000
0010
,
0100
0001
0010
0100
1000
0001
1000
0010
0100
0001
0010
0100
1000
0000
1000
0100
,
0010
0000
0001
0100
0010
0000
1000
0001
0100
0000
0001
1000
0100
0000
0010
0100
,
0010
0000
0001
1000
0001
0000
1000
0010
1000
0000
0001
0100
0001
0000
0010
0001
,
1000
0000
0010
1000
0001
0000
1000
0100
1000
0000
0001
0010
0001
0000
1000
0010
,
1000
0000
0001
0100
0001
0000
0010
0100
0010
0000
0001
0010
0001
0000
0100
0010
,
0100
0000
0010
1000
0010
0000
0100
0010
1000
0000
0100
0010
0001
0000
1000
0001
,
0100
0000
0001
1000
0100
0000
0100
0010
0001
0000
0100
0010
1000
0000
0010
0100
,
0001
0000
0010
0100
1000
0000
0001
1000
0001
0000
1000
0001
1000
0000
0010
1000
,
0010
0000
0100
0001
0100
0000
0001
0010
0001
0000
0010
0100
0010
0000
0100
1000
,
0100
0000
1000
0001
1000
0000
0010
1000
0010
0000
0100
0001
0100
0000
0010
1000
,
0100
0000
0010
0001
0100
0000
0001
1000
0100
0000
1000
0001
0100
0000
0001
0010
,
0100
0000
1000
0010
0100
0000
0010
1000
0001
0000
0010
0001
1000
0000
0100
1000
,
0001
0000
0100
0001
1000
0000
0001
0010
0100
0000
1000
0010
0100
0000
0010
1000
,
0001
0000
0001
1000
0001
0000
1000
0010
1000
0000
0010
0100
0010
0000
0100
0001
,
0100
0000
0001
0010
0001
0000
0010
0100
0010
0000
0001
1000
0001
0000
1000
0001
,
1000
0001
1000
0001
1000
0001
1000
0001
1000
0001
1000
0001
1000
0001
0010
0100
,
1000
0010
0100
0001
0010
0100
1000
0001
1000
0100
0010
0001
1000
1100
0000
1000
,
0100
0000
0100
1000
0100
0010
0000
0001
0010
0000
0010
0001
0010
0100
0000
0100
,
0010
0000
0100
0010
0100
1000
0000
1000
0100
0000
0100
1000
0100
0010
0000
0010
,
0100
0000
0100
0010
0100
0010
0000
0010
0100
0000
0100
0010
0001
0010
0000
0010
,
0001
0000
0001
0010
0001
1000
0000
1000
0001
0000
1000
0001
0010
0110
0000
0100
,
1100
0000
1000
1100
0100
0110
0000
0010
0110
0000
0010
0110
0010
0011
0000
0001
,
0011
0000
0001
0011
0010
0110
0000
0100
0110
0000
0100
0110
0100
1100
0000
1000
,
1100
0000
0000
0000
1000
0000
1100
0000
0100
0000
0110
0000
0000
0000
0010
0000
0011
0000
0000
0000
0001
0000
0010
0000
0001
0000
1000
0001
1000
0001
1000
0001
,
1000
0001
0010
0100
0010
0100
0010
0100
0010
0100
0010
0001
0100
0010
1000
0010
0100
0001
0010
0100
1000
0010
1000
0001
1000
0000
0000
0000
1000
0000
0001
0000
,
1000
0000
0001
1000
0001
0000
0010
0001
0010
0000
0100
0010
0100
0000
1000
0100
,
1000
0000
0010
1000
0010
0000
0100
0010
0100
0000
0001
1000
0001
0000
0010
0001
,
0010
0000
0100
0010
0100
0000
1000
0100
1000
0000
0010
0100
0010
0000
1000
0001
,
0100
0000
0001
1000
0100
0000
0010
0001
1000
0000
0010
1000
0001
0000
0010
0100
,
1000
0000
0010
0100
0001
0000
1000
0001
0100
0000
0001
1000
0100
0000
0010
1000
,
0100
0000
0010
0001
0100
0000
0010
1000
0001
0000
0010
0100
1000
0000
0010
0100
,
0001
0000
1000
0001
0100
0000
0001
1000
0100
0000
1000
0010
0100
0000
0010
0100
,
0001
0000
0100
0010
1000
0000
0010
1000
0001
0000
0010
0100
1000
0000
0100
0010
,
0001
0000
1000
0010
0100
0000
0001
0010
0100
0000
1000
0100
0010
0000
0001
0010
,
0100
0000
1000
0010
0100
0000
0010
0100
0001
0000
0100
0010
1000
0000
0010
0100
,
0001
0000
1000
0100
0010
0000
0100
1000
0001
0000
0100
0010
1000
0000
0010
0100
,
0001
0000
1000
0100
0010
0000
0001
1000
0100
0000
1000
0001
0100
0000
0010
0100
,
0001
0000
0100
0010
1000
0000
0010
0100
0010
0000
1000
0010
1000
0000
0001
0100
,
0001
0000
0010
0001
0010
0000
0100
0010
0100
0000
1000
0100
1000
0000
0010
1000
,
0010
0000
0100
0001
0100
0000
0010
1000
0100
0000
0010
0001
0100
0000
0010
1000
,
0010
0000
0100
0001
0100
0000
0001
1000
0001
0000
0010
0001
0010
0000
0100
0010
,
0100
0000
1000
0100
1000
0000
0001
0100
0001
0000
1000
0010
1000
0000
0001
0010
,
0001
0000
0010
0100
0010
0000
0001
1000
0001
0000
0100
0010
1000
0000
0100
0010
,
0001
0000
0100
0010
0100
0000
0010
1000
0010
0000
0100
0001
0100
0000
0010
1000
,
0100
0000
0010
0001
0100
0000
0001
0100
0001
0000
0100
0010
0100
0000
0010
1000
,
0010
0000
0100
0010
0100
0000
0001
1000
0001
0000
0010
0001
0010
0000
0100
0010
,
0100
0000
1000
0100
1000
0000
0100
1000
0001
0000
0100
0001
1000
0000
0010
0100
,
0001
0000
0010
0100
1000
0000
0100
0010
0001
0000
1000
0001
1000
0000
0001
1000
,
0100
0000
0010
0100
0010
0000
0001
0100
0010
0000
1000
0100
0010
0000
0001
1000
,
0001
0000
1000
0001
1000
0000
0010
1000
0100
0000
0010
0001
0100
0000
0010
1000
,
0010
0000
0100
0001
0100
0000
0001
0010
0001
0000
0010
0100
0010
0000
0100
1000
,
0100
0000
1000
0001
1000
0000
0001
0010
0001
0000
0010
0100
0010
0000
0100
1000
,
0100
0000
1000
0010
1000
0000
0010
0100
0010
0000
0100
0001
0100
0000
0001
0010
,
0001
0000
0010
0100
0010
0000
0100
1000
0100
0000
1000
0001
0100
0000
0001
1000
,
0100
0000
1000
0010
0100
0000
0010
1000
0001
0000
0010
0001
0010
0000
1000
0001
,
1000
0001
1000
0001
1000
0001
1000
0001
1000
0001
1000
0001
1000
0001
0010
0100
,
1000
0001
1000
0010
0100
0001
0010
0100
1000
0010
0100
0001
1000
0001
0000
0000
,
0000
0001
0010
0100
1000
0100
0000
0000
0000
0010
0100
1000
0010
0100
0000
0000
,
0001
0000
0000
0100
0010
0220
0000
0330
0000
0010
0100
0010
1000
0100
0000
0000
,
0000
0010
0001
0010
0100
1000
0000
0000
0100
0000
0000
0010
0000
0022
0000
0000
,
0033
0220
0000
0000
0330
2200
0000
0000
3300
0100
0010
0001
0100
0010
0000
0000
,
0000
0100
0010
1000
0001
0100
0000
0000
0000
0001
0100
0010
1000
0100
0000
0000
,
0010
0000
0000
0010
0001
0022
0000
0033
0000
0010
0001
0010
0100
1000
0000
0000
,
0000
0010
0100
0001
1000
0100
0000
0100
1000
0000
0000
0100
0000
2200
0000
0000
,
3300
0220
0000
0000
0330
0022
0000
0000
0033
0001
0010
0001
1000
0001
0000
0000
,
0000
1000
0100
1000
0001
1000
0000
0000
0000
0010
0100
0001
1000
0100
0000
0000
,
0010
0000
0000
0001
0100
0202
0000
0303
0000
0010
1000
0010
0100
0001
0000
0000
,
0000
0001
0100
0010
1000
0100
0000
0100
0010
0000
0000
0001
0000
0022
0000
0000
,
0033
0220
0000
0000
0330
2200
0000
0000
3300
0100
1000
0100
0010
0001
0000
0000
,
0000
0010
0001
0010
0100
1000
0000
0000
0000
1000
0100
1000
0010
0100
0000
0000
,
0001
0000
0000
0100
0010
0220
0000
0330
0000
1000
0000
1000
0000
0100
0000
0000
,
0100
0000
0000
0000
0000
0000
0010
0000
0000
0000
0010
0000
0000
0000
0000
0000
0001
0000
0000
0000
0000
0000
1000
0000
0000
0000
0001
1000
0001
1000
0001
1000
,
0001
1000
0010
0100
0010
0100
0010
0100
0010
0100
0001
0010
0100
1000
0001
1000
0010
0100
0001
0010
0100
1000
0010
0100
0001
1000
0200
0000
0000
0000
0000
0000
,
0000
0000
0000
0300
0000
0000
0000
0000
1000
0000
0000
0000
0000
0000
1000
0000
0000
0000
0000
0000
0010
0000
0000
0000
0100
0000
0000
0000
0000
0000
0100
0000
,
0000
0000
0001
0000
0100
0000
0000
0100
0000
0000
0010
0000
1000
0000
0000
0010
,
0000
0000
0100
0010
0000
0000
1000
0000
0000
0010
0000
0100
0000
0000
0001
0000
,
0000
0010
0000
0100
0000
0000
1000
0000
0000
0100
0000
0100
0000
0000
0010
0000
,
0000
0001
0000
0000
1000
0000
0000
0010
0000
0000
0100
0000
0001
0000
0000
0010
,
0000
0000
0100
0000
1000
0000
0000
1000
0000
0000
0010
0000
0100
0000
0000
0001
,
0000
0000
0010
0100
0000
0000
1000
0000
0000
0001
0000
0010
0000
0000
0100
0000
,
0000
0100
0000
0010
0000
0000
0001
0000
0000
1000
0000
0010
0000
0000
0100
0000
,
0000
0010
0000
2002
0000
3003
0000
0001
0000
0010
0000
0000
0100
0000
0000
1000
,
0000
0000
0100
0000
0010
0000
0000
0001
0000
0000
0010
0000
0100
0000
0000
1000
,
0000
0000
0010
0100
0000
0000
0001
0000
0000
0100
0000
0001
0000
0000
0100
0000
,
0000
0010
0000
1000
0000
0000
0100
0000
0000
0010
0000
0001
0000
0000
0010
0000
,
0000
0100
0000
0000
0010
0000
0000
0010
0000
0000
0010
0000
0001
0000
0000
0001
,
0000
0000
0001
0000
0100
0000
0000
0100
0000
0000
0100
0000
0010
0000
0000
0010
,
0000
0000
0010
1000
0000
0000
1000
0000
0000
1000
0000
1000
0000
0000
0100
0000
,
0000
0100
0000
0100
0000
0000
0010
0000
0000
0010
0000
0010
0000
0000
0001
0000
,
0000
0001
0000
2000
0000
0000
0001
0000
0000
0001
0000
0001
0000
0000
0001
0000
,
0000
0001
0000
0001
0000
0000
0001
0000
0000
0001
0000
0001
0000
0000
0001
0000
,
0000
3001
0000
0002
0000
0000
0010
0000
0000
0010
0000
0010
0000
0000
0010
0000
,
0000
0010
0000
0010
0000
0000
0010
0000
0000
0010
0000
0010
0000
0000
0010
0003
,
0000
0010
0000
0210
0000
0000
1300
0000
0000
1000
0000
1000
0000
0000
1000
0000
,
0000
1000
0000
1002
0000
0000
1003
0000
0000
0010
0000
0010
0000
0000
0100
0000
,
0000
0100
0000
0120
0000
0000
1030
0000
0000
0100
0000
0100
0000
0000
0010
0000
,
0000
0010
0000
0012
0000
0000
1003
0000
0000
0010
0000
0100
0000
0000
0001
0000
,
0000
0010
0000
2001
0000
0001
0000
0001
0000
3001
0000
1002
0000
1000
0000
1000
,
0000
1003
0000
2010
0000
0010
0000
0010
0000
3010
0000
0120
0000
0100
0000
0100
,
0000
0130
0000
0010
1000
0010
1000
0010
1000
0010
1000
0001
0100
0001
0100
0001
,
0100
0001
0100
0010
1000
0010
0100
0001
0010
0100
1000
0001
1000
0010
0100
0001
,
0000
2002
0000
3003
0001
0000
1000
0000
1100
0000
0100
0000
0010
0000
0001
0000
,
0101
0100
0010
1000
1100
0100
0010
0001
,
0011
0001
0100
0010
1010
1000
0100
0010
,
0110
0010
0001
1000
1001
0001
0100
0010
,
1010
1000
0010
0100
0110
0100
0010
1000
,
1100
0100
0010
0001
0011
0001
0010
0100
,
1100
1000
0010
0100
0101
0001
0010
0100
,
1100
1000
0010
0100
0110
0010
1000
0001
,
0011
0010
0100
1000
1100
0010
0100
0001
,
0101
0100
0010
1000
1100
0100
0010
0001
,
0101
0001
0100
0010
0110
0100
0010
1000
,
1010
1000
0100
0010
0011
0001
0100
0010
,
0110
0010
0100
0010
1010
1000
0100
0010
,
0011
0001
0100
0010
1010
1000
0010
0100
,
0101
0001
1000
0010
1010
1000
0100
0010
,
0110
0010
0001
1000
1001
1000
1100
1001
,
0011
0110
1100
0100
0110
0010
0001
1000
,
1100
1000
0001
0100
0110
0010
1000
0001
,
0101
0100
0010
1000
1100
0100
0010
0001
,
0011
0010
0100
1000
1010
0010
0100
0001
,
0101
0001
0010
0100
0110
0010
0100
1000
,
1010
0010
0100
0001
0101
0100
0010
1000
,
1100
0100
0010
0001
1001
1000
0010
0100
,
0110
0010
1000
0001
0011
0010
0100
1000
,
1100
1000
0001
0010
0011
0010
0001
1000
,
1010
0010
0100
0001
1001
1000
0100
0010
,
0110
0100
0010
0001
0011
0001
0100
0010
,
1010
1000
0100
0010
0011
0001
0001
1000
,
1000
0001
0010
0100
1000
0010
0100
0001
,
0100
0010
1000
0100
1000
0010
0100
0001
,
0100
0000
0010
0000
1000
0001
1000
0001
1000
0001
1000
0001
0010
0100
0010
0100
,
0010
0100
0010
0100
1000
0010
0100
0001
0010
0100
1000
0001
1000
0100
0010
0001
,
1000
0010
0100
0001
0011
0000
0000
0000
0001
1000
0100
0010
0100
1000
0010
0100
,
0001
0100
0010
0000
0010
0100
0010
0000
1000
0010
1000
0000
0010
0100
0001
0010
,
0100
1000
0100
0000
0100
0010
0100
0000
0100
0010
0001
0000
0001
1000
0010
1000
,
0001
0010
0001
0000
0001
1000
0001
0000
0001
0010
0001
0000
0001
1000
0010
0100
,
0001
0010
0100
0000
0100
0010
0100
0000
0100
1000
0100
0000
0100
0010
0001
1000
,
0010
0100
0001
0000
0001
0100
0001
0000
0001
1000
0010
0000
0010
1000
0100
0010
,
0001
1000
0010
0000
0010
1000
0001
0000
0001
1000
0001
0000
0001
1000
0010
0100
,
0001
0010
0100
0000
0100
1000
0100
0000
0100
0010
0001
0000
0001
1000
0010
0100
,
0001
0010
0100
0000
0100
0010
0001
0000
0001
1000
0010
0000
0010
1000
0001
0010
,
0001
1000
0010
0000
0010
1000
0010
0000
0010
0100
0010
0000
0010
1000
0001
0010
,
0001
1000
0010
0000
0010
1000
0001
0000
0001
1000
0001
0000
0001
0010
0100
1000
,
0001
1000
0010
0000
0010
1000
0010
0000
0010
1000
0001
0000
0001
1000
0010
0100
,
0001
0010
0100
0000
0100
1000
0010
0000
0010
0100
0010
0000
0010
1000
0001
0010
,
0100
1000
0100
0000
0100
0010
0001
0000
0001
1000
0001
0000
0001
1000
0010
0100
,
0001
1000
0100
0000
0000
0000
0001
1000
0001
1000
0001
1000
0001
1000
0001
1000
,
0001
1000
0001
1000
0001
0010
0001
0010
0100
1000
0001
1000
0010
0100
0001
1000
,
0001
0010
0100
1000
0010
0100
0010
0000
0100
0010
0100
0000
0010
1000
0001
1000
,
0100
0010
0001
0000
1000
0001
1000
0000
0001
1000
0001
0000
0001
1000
0010
1000
,
0001
0010
0001
0000
0010
0100
0010
0000
0100
0010
0100
0000
0100
0010
0001
1000
,
0010
0100
0001
0000
1000
0010
1000
0000
0001
0100
0001
0000
0001
1000
0010
0100
,
0001
0010
0100
0000
0010
0001
1000
0000
0010
1000
0001
0000
0010
0001
1000
0010
,
1000
0100
0010
0000
0001
1000
0001
0000
1000
0001
1000
0000
0010
1000
0010
0100
,
0001
0010
0100
0000
0100
1000
0100
0000
1000
0100
1000
0000
0100
0010
0001
1000
,
0010
0100
0001
0000
0001
1000
0001
0000
1000
0001
1000
0000
0010
1000
0001
0010
,
0100
1000
0100
0000
0001
0010
0001
0000
1000
0100
1000
0000
0100
1000
0010
0100
,
0001
0010
0100
0000
1000
0001
1000
0000
0001
1000
0001
0000
0010
0001
1000
0010
,
0100
0001
0010
0000
0100
0010
0100
0000
0010
0100
0010
0000
0001
1000
0010
0100
,
0001
0010
0100
0000
0100
1000
0100
0000
1000
0100
1000
0000
0001
1000
0100
0010
,
0001
1000
0010
0000
0010
1000
0010
0000
0100
0010
0100
0000
0010
1000
0001
0010
,
0001
1000
0010
0000
0010
1000
0010
0000
0010
0100
0010
0000
0010
1000
0001
0010
,
0001
1000
0010
0000
0010
1000
0010
0000
1000
0010
1000
0000
0010
1000
0001
0010
,
0001
0100
0010
0000
1000
0001
0010
0100
1000
0001
1000
0010
0100
0001
1000
0100
,
0010
0001
1000
0000
1001
0000
0000
0000
1001
0000
0000
0000
0011
0000
1001
0000
,
1010
1100
1001
0000
1001
0000
0101
1001
,
1100
1010
1001
0000
0000
0101
0000
0000
,
1100
1001
0101
0000
0101
0000
1100
1010
,
1001
0011
0101
0000
0101
0000
1010
0101
,
0011
1100
1001
0000
0000
0110
0000
0000
,
0011
0000
1100
0000
0100
0100
0110
0000
,
0010
0010
0011
0000
0011
0000
1010
1001
,
0011
0110
1100
0000
1100
0000
0101
1001
,
1010
0011
1100
0000
1100
0000
0101
1010
,
1100
0101
1001
0000
0000
0011
0000
0000
,
0101
1100
1001
0000
1001
0000
0011
1100
,
1010
0101
1010
0000
0000
1010
0000
0000
,
1100
0000
0000
0000
0000
1001
0000
0000
,
0011
1001
1100
0000
0000
0110
0000
0000
,
0011
0000
0011
0000
0000
0000
1100
1001
,
0011
1001
1010
0000
1010
0000
0011
0110
,
1100
1001
0101
0000
0101
0000
1100
1010
,
0101
0011
1001
0000
0000
1100
0000
0000
,
1100
0011
0101
0000
0101
0000
1010
0101
,
0011
1100
1001
0000
1001
0000
1100
1001
,
0101
0011
1100
0000
0000
1100
0000
0000
,
1001
0000
0101
0000
0001
0001
1001
0000
,
1000
1000
1010
0000
1010
0000
1100
0101
,
0011
0110
1100
0000
1100
0000
1001
0101
,
0011
0110
1100
0000
1100
0000
0011
1100
,
1010
0101
1001
0000
0000
0011
0000
0000
,
1100
1001
0101
0000
0101
0000
1010
0101
,
0011
1100
1001
0000
0000
0011
0000
0000
,
0110
0000
0000
0000
0000
0011
0000
0000
,
1100
0000
1001
0000
0001
1000
0001
1000
0001
1000
0001
1000
0010
0100
0010
0100
,
0010
0100
0010
0100
0001
0010
0100
1000
0001
1000
0010
0100
0001
0010
0100
1000
,
0010
0100
0001
0100
0000
0000
0000
0010
1000
0010
0100
0001
0000
0000
0000
0001
,
0010
0100
1000
0100
0000
0000
0100
0000
0000
0010
0001
0022
0000
0033
0000
0001
,
1000
0010
0100
0001
0000
0000
0000
0100
0010
1000
0001
1000
0000
0000
0100
0000
,
0000
0010
0000
0022
0000
0000
0033
0220
0000
0000
0330
2200
0000
0000
3300
0100
,
1000
0100
0010
0001
0000
0000
0000
1000
0010
0100
0001
0010
0000
0000
0000
0010
,
0001
0010
0100
1000
0000
0000
0100
0000
0000
1000
0010
2020
0000
3030
0000
0010
,
1000
0100
0010
0001
0000
0000
0011
0000
0000
1100
0000
0000
0000
0000
1001
0000
,
0000
0101
0110
1010
0000
0000
1100
0000
0000
0110
0000
0011
0000
0000
0000
0101
,
0000
0110
2020
0000
0000
0000
3030
0000
0000
0000
0000
0000
0000
0000
0000
0000
;
