#TITLE:Bailandorape;
#SUBTITLE:;
#ARTIST:Imil & m1dlet;
#TITLETRANSLIT:;
#SUBTITLETRANSLIT:;
#ARTISTTRANSLIT:;
#CREDIT:Tyler;
#BANNER:bailandorape bn.png;
#BACKGROUND:bailandorape bg.png;
#LYRICSPATH:;
#CDTITLE:;
#MUSIC:Bailandorape.ogg;
#OFFSET:-0.050;
#SAMPLESTART:20.012;
#SAMPLELENGTH:12.000;
#SELECTABLE:YES;
#BPMS:0.000=150.000;
#STOPS:;
#BGCHANGES:;
// cache tags:
#FIRSTBEAT:32.000;
#LASTBEAT:452.000;
#SONGFILENAME:Songs/SPEEEDCOOOORE 2/Bailandorape - [Tyler]/Bailandorape.sm;
#HASMUSIC:1;
#HASBANNER:1;
#MUSICLENGTH:182.256;
// end cache tags

//---------------dance-single - T. Moore----------------
#NOTES:
     dance-single:
     T. Moore:
     Challenge:
     14:
     1.000,1.000,0.285,0.433,1.000,1200.000,52.000,79.000,91.000,0.000:
0000
0000
0000
0000
,
0000
0000
0000
0000
,
0000
0000
0000
0000
,
0000
0000
0000
0000
,
0000
0000
0000
0000
,
0000
0000
0000
0000
,
0000
0000
0000
0000
,
0000
0000
0000
0000
,
2001
0000
0001
3000
0010
0000
0100
0000
1000
0000
0010
0000
0100
0000
0010
0000
,
1000
0100
0010
0001
0100
0010
1000
1000
,
0010
0100
0001
0010
0100
1000
0010
0000
,
0010
1000
0100
0010
0001
0100
0010
0010
,
1000
0010
0100
0001
0010
0100
1000
0100
,
0010
0001
0100
0010
1000
0100
0010
0010
,
010M
1000
0010
0100
0001
0010
0100
0010
,
0004
4000
0000
0000
0000
0000
0000
0000
0000
0000
0000
0000
0000
0000
0003
3000
,
0001
0000
0010
0000
0100
0000
1000
0000
0001
0000
0100
0000
0010
0000
1000
0000
0001
0000
1000
0000
0100
0000
1000
0000
0010
0000
0000
0000
4000
0000
0000
3000
,
0100
0010
0001
0010
0100
1000
0001
0100
0010
0000
0010
0000
0020
0000
0000
0000
,
1030
0000
0000
0000
0000
0000
0000
0000
0001
0000
0000
0000
0000
0000
0000
0000
1000
0000
0000
0000
0000
0000
0000
0000
0010
0000
0000
0000
0000
0000
0000
0000
0100
0000
0000
0000
0000
0000
0000
0000
0001
0000
0000
0000
0000
0000
0000
0000
1000
0000
0000
0000
0000
0000
0000
0000
0000
0000
0000
0000
0100
0000
0000
0000
0000
0000
0000
0000
0000
0000
0000
0000
0010
0000
0000
0000
0000
0000
0000
0000
0000
0000
0000
0000
0001
0000
0000
0000
0000
0000
0000
0000
0000
0000
0000
0000
1000
0000
0000
0000
0000
0000
0000
0000
0000
0000
0000
0000
0001
0000
0000
0000
0000
0000
0000
0000
0000
0000
0000
0000
0010
0000
0000
0000
0000
0000
0000
0000
0000
0000
0000
0000
0100
0000
0000
0000
0000
0000
0000
0000
0000
0000
0000
0000
1000
0000
0000
0000
0000
0000
0000
0000
0000
0000
0000
0000
0001
0000
0000
0000
0000
0000
0000
0000
0000
0000
0000
0000
0100
0000
0000
0000
0000
0000
0000
0000
0000
0000
0000
0000
0004
0000
0000
0000
0000
0000
0003
0000
0000
0000
0000
0000
,
1000
0100
0010
0001
1000
0001
0100
0001
1000
0010
0100
0001
4000
0000
0000
0000
,
3001
0000
0000
0000
0000
0000
0000
0000
0000
0000
0000
0000
0100
0000
0000
0000
0000
0000
0000
0000
0000
0000
0000
0000
0010
0000
0000
0000
0000
0000
0000
0000
0000
0000
0000
0000
1000
0000
0000
0000
0000
0000
0000
0000
0000
0000
0000
0000
0001
0000
0000
0000
0000
0000
0000
0000
0000
0000
0000
0000
1000
0000
0000
0000
0000
0000
0000
0000
0000
0000
0000
0000
0010
0000
0000
0000
0000
0000
0000
0000
0000
0000
0000
0000
0100
0000
0000
0000
0000
0000
0000
0000
0000
0000
0000
0000
0001
0000
0000
0000
0000
0000
0000
0000
0000
0000
0000
0000
1000
0000
0000
0000
0000
0000
0000
0000
0000
0000
0000
0000
0100
0000
0000
0000
0000
0000
0000
0000
0000
0000
0000
0000
0010
0000
0000
0000
0000
0000
0000
0000
0000
0000
0000
0000
0001
0000
0000
0000
0000
0000
0000
0000
0000
0000
0000
0000
4000
0000
0000
0000
0000
0000
3000
0000
0000
0000
0000
0000
0001
0000
0000
0000
0000
0000
0000
0000
0100
0000
0000
0000
0000
0000
0000
0000
0001
0000
0000
0000
0000
0000
0000
0000
,
0100
0000
0010
0000
1000
0000
0010
0000
0100
0000
0001
0000
1000
0000
0100
0000
0010
0000
0001
0000
0010
0000
0001
0000
1000
0000
0000
0000
0004
0000
0000
0003
,
0100
0010
1000
0010
0100
0001
1000
0100
0010
0001
1000
0001
0200
0000
0000
0000
,
0310
0000
1000
0000
0010
0000
1000
0000
0000
0001
0000
0000
0010
0000
0100
0000
1000
0000
0001
0000
1000
0000
0001
0000
0400
0000
0000
0000
0000
0000
0000
0000
0000
0000
0000
0000
0310
0000
0000
0000
0000
0000
0010
0000
0000
0000
0000
0000
,
1000
0000
0000
0000
0000
0000
0000
0000
0000
0000
0000
0000
0010
0000
0000
0000
0000
0000
0000
0000
0000
0000
0000
0000
0100
0000
0000
0000
0000
0000
0000
0000
0000
0000
0000
0000
0001
0000
0000
0000
0000
0000
0000
0000
0000
0000
0000
0000
1000
0000
0000
0000
0000
0000
0000
0000
0000
0000
0000
0000
0001
0000
0000
0000
0000
0000
0000
0000
0000
0000
0000
0000
0100
0000
0000
0000
0000
0000
0000
0000
0000
0000
0000
0000
0010
0000
0000
0000
0000
0000
0000
0000
0000
0000
0000
0000
1000
0000
0000
0000
0000
0000
0000
0000
0000
0000
0000
0000
0001
0000
0000
0000
0000
0000
0000
0000
0000
0000
0000
0000
0010
0000
0000
0000
0000
0000
0000
0000
0000
0000
0000
0000
0100
0000
0000
0000
0000
0000
0000
0000
0000
0000
0000
0000
1000
0000
0000
0000
0000
0000
0000
0000
0000
0000
0000
0000
0040
0000
0000
0000
0000
0000
0030
0000
0000
0000
0000
0000
1000
0000
0000
0000
0000
0000
0000
0000
0001
0000
0000
0000
0000
0000
0000
0000
1000
0000
0000
0000
0000
0000
0000
0000
,
0100
0010
0001
0010
0100
1000
0001
0100
0010
1000
0001
1000
0100
0000
4000
3000
,
0001
0100
0010
1000
0001
0010
0100
1000
0010
1000
0100
0010
0001
1000
0001
0010
,
0100
1000
0001
1000
0001
0100
0010
1000
0100
1000
0010
0100
0004
0000
0000
0000
,
1003
0000
0010
0000
1000
0000
0001
0000
1000
0000
0100
0000
0010
0000
0001
0000
0100
0000
0001
0000
0010
0000
0100
0000
1000
0000
0010
0000
0100
0000
0040
0030
,
1000
0000
0000
0000
0000
0000
0000
0000
0000
0000
0000
0000
0001
0000
0000
0000
0000
0000
0000
0000
0000
0000
0000
0000
1000
0000
0000
0000
0000
0000
0000
0000
0000
0000
0000
0000
0100
0000
0000
0000
0000
0000
0000
0000
0000
0000
0000
0000
0010
0000
0000
0000
0000
0000
0000
0000
0000
0000
0000
0000
0001
0000
0000
0000
0000
0000
0000
0000
0000
0000
0000
0000
1000
0000
0000
0000
0000
0000
0000
0000
0000
0000
0000
0000
0001
0000
0000
0000
0000
0000
0000
0000
0000
0000
0000
0000
0010
0000
0000
0000
0000
0000
0000
0000
0000
0000
0000
0000
0100
0000
0000
0000
0000
0000
0000
0000
0000
0000
0000
0000
0010
0000
0000
0000
0000
0000
0000
0000
0000
0000
0000
0000
0001
0000
0000
0000
0000
0000
0000
0000
0000
0000
0000
0000
1000
0000
0000
0000
0000
0000
0000
0000
0000
0000
0000
0000
0040
0000
0000
0000
0000
0000
0030
0000
0000
0000
0000
0000
1000
0000
0000
0000
0000
0000
0000
0000
0001
0000
0000
0000
0000
0000
0000
0000
1000
0000
0000
0000
0000
0000
0000
0000
,
0100
0010
010M
1000
001M
0100
001M
1000
010M
0010
010M
1000
001M
0100
001M
1000
,
020M
0000
000M
0000
031M
0000
000M
0010
000M
0000
001M
0000
001M
0000
000M
0000
,
2002
0000
3000
0000
0103
0000
0000
1001
0000
0000
2002
0003
0100
0000
0000
3000
,
0022
0000
0030
0000
1003
0000
0000
1010
0000
0000
2020
0030
0001
0000
3000
0000
,
2200
3000
0000
0000
0310
0000
0000
1100
0000
0000
2200
0300
0001
0000
0000
3000
,
0202
0000
0300
0000
0013
0000
0000
1100
0000
0000
2200
0300
0001
3000
0000
0000
,
0202
0000
0000
0303
2020
0000
0000
3030
2200
0000
0000
3300
0022
0000
0000
0033
,
0220
0000
0000
0330
2002
0000
0000
3003
0202
0000
0000
0303
2020
0000
0000
3030
,
2200
0000
0000
3300
M202
0000
M000
0303
M220
0000
M000
0330
M022
0000
M000
0033
,
M220
0000
M000
0330
M202
0000
M000
0303
M022
0000
M000
0033
M202
0000
M000
0303
,
0001
0000
0000
0000
0000
0000
0000
0000
0100
0000
0000
0000
0000
0000
0000
0000
0010
0000
0000
0000
0000
0000
0000
0000
1000
0000
0000
0000
0000
0000
0000
0000
0001
0000
0000
0000
0000
0000
0000
0000
1000
0000
0000
0000
0000
0000
0000
0000
0100
0000
0000
0000
0000
0000
0000
0000
0000
0000
0000
0000
0010
0000
0000
0000
0000
0000
0000
0000
0000
0000
0000
0000
0001
0000
0000
0000
0000
0000
0000
0000
0000
0000
0000
0000
1000
0000
0000
0000
0000
0000
0000
0000
0000
0000
0000
0000
0100
0000
0000
0000
0000
0000
0000
0000
0000
0000
0000
0000
1000
0000
0000
0000
0000
0000
0000
0000
0000
0000
0000
0000
0001
0000
0000
0000
0000
0000
0000
0000
0000
0000
0000
0000
0010
0000
0000
0000
0000
0000
0000
0000
0000
0000
0000
0000
0001
0000
0000
0000
0000
0000
0000
0000
0000
0000
0000
0000
0400
0000
0000
0000
0000
0000
0300
0000
0000
0000
0000
0000
0010
0000
0000
0000
0000
0000
0000
0000
1000
0000
0000
0000
0000
0000
0000
0000
0010
0000
0000
0000
0000
0000
0000
0000
,
1000
0000
0000
0001
0000
0000
0100
0000
0000
0010
0000
0000
1000
0000
0001
0000
1000
0000
0100
0000
0010
0000
0001
0000
1000
0000
0000
0001
0000
0000
0100
0000
0000
0010
0000
0000
1000
0000
0000
0000
0000
0000
0004
0000
0000
0003
0000
0000
,
1000
0010
1000
0001
1000
0100
0010
0001
1000
0001
0100
0010
1000
0010
0100
0001
,
1000
0000
0100
0000
1000
0000
0001
0000
0100
0000
0001
0000
0100
0000
0010
0000
1000
0000
0001
0000
1000
0000
0100
0000
2000
300M
0020
0030
0100
0000
0004
0003
,
1000
0010
1000
0001
1000
0100
0010
0001
0200
0000
0000
0300
0201
0000
0000
0300
,
0001
0010
0100
1000
0001
0100
0010
1000
0200
0000
0000
0300
1200
0000
0000
0300
,
1000
0000
0000
0100
0000
0000
0010
0000
0000
0001
0000
0000
1000
0000
0000
0001
0000
0000
0100
0000
0000
0010
0000
0000
1000
0000
0001
0000
1000
0000
0001
0000
0000
0010
0000
0000
0100
0000
1000
0000
0100
0000
1000
0000
0000
0001
0000
0000
,
0400
0000
0000
0000
0000
0000
0000
0000
0000
0000
0000
0000
0000
0000
0000
0000
0300
0000
0000
0000
0000
0000
0000
0000
0000
0000
0000
0000
0000
0000
0000
0000
0000
0000
0000
0000
0001
0000
0000
0000
0000
0000
0000
0000
0000
0000
0000
0000
0400
0000
0000
0000
0000
0000
0000
0000
0000
0000
0000
0000
0000
0000
0000
0000
0300
0000
0000
0000
0000
0000
0000
0000
0000
0000
0000
0000
0000
0000
0000
0000
0000
0000
0000
0000
0001
0000
0000
0000
0000
0000
0000
0000
0000
0000
0000
0000
0400
0000
0000
0000
0000
0000
0000
0000
0000
0000
0000
0000
0000
0000
0000
0000
0300
0000
0000
0000
0000
0000
0000
0000
0000
0000
0000
0000
0000
0000
0000
0000
0000
0000
0000
0000
0001
0000
0000
0000
0000
0000
0000
0000
0000
0000
0000
0000
0020
0000
0000
0000
0000
0000
M030
0000
0000
0000
0000
0000
0200
0000
0000
0000
0000
0000
0300
0000
0000
0000
0000
0000
0000
0000
0000
0000
0000
0000
0000
0000
0000
0000
0000
0000
0000
0000
0000
0000
0000
0000
0000
0000
0000
0000
0000
0000
,
1000
0100
0010
0001
1000
0001
0100
0010
1000
0010
0100
0001
0010
0000
0400
0300
,
0010
0001
1000
0001
0100
0010
1000
0010
0100
0000
0100
0000
0200
0000
0000
0300
,
0001
0000
0000
0100
0000
0000
0010
0000
0000
1000
0000
0000
0001
0000
1000
0000
0001
0000
0010
0000
0100
0000
1000
0000
0001
0000
0000
0100
0000
0000
0010
0000
0000
1000
0000
0000
0004
0000
0000
0000
0000
0000
0003
0000
0000
1000
0000
0000
,
0010
0100
0001
1000
0010
0100
0001
0010
0100
1000
0010
0100
0001
0000
0001
0000
,
1000
0000
0000
0000
0000
0000
0000
0000
0000
0000
0000
0000
0001
0000
0000
0000
0000
0000
0000
0000
0000
0000
0000
0000
0010
0000
0000
0000
0000
0000
0000
0000
0000
0000
0000
0000
0100
0000
0000
0000
0000
0000
0000
0000
0000
0000
0000
0000
1000
0000
0000
0000
0000
0000
0000
0000
0000
0000
0000
0000
0001
0000
0000
0000
0000
0000
0000
0000
0000
0000
0000
0000
0100
0000
0000
0000
0000
0000
0000
0000
0000
0000
0000
0000
0010
0000
0000
0000
0000
0000
0000
0000
0000
0000
0000
0000
1000
0000
0000
0000
0000
0000
0000
0000
0000
0000
0000
0000
0010
0000
0000
0000
0000
0000
0000
0000
0000
0000
0000
0000
0100
0000
0000
0000
0000
0000
0000
0000
0000
0000
0000
0000
0001
0000
0000
0000
0000
0000
0000
0000
0000
0000
0000
0000
0010
0000
0000
0000
0000
0000
0000
0000
0000
0000
0000
0000
0004
0000
0000
0000
0000
0000
0003
0000
0000
0000
0000
0000
1000
0000
0000
0000
0000
0000
0000
0000
0001
0000
0000
0000
0000
0000
0000
0000
1000
0000
0000
0000
0000
0000
0000
0000
,
0010
0100
0001
0100
0010
1000
0001
0010
0100
1000
0100
1000
0001
0000
4000
3000
,
0010
0100
0001
0100
0010
1000
0001
0010
0100
1000
0001
1000
0020
0000
0000
0000
,
4030
0000
0000
0000
3000
0000
0000
0000
0000
0001
0000
0000
4000
0000
0000
0000
3000
0000
0000
0000
0000
0001
0000
0000
4000
0000
0000
0000
0000
0000
0000
0000
0000
0000
0000
0000
3010
0000
0000
0000
0000
0000
0010
0000
0000
0000
0000
0000
,
1000
0000
0000
0000
0000
0000
0000
0000
0000
0000
0000
0000
0100
0000
0000
0000
0000
0000
0000
0000
0000
0000
0000
0000
0010
0000
0000
0000
0000
0000
0000
0000
0000
0000
0000
0000
0001
0000
0000
0000
0000
0000
0000
0000
0000
0000
0000
0000
1000
0000
0000
0000
0000
0000
0000
0000
0000
0000
0000
0000
0001
0000
0000
0000
0000
0000
0000
0000
0000
0000
0000
0000
0010
0000
0000
0000
0000
0000
0000
0000
0000
0000
0000
0000
0100
0000
0000
0000
0000
0000
0000
0000
0000
0000
0000
0000
1000
0000
0000
0000
0000
0000
0000
0000
0000
0000
0000
0000
0001
0000
0000
0000
0000
0000
0000
0000
0000
0000
0000
0000
0100
0000
0000
0000
0000
0000
0000
0000
0000
0000
0000
0000
0010
0000
0000
0000
0000
0000
0000
0000
0000
0000
0000
0000
1000
0000
0000
0000
0000
0000
0000
0000
0000
0000
0000
0000
0400
0000
0000
0000
0000
0000
0300
0000
0000
0000
0000
0000
1000
0000
0000
0000
0000
0000
0000
0000
0001
0000
0000
0000
0000
0000
0000
0000
1000
0000
0000
0000
0000
0000
0000
0000
,
0010
0100
0001
0100
0010
1000
0001
0010
0100
1000
0001
1000
0010
0000
4000
3000
,
0001
0010
0100
1000
0001
0100
0010
1000
0100
1000
0010
0100
0001
1000
0001
0100
,
0010
1000
0001
1000
0001
0010
0100
1000
0010
1000
0100
0010
0001
0000
0001
0000
,
1000
0000
0100
0000
1000
0000
0001
0000
1000
0000
0010
0000
0100
0000
0001
0000
0010
0000
0001
0000
0100
0000
0010
0000
1000
0000
0100
0000
0010
0000
0400
0300
,
1000
0000
0000
0001
0000
0000
1000
0000
0000
0010
0000
0000
0100
0000
0000
0001
0000
0000
1000
0000
0000
0001
0000
0000
0100
0000
0000
0010
0000
0000
0100
0000
0000
0001
0000
0000
1000
0000
0100
0000
0010
0000
0001
0000
1000
0000
0001
0000
,
0100
0010
1000
0001
M010
0100
M010
0001
M100
0001
M100
0010
M100
0001
M100
0001
,
M020
0000
M000
0000
M031
0000
M000
0001
M000
0000
M001
0000
M004
0000
0003
0000
,
2020
3030
0000
0000
,
0000
0000
0000
0000
,
0000
0000
0000
0000
,
0000
0000
0000
0000
,
1000
0100
0010
0001
,
1000
0000
0010
0000
0100
0000
0001
0001
,
0010
0010
0100
0100
,
1000
0100
0010
0001
1000
0010
0100
0100
,
0010
0000
1000
0000
0001
0000
1000
0000
0100
0000
1000
0000
0010
0000
1000
0000
0001
0000
1000
0000
0100
0000
1000
0000
0010
0000
0000
0000
0400
0000
0000
0300
,
0010
1000
0100
0010
0001
1000
0010
1000
0100
0010
0001
1000
0010
0000
0010
0000
,
0100
0000
0010
0000
1000
0000
0001
0000
0010
0000
0001
0000
0100
0000
0010
0000
1000
0000
0001
0000
0010
0000
0001
0000
0100
0000
0001
0000
1000
0000
0400
0300
,
0010
0000
0000
0001
0000
0000
1000
0000
0000
0010
0000
0000
0100
0000
0000
0001
0000
0000
0010
0000
0000
0100
0000
0000
1000
0000
0001
0000
1000
0000
0100
0000
0000
0010
0000
0000
0001
0000
1000
0000
0001
0000
0100
0000
0010
0000
1000
0000
,
0100
0000
0000
0000
0000
0000
0000
0000
0000
0000
0000
0000
0010
0000
0000
0000
0000
0000
0000
0000
0000
0000
0000
0000
0001
0000
0000
0000
0000
0000
0000
0000
0000
0000
0000
0000
1000
0000
0000
0000
0000
0000
0000
0000
0000
0000
0000
0000
0010
0000
0000
0000
0000
0000
0000
0000
0000
0000
0000
0000
1000
0000
0000
0000
0000
0000
0000
0000
0000
0000
0000
0000
0100
0000
0000
0000
0000
0000
0000
0000
0000
0000
0000
0000
0010
0000
0000
0000
0000
0000
0000
0000
0000
0000
0000
0000
0001
0000
0000
0000
0000
0000
0000
0000
0000
0000
0000
0000
1000
0000
0000
0000
0000
0000
0000
0000
0000
0000
0000
0000
0010
0000
0000
0000
0000
0000
0000
0000
0000
0000
0000
0000
1000
0000
0000
0000
0000
0000
0000
0000
0000
0000
0000
0000
0100
0000
0000
0000
0000
0000
0000
0000
0000
0000
0000
0000
0040
0000
0000
0000
0000
0000
0030
0000
0000
0000
0000
0000
0001
0000
0000
0000
0000
0000
0000
0000
1000
0000
0000
0000
0000
0000
0000
0000
0001
0000
0000
0000
0000
0000
0000
0000
,
1000
0010
0100
0001
0010
0001
1000
0010
0100
0001
1000
0001
0040
0000
0000
0000
,
0031
0100
0010
1000
0100
1000
0001
0100
0010
1000
0100
1000
0002
0000
0000
0000
,
1003
0100
0010
0001
0010
0001
1000
0001
0100
0010
1000
0010
1000
0001
1000
0100
0010
0001
4000
0000
0000
0000
0000
0000
,
3001
0010
0100
1000
0010
0100
0001
0010
0100
1000
0010
0100
0001
0100
0010
1000
,
0001
0000
0000
0010
0000
0000
0100
0000
0000
1000
0000
0000
0010
0000
0000
0100
0000
0000
0001
0000
0000
0010
0000
0000
0100
0000
0000
1000
0000
0000
0010
0000
0000
0100
0000
0000
0001
0000
0100
0000
0010
0000
1000
0000
0001
0000
0010
0000
,
0100
0000
1000
0000
0001
0000
1000
0000
0010
0000
1000
0000
0100
0000
1000
0000
0001
0000
1000
0000
0010
0000
1000
0000
0100
0000
0000
0000
0040
0000
0000
0030
,
0100
1000
0010
1000
0100
0010
0001
0010
0100
1000
0010
0100
0002
0000
0000
1003
,
0001
0100
0010
0000
1001
0000
0001
0000
0100
0000
0100
0000
1010
0000
1000
0000
,
0001
0000
0001
0000
0110
0000
0100
0000
1000
0000
1000
0000
0101
0000
0001
1000
,
2002
0000
0003
0000
3M10
0000
0M00
1001
0M00
0000
2M02
3000
0M10
0000
0M00
0003
,
2M20
0000
0M30
0000
3M01
0000
0M00
0011
0M00
0000
0M22
0030
1M00
0000
0M00
0003
,
0M01
0010
0100
1000
0001
0010
0100
1000
0001
1000
0001
0100
0010
1000
0010
0100
0001
1000
0100
0000
0000
0100
0000
0000
,
0010
0000
0001
0000
0010
0000
0100
0000
1000
0000
0001
0000
0010
0000
0001
0000
1000
0000
0001
0000
0100
0000
0010
0000
1000
0000
0001
0000
1000
0000
0001
0000
1000
0000
0001
0000
0040
0000
0000
0000
0000
0000
0000
0000
0000
0030
0000
0000
,
0001
0000
0000
0000
0000
0000
0000
0000
0010
0000
0000
0000
0000
0000
0000
0000
0100
0000
0000
0000
0000
0000
0000
0000
1000
0000
0000
0000
0000
0000
0000
0000
0001
0000
0000
0000
0000
0000
0000
0000
1000
0000
0000
0000
0000
0000
0000
0000
0100
0000
0000
0000
0000
0000
0000
0000
0000
0000
0000
0000
0040
0000
0000
0000
0000
0000
0030
0000
0000
0000
0000
0000
0100
0000
0000
0000
0000
0000
0000
0000
1000
0000
0000
0000
0000
0000
0000
0000
0001
0000
0000
0000
0000
0000
0000
0000
0010
0000
0000
0000
0000
0000
0000
0000
0001
0000
0000
0000
0000
0000
0000
0000
1000
0000
0000
0000
0000
0000
0000
0000
0001
0000
0000
0000
0000
0000
0000
0000
0100
0000
0000
0000
0000
0000
0000
0000
0010
0000
0000
0000
0000
0000
0000
0000
1000
0000
0000
0000
0000
0000
0000
0000
0000
0000
0000
0000
0000
0000
0000
0000
0000
0000
0000
0000
0000
0000
0000
0000
0004
0000
0000
0000
0000
0000
0000
0000
0000
0000
0000
0000
0000
0000
0000
0000
0000
0000
0003
0000
0000
0000
0000
0000
,
1000
0000
0010
0000
0100
0000
0001
0000
1000
0000
0001
0000
1000
0000
0100
0000
0010
0000
0001
0000
1000
0000
0001
0000
1000
0000
0000
0001
0000
0000
1000
0000
0000
0000
0000
0000
0100
0000
0000
0000
0000
0000
0100
0000
0000
0000
0000
0000
,
1000
0000
0100
0000
0010
0000
0001
0000
1000
0000
0100
0000
0010
0000
0001
0000
1000
0000
0001
0000
0100
0000
0010
0000
1000
0000
0010
0000
0100
0000
0001
0000
1000
0000
0001
0000
0010
0000
0001
0000
1000
0000
0001
0000
0000
0100
0000
0000
,
0001
0000
0100
0000
0010
0000
1000
0000
0010
0000
0100
0000
0001
0000
0100
0000
0001
0000
1000
0000
0001
0000
1000
0000
0100
0000
0010
0000
0001
0000
1000
0000
0001
0000
0100
0000
0040
0000
0000
0000
0000
0000
0000
0000
0030
1000
0000
0000
,
0001
0010
0100
1000
0100
1000
0001
1000
0100
0010
0001
1000
0010
0100
0001
0100
0010
1000
0001
1000
0001
0010
0100
1000
,
0100
0000
0010
0000
0001
0000
1000
0000
0000
0001
0000
0000
1000
0000
0100
0000
0010
0000
0001
0000
1000
0000
0001
0000
0400
0000
0000
0000
0000
0000
0300
0000
0000
0000
0000
0000
0001
0000
0000
0000
0000
0000
0001
0000
0000
0000
0000
0000
,
1000
0100
0010
0001
0100
0001
0010
0100
1000
0001
0100
0010
1000
0010
1000
0001
,
1000
0010
0100
0001
1000
0100
0010
0001
1000
0001
1000
0001
0010
0100
1000
0040
,
0130
0001
1000
0001
0100
0010
1000
0001
0010
0100
1000
0001
0010
0001
0100
0010
,
1000
0000
0000
0010
0000
0000
0100
0000
0000
0001
0000
0000
1000
0000
0000
0100
0000
0000
0010
0000
0000
0100
0000
0000
1000
0000
0000
0001
0000
0000
0100
0000
0000
0010
0000
0000
1000
0000
0001
0000
1000
0000
0100
0000
0010
0000
0001
0000
,
1000
0010
0100
0001
0010
0001
0100
0010
1000
0010
0100
0001
0010
0001
1000
0001
,
0010
0100
1000
0100
0010
0001
1000
0010
0100
0010
0100
0001
4000
0000
0000
0000
,
301M
0100
001M
1000
010M
0010
010M
1000
001M
0100
001M
0100
001M
1000
010M
0010
,
010M
1000
001M
0100
001M
1000
010M
0010
010M
1000
001M
0100
0001
0000
0001
0000
,
2002
3000
1000
0003
0100
0000
0010
0000
0100
0000
1000
0000
0010
0000
1000
0000
,
0100
0010
0001
0100
0001
0010
0100
0100
,
1000
0010
0100
0001
0010
0100
1000
0000
,
1000
0100
0010
0001
0100
0010
1000
1000
,
0010
0100
0001
0010
0100
1000
0010
1000
,
0100
0010
0001
0100
0001
0010
0100
0100
,
100M
001M
010M
001M
100M
010M
001M
000M
,
001M
0100
100M
0010
010M
0010
100M
0100
001M
0100
100M
0010
010M
0000
010M
0000
,
2002
0000
3003
0000
,
0M00
0000
0000
0000
;

//---------------dance-single - J. Nero----------------
#NOTES:
     dance-single:
     J. Nero:
     Hard:
     12:
     0.937,1.000,0.302,0.368,1.000,1042.000,55.000,67.000,4.000,0.000:
0000
0000
0000
0000
,
0000
0000
0000
0000
,
0000
0000
0000
0000
,
0000
0000
0000
0000
,
0000
0000
0000
0000
,
0000
0000
0000
0000
,
0000
0000
0000
0000
,
0000
0000
0000
0000
,
2001
3001
0100
0010
0100
0001
1000
0100
,
0010
0001
0100
0010
0100
0001
0010
0100
,
1000
0001
0100
0001
0100
0010
1000
0001
,
1000
0000
0100
0000
0010
0000
0001
0000
0010
0000
0100
0000
1000
0000
1000
0010
,
0100
0001
0100
0001
1000
0100
0010
0001
,
1000
0010
0100
0010
1000
0001
0010
0100
,
0010
0001
0100
0001
0100
0010
1000
0001
,
4000
0004
0000
0000
0000
0000
0000
0000
0000
0000
0000
0000
0000
0000
3003
0000
,
1000
0001
1000
0010
0100
0010
1000
0001
1000
0100
0010
0001
1000
0000
0004
0003
,
0100
0001
0100
0010
1000
0001
0010
0100
2000
0000
3002
0000
0203
0000
0300
0000
,
0004
0000
0000
0000
1003
0100
1000
0001
0010
0100
1000
0001
1000
0010
0100
0001
,
0100
0010
1000
0001
1000
0100
0010
0001
1000
0001
1000
0010
0400
0000
0000
0300
,
0001
1000
0001
0100
0010
0100
0001
1000
0001
0010
0100
1000
0001
1000
0010
0100
,
0001
0100
0001
1000
0100
0010
0001
0100
0001
1000
0010
0100
0001
0000
4000
3000
,
0001
0100
0001
1000
0100
1000
0001
0010
0100
1000
0001
1000
0001
0000
0000
0000
,
1000
0001
1000
0001
0000
0000
0100
0001
0100
0001
0100
0001
0400
0000
0000
0300
0000
0000
0001
0000
0000
0001
0000
0000
,
1000
0100
1000
0001
0010
0100
1000
0001
1000
0010
0100
0001
0100
0010
1000
0001
,
1000
0001
0010
0100
1000
0001
1000
0100
0010
0001
1000
0001
1000
0000
0040
0030
,
0100
0001
1000
0100
0010
0001
1000
0001
1000
0010
0100
0001
0100
0010
1000
0001
,
1000
0100
1000
0100
0010
0001
1000
0001
1000
0010
0100
0001
4000
0000
0000
3000
,
0001
0010
0100
0010
0100
1000
0001
1000
0001
0100
0001
1000
0010
0100
0010
1000
,
0001
1000
0100
1000
0001
0010
0100
1000
0001
1000
0100
1000
0001
0100
0010
0100
,
0001
1000
0001
1000
0100
1000
0100
0010
0001
1000
0001
1000
0001
0100
0001
0100
,
0010
0000
0000
0000
0100
0000
0000
0100
0000
0000
0100
0000
0001
0000
0000
0000
,
2002
0000
3000
0000
1000
0003
0000
2200
0300
0000
0100
0000
3001
0000
0000
0000
,
0202
0000
0300
0000
0100
0003
0000
0220
0030
0000
0010
0000
0301
0000
0000
0000
,
2002
0000
3000
0000
1000
0000
0003
0202
0003
0000
0001
0000
0310
0000
0000
0000
,
2020
0000
3000
0000
0130
0000
0000
0220
0030
0000
0010
0000
0301
0000
0000
0000
,
2002
3003
2200
3300
0220
0330
0022
0033
,
2002
3003
2020
3030
0220
0330
0202
0303
,
2002
3003
2020
3030
0202
0303
0220
0330
,
4000
0004
0000
0000
0000
0000
0000
0000
0000
0000
0000
0000
0000
0000
3003
0000
,
0100
0000
0001
0000
0100
0000
0001
0000
0100
0000
0001
0000
0100
0000
0000
0001
0000
0000
1000
0000
0000
0001
0000
0000
1000
0000
0000
0100
0000
0000
0010
0000
0000
0001
0000
0000
1000
0000
0000
0001
0000
0000
0010
0000
0000
0100
0000
0000
,
1000
0010
0100
0001
0400
0000
0000
0000
0301
1000
0001
0100
0010
0000
0400
0300
,
0001
1000
0001
0010
0100
0010
0100
1000
0001
1000
0001
0100
0010
0100
0001
1000
,
0001
1000
0100
0010
0100
0010
0001
1000
0001
1000
0010
0100
0001
1000
0100
0010
,
0001
0100
0010
1000
0001
0100
0001
0100
0002
0000
0000
0003
0202
0000
0000
0303
,
0100
0001
1000
0001
1000
0100
0010
0001
2000
0000
0000
3000
2200
0000
0000
3300
,
0100
0000
0000
1000
0000
0000
0001
0000
0000
1000
0000
0000
0001
0000
0000
0100
0000
0000
0010
0000
0000
0100
0000
0000
0001
0000
0100
0000
0001
0000
0100
0000
0000
0000
0000
0000
0001
0000
1000
0000
0001
0000
1000
0000
0000
0000
0000
0000
,
0004
0000
0003
0100
0004
0000
0003
0100
0004
0000
0003
0000
1000
0000
1000
0000
,
0001
0100
0001
0100
0010
1000
0001
1000
0100
0010
0001
1000
0001
0000
0400
0300
,
0010
1000
0001
1000
0001
0010
0100
1000
0002
0003
2000
3000
0020
0030
0000
0000
,
0100
0010
0100
0001
4000
0000
0000
3000
0001
0100
0001
1000
0040
0000
0030
0000
,
0100
0010
0100
0001
1000
0001
1000
0100
0010
0001
1000
0001
1000
0000
0001
0000
,
0100
0001
0100
0010
1000
0001
1000
0100
0010
0001
1000
0001
4000
3000
0001
0100
,
0001
0100
0010
0100
0010
1000
0001
1000
0100
1000
0100
0010
0001
0000
0400
0300
,
0001
1000
0001
1000
0100
0010
0001
1000
0100
1000
0001
1000
0002
0000
0000
0003
,
4000
0000
3000
0100
4000
0000
3000
0100
4000
0000
3000
0000
0001
0000
0001
0000
,
0100
0001
1000
0001
1000
0100
0010
0001
1000
0001
1000
0010
0400
0300
0001
1000
,
0100
0010
0001
1000
0001
0100
0001
1000
0010
0100
0010
1000
0001
0000
0400
0300
,
0001
1000
0001
0010
0100
0010
0100
1000
0001
1000
0001
0100
0001
0100
0010
1000
,
0010
0100
0001
1000
0001
1000
0100
0010
0100
0010
0001
1000
0001
0000
0001
0000
,
1000
0100
1000
0001
0100
0001
1000
0010
0100
0001
0100
0010
1000
0100
1000
0010
,
0100
0001
1000
0001
1000
0100
0010
0001
1000
0001
0100
0001
4000
0000
0000
3000
,
0001
0100
0001
1000
0010
1000
0010
0100
0001
0100
0001
1000
0001
1000
0100
0010
,
0002
0000
0000
0000
1003
0000
0000
1000
0000
0000
1000
0000
0004
0000
0000
0003
,
2000
3100
0010
0100
1000
0001
0100
0010
,
0100
0001
1000
0100
0010
0100
1000
0001
,
1000
0001
0100
0010
0100
0001
0010
0100
,
1000
0001
1000
0100
0010
0001
1000
0010
,
0100
0001
1000
0001
,
1000
0000
0100
0000
0010
0000
0001
1000
,
0001
1000
0010
0100
,
0001
0100
0001
1000
0100
1000
0001
0001
,
1000
0100
1000
0001
0100
0001
1000
0010
1000
0001
0100
0001
1000
0000
0400
0300
,
0010
0001
0010
0001
1000
0100
0010
0001
1000
0001
1000
0001
0100
0000
0010
0000
,
1000
0010
1000
0001
0100
0001
1000
0001
1000
0010
0100
0001
1000
0001
4000
3000
,
0001
0000
0000
0010
0000
0000
0001
0000
0000
0010
0000
0000
0100
0000
0000
1000
0000
0000
0001
0000
0000
1000
0000
0000
0001
0000
0100
0000
0001
0000
0100
0000
0000
0000
0000
0000
0001
0000
1000
0000
0001
0000
1000
0000
0001
0000
1000
0000
,
0001
1000
0100
1000
0001
0100
0001
1000
0010
1000
0010
0100
0004
0003
1000
0100
,
1000
0001
0100
0001
0100
0010
1000
0001
1000
0100
0010
0001
4000
0000
0000
0000
,
3001
0100
0001
1000
0010
1000
0010
0100
0001
1000
0001
1000
0020
0000
0030
0000
,
4000
0004
0000
0000
0000
0000
0000
0000
0000
0000
0000
0000
0000
0000
0000
3003
0000
0000
0400
0000
0000
0000
0000
0000
,
0301
0100
0101
0001
1000
0100
1100
1000
,
0010
0000
0100
0000
0101
0000
0001
0000
1000
0000
0100
0000
1000
0001
0010
0100
,
1000
0001
0101
0100
0010
0100
1001
0004
,
1003
0000
0000
0000
0100
0000
0000
0000
1000
0000
0000
0000
0001
0000
0000
1000
,
0001
0100
0001
0000
1000
0000
0100
0000
1000
0000
0100
0000
0010
0000
0001
0000
,
1000
0000
0100
0000
0010
0000
0001
0000
1000
0000
0001
0000
1000
0000
1000
0001
,
0200
0000
0000
0000
0301
0000
0000
2002
3000
0000
1000
0000
0103
0000
0000
0000
,
0220
0000
0030
0000
0010
0000
0300
0202
0300
0000
0100
0000
1003
0000
0000
0000
,
0001
0100
0001
1000
0100
0010
0001
1000
0001
1000
0001
0100
0001
0000
0100
0000
,
0010
0100
0010
1000
0001
1000
0001
0010
0100
1000
0001
1000
0004
0000
0000
0003
,
1000
0100
1000
0000
0001
0100
0000
0001
1000
0100
1000
0000
0001
0000
0400
0000
,
0301
1000
0001
0010
0100
1000
0001
1000
0001
0100
0001
0000
0100
0000
0010
0000
,
1000
0100
1000
0001
0010
0100
1000
0001
1000
0001
0100
0001
0100
0010
0100
0000
,
0001
1000
0001
1000
0100
0010
0001
1000
0001
1000
0010
0100
0004
0000
0003
1000
,
0100
1000
0001
0100
0001
0100
0010
1000
0001
1000
0100
0010
0001
1000
0001
1000
,
0001
0100
0001
0000
1000
0100
1000
0000
0004
0000
0000
0000
0103
0000
0100
0000
,
0001
0100
0101
0001
1000
0100
1100
1000
,
0010
0000
0100
0000
0101
0000
0001
0000
0010
0000
0100
0000
1100
0000
1000
0001
,
0100
0010
0110
0100
0001
1000
1100
0100
,
0010
0000
0001
0000
0011
0000
0010
0000
0100
0000
1000
0000
0001
0100
0001
1000
,
0100
1000
1100
0100
0010
0001
1001
1000
,
0010
0100
0101
0001
1000
0100
0040
0000
,
0031
1000
0001
1000
0001
0100
0010
0100
0001
1000
0001
1000
0100
1000
0001
0100
,
0001
0100
0010
1000
0001
1000
0100
0010
0100
0010
0001
1000
0001
0000
0001
0000
,
1002
1003
0100
0010
0100
1000
0001
0100
,
0010
0100
0001
1000
0001
0010
0100
1000
,
0001
1000
0100
0010
0001
1000
0001
0100
,
0010
0000
0100
0000
0001
0000
1000
0000
0100
0000
0010
0000
0001
0000
0001
1000
,
0100
1000
0100
1000
0100
1000
0100
0010
,
0001
0010
0001
0010
0001
0010
0001
0010
,
0100
1000
0001
1000
0010
0100
0001
1000
,
0004
4000
0000
0000
0000
0000
0000
0000
0000
0000
0000
0000
0000
0000
0000
3003
,
2002
3003
0000
0000
,
MMMM
0000
0000
0000
;

//---------------dance-single - J. Nero----------------
#NOTES:
     dance-single:
     J. Nero:
     Medium:
     9:
     0.679,1.000,0.412,0.433,0.247,691.000,75.000,79.000,2.000,0.000:
0000
0000
0000
0000
,
0000
0000
0000
0000
,
0000
0000
0000
0000
,
0000
0000
0000
0000
,
0000
0000
0000
0000
,
0000
0000
0000
0000
,
0000
0000
0000
0000
,
0000
0000
0000
0000
,
2001
3001
0100
0001
0100
0001
0100
0001
,
1000
0100
1000
0100
1000
0100
1000
0100
,
0010
0001
0010
0001
0010
0001
0010
0001
,
0100
0001
0100
0001
0100
0001
0100
0001
,
1000
0100
0010
0001
1000
0100
0010
0001
,
1000
0001
0100
0010
1000
0001
0100
0010
,
1000
0001
0010
0100
1000
0001
0010
0100
,
4000
0004
0000
0000
0000
0000
0000
0000
0000
0000
0000
0000
0000
0000
3003
0000
,
1000
0000
0000
0000
0101
0000
0000
0000
0001
0000
0000
0000
1100
0000
1000
0100
,
0010
0000
0001
1000
0200
2300
3002
0003
,
1000
0100
0010
0001
0010
0000
0001
0000
1000
0000
0000
0000
0100
0000
4000
3000
,
0001
0100
0010
0100
0001
0000
1004
0003
,
1000
0000
0000
0000
1010
0000
0000
0000
0010
0000
0000
0000
0110
0000
0010
1000
,
0001
0000
0000
0000
1000
0000
0001
0000
0010
0000
0100
0000
1000
0000
0001
1000
,
0001
0000
0100
0001
1000
0000
1001
0000
,
0001
0100
0001
0000
1000
0001
0010
0001
4000
0000
3000
0000
0001
0000
0001
0000
,
0100
0000
0000
0000
0101
0000
0000
0000
0010
0000
0000
0000
1010
0000
1000
0010
,
0100
0000
0001
0000
0000
0000
0010
0000
0100
0000
1000
0000
0001
0000
0400
0300
,
0010
0000
0100
0001
1000
0000
0001
0100
,
0010
0000
1000
0000
0001
0000
0010
0000
0100
0000
0000
0000
4000
0000
0000
3000
,
0001
0000
0000
0000
0101
0000
0000
0000
0100
0000
0000
0000
0110
0000
0010
1000
,
0001
0000
0000
0000
1000
0000
0001
0000
0010
0000
0100
0000
0010
0000
0001
1000
,
0001
0000
1000
0001
0100
0000
0001
1000
,
0010
0000
0000
0000
0100
0000
0000
0100
0000
0000
0100
0000
0001
0000
0000
0000
,
2002
0000
3000
0000
1000
0003
0000
2200
0300
0000
0100
0000
3001
0000
0000
0000
,
0202
0000
0300
0000
0100
0003
0000
0220
0030
0000
0010
0000
0301
0000
0000
0000
,
2002
0000
3000
0000
1000
0000
0003
0202
0003
0000
0001
0000
0310
0000
0000
0000
,
2020
0000
3000
0000
0130
0000
0000
0220
0030
0000
0010
0000
0301
0000
0000
0000
,
2002
3003
2200
3300
0220
0330
0022
0033
,
2002
3003
2020
3030
0220
0330
0202
0303
,
2002
3003
2020
3030
0202
0303
0220
0330
,
4000
0004
0000
0000
0000
0000
0000
0000
0000
0000
0000
0000
0000
0000
3003
0000
,
1000
0100
0000
0100
0010
0000
0001
0000
0010
0100
0000
0100
1000
0001
1000
0000
,
0001
0100
0000
0001
1000
0100
1000
0000
0001
0100
0000
0100
0010
0000
4000
3000
,
0001
0010
0000
0010
0100
0000
1000
0100
1000
0001
0100
0001
1000
0000
0001
0100
,
0001
0100
0010
0000
1000
0001
1000
0001
1000
0001
0100
0001
0100
0000
0001
0000
,
1000
0100
0000
0100
1000
0000
0001
0000
0200
0000
0000
0300
0202
0000
0000
0303
,
0001
0010
0000
0010
0100
0000
1000
0001
2000
0000
0000
3000
2200
0000
0000
3300
,
0100
1000
0000
1000
0001
0000
0100
0001
0000
0100
0001
0000
1000
0001
1000
0000
,
0004
0000
0003
1000
0004
0000
0003
1000
0004
0000
0003
0000
1000
0000
1000
0000
,
0001
0000
0000
0000
0101
0000
0000
0000
0100
0000
0000
0000
0110
0000
0010
1000
,
0001
0000
0000
0000
1000
0000
0100
0000
2000
3000
0200
0300
0020
0030
0001
0000
,
0000
0000
0000
0000
0100
0001
0100
0000
0001
0000
0000
0000
4000
3000
0000
0001
,
0000
1000
0100
1000
0100
0000
1000
1000
,
0001
0000
0000
0000
0101
0000
0000
0000
0100
0000
0000
0000
0110
0000
0010
1000
,
0001
0000
0000
0000
1000
0000
0100
0000
0010
0000
0100
0000
1000
0000
0004
0003
,
0000
0000
0000
0000
1000
0000
0100
0000
1000
0000
0000
0000
0002
0000
0000
0003
,
4000
0000
3000
0001
4000
0000
3000
0001
4000
0000
3000
0000
0001
0000
0001
0000
,
0100
0000
0000
0000
0110
0000
0000
0000
0010
0000
0000
0000
1010
0000
1000
0010
,
0100
0000
0000
0000
0000
0000
0001
0000
0100
0000
0001
0000
1000
0000
0400
0300
,
0000
0000
0000
0000
1000
0000
0100
0000
1000
0000
0000
0000
0001
0000
0000
0100
,
0000
0001
0010
0001
1000
0000
0100
0100
,
1000
0000
0000
0000
1010
0000
0000
0000
0010
0000
0000
0000
0101
0000
0001
0100
,
0010
0000
0000
0000
0100
0000
0001
0000
0010
0000
0100
0000
4000
3000
0001
0000
,
0000
0000
0100
0001
1000
0000
0000
0000
,
0002
0000
0000
0000
1003
0000
0000
1000
0000
0000
1000
0000
0004
0000
0000
0003
,
2000
3100
1000
0100
1000
0100
1000
0100
,
0010
0001
0010
0001
0010
0001
0010
0001
,
1000
0100
1000
0100
1000
0100
1000
0100
,
1000
0001
1000
0001
1000
0001
1000
0001
,
0100
0001
1000
0001
,
1000
0000
0100
0000
0010
0000
0001
1000
,
0001
1000
0010
0100
,
0001
0100
0001
0100
0010
1000
0001
0001
,
2000
0000
0100
0000
3001
0000
2000
0000
0100
0000
3001
0000
0100
0010
0100
0000
,
0002
0100
1003
0002
0100
1003
0001
0001
,
2000
0000
0010
0000
3001
0000
2000
0000
0010
0000
3001
0000
1000
0000
0001
1000
,
0002
0000
0010
0000
1003
0000
0001
0000
0100
0001
0100
0000
0001
1000
0001
1000
,
0002
0000
0100
0000
1003
0000
0002
0000
0100
0000
1003
0000
0010
0100
0010
0000
,
2000
0100
3001
2000
0100
3001
4000
0000
,
3002
0010
1003
0002
0010
1003
1001
0000
,
0001
0100
0001
0100
0001
0100
0001
0100
0001
0100
0001
0100
0004
0000
0000
0000
,
1003
0100
1100
1000
0100
0010
0011
0001
,
1000
0000
0100
0000
1100
0000
1000
0000
0001
0000
0100
0000
0001
1000
0001
1000
,
0001
1000
1010
0010
1000
0001
0100
0004
,
1003
0000
0000
0000
0100
0000
0000
0000
1000
0000
0000
0000
0001
0000
0000
1000
,
0001
0100
0001
0010
0100
0010
0100
1000
,
0001
0000
1000
0000
0100
0000
1000
0000
0001
0000
0100
0000
0001
0000
1000
0001
,
2000
0000
0000
0000
3001
0000
0000
2002
3000
0000
1000
0000
0103
0000
0000
0000
,
0220
0000
0030
0000
0010
0000
0300
0202
0300
0000
0100
0000
1003
0000
0000
0000
,
0001
0000
0101
0000
0100
0000
0101
0101
,
0000
0001
0000
1000
0100
0000
4000
3001
,
0000
0000
0100
0001
1000
0000
0100
4000
,
3100
0010
0100
0010
0001
0000
1001
1000
,
0001
0000
0101
0000
0100
0000
1001
0001
,
0000
1000
0000
0100
1000
0000
0004
0103
,
0000
0000
0000
0000
0001
0000
0010
0000
0100
0000
0000
0000
1000
0000
0000
0001
,
0000
0100
0001
1000
0004
0003
0100
0100
,
0001
0100
0101
0001
1000
0100
1100
1000
,
0010
0100
0101
0001
0010
0100
1100
1000
,
0001
0100
0101
0001
1000
0010
0110
0100
,
0001
0000
1000
0000
1001
0000
0001
0000
1000
0000
0100
0000
1000
0100
1000
0100
,
1000
0001
0101
0100
0010
1000
1001
0001
,
0010
0100
1100
1000
0100
0010
0004
1003
,
0100
0000
1000
0001
0100
0000
0001
0100
,
0010
0100
0001
1000
0001
0000
1000
1000
,
0020
0130
0001
0100
0001
0100
0001
0100
,
0010
1000
0010
1000
0010
1000
0010
1000
,
0100
1000
0100
1000
0100
1000
0100
1000
,
0100
0010
0100
0010
0100
0010
0100
0010
,
0001
0100
0001
0100
0001
0100
0001
0100
,
0001
1000
0001
1000
0001
1000
0001
1000
,
0010
0100
0010
0100
0001
1000
0001
1000
,
0004
4000
0000
0000
0000
0000
0000
0000
0000
0000
0000
0000
0000
0000
0000
3003
,
2002
3003
0000
0000
,
0MM0
0000
0000
0000
;

//---------------dance-single - J. Nero----------------
#NOTES:
     dance-single:
     J. Nero:
     Easy:
     6:
     0.555,0.806,0.351,0.422,0.049,552.000,64.000,77.000,2.000,0.000:
0000
0000
0000
0000
,
0000
0000
0000
0000
,
0000
0000
0000
0000
,
0000
0000
0000
0000
,
0000
0000
0000
0000
,
0000
0000
0000
0000
,
0000
0000
0000
0000
,
0000
0000
0000
0000
,
2001
3001
0100
0001
0100
0001
0100
0001
,
1000
0100
1000
0100
1000
0100
1000
0100
,
0010
0001
0010
0001
0010
0001
0010
0001
,
1000
0001
1000
0001
1000
0001
1000
0001
,
1000
0100
0010
0001
1000
0100
0010
0001
,
1000
0001
0100
0010
1000
0001
0100
0010
,
1000
0001
0010
0100
1000
0001
0010
0100
,
4000
0004
0000
0000
0000
0000
0000
0000
0000
0000
0000
0000
0000
0000
3003
0000
,
1000
0000
1001
0000
0001
0000
1000
0100
,
0000
1000
0000
0001
0010
0100
1000
0001
,
0000
0000
0000
0100
0001
0000
0100
0001
,
1000
0100
1000
0001
0010
0000
0400
0300
,
1000
0000
1001
0000
0001
0000
1000
0001
,
0000
1000
0000
0001
0100
0000
0001
0100
,
0000
0000
0001
1000
0001
0000
1001
0000
,
1000
0100
0010
0001
0200
0000
0301
0000
,
1000
0000
1001
0000
0001
0000
0100
0001
,
0000
1000
0000
0001
0100
0001
0100
0020
,
0030
0000
1000
0001
1000
0000
0001
0100
,
0001
0100
0001
1000
0001
0000
0020
0000
,
0130
0000
1100
0000
1000
0000
0010
0100
,
0000
0001
0000
1000
0100
0000
1000
0001
,
0000
0000
0000
0100
0001
0000
0100
0001
,
1000
0000
0001
1000
0001
0000
1000
0000
,
2002
0000
3003
0000
0000
0000
0000
0202
0303
0000
0202
0000
0303
0000
0000
0000
,
2002
0000
3003
0000
0000
0000
0000
2200
3300
0000
2200
3300
0000
0000
0000
0000
,
2002
0000
3003
0000
0000
0000
0000
0220
0330
0000
0220
0000
0330
0000
0000
0000
,
2002
0000
3003
0000
0000
0000
0000
0022
0033
0000
0022
0033
0000
0000
0000
0000
,
0002
0003
0020
0030
0200
0300
2000
3000
,
0002
0003
0200
0300
0020
0030
0200
0300
,
0002
0003
2000
3000
0200
0300
2000
3000
,
2002
3003
0202
0303
0220
0330
2002
3003
,
1000
0001
1000
0000
0001
0100
0010
0100
,
0001
0000
1000
0000
0001
0000
0000
0000
0010
0100
0000
0100
1000
0000
0001
0000
,
0100
0001
0100
0010
1000
0001
1000
0100
,
0010
0100
0010
0001
1000
0001
1000
0000
,
0001
0000
0100
0000
0001
0000
0100
0000
0002
0000
0003
0000
0202
0000
0000
0303
,
0001
0000
0010
0000
0100
0000
1000
0000
0200
0000
0000
0300
2200
0000
0000
3300
,
0100
0000
1000
0000
0001
0000
0100
0000
0004
0003
0000
0000
4000
3000
0000
0000
,
0004
0000
0003
1000
0004
0000
0003
1000
0004
0000
0003
0000
1000
0000
0001
0000
,
1000
0000
1001
0000
0001
0000
0100
0001
,
0000
0100
0000
0001
0010
0000
0100
1000
,
0000
0000
0001
0100
0001
0000
0000
0100
,
0001
1000
0100
1000
0200
0300
0010
0001
,
0010
0000
0011
0000
0001
0000
0100
0010
,
0000
0000
1000
0000
0000
0000
0001
0000
1000
0000
0001
0000
1000
0000
0004
0003
,
0000
0000
0000
0000
1000
0000
0100
0000
1000
0000
0000
0000
0002
0000
0000
0003
,
4000
0000
3000
0001
4000
0000
3000
0001
4000
0000
3000
0000
0001
0000
1000
0000
,
0001
0000
0101
0000
0100
0000
0001
1000
,
0000
0000
0100
0000
0000
0000
1000
0000
0100
0000
0010
0000
0001
0000
0400
0300
,
0000
0000
0001
0100
0010
0000
0000
0100
,
0001
0100
0001
1000
0100
0000
1000
0001
,
1000
0000
1001
0000
0001
0000
0100
0001
,
0000
0000
0100
0000
0000
0000
0001
0000
1000
0000
0001
0000
4000
3000
0100
0000
,
0000
0000
1000
0001
1000
0000
0000
0001
,
0000
0100
0001
0010
0100
1000
0002
0000
,
2003
3000
0100
0000
1000
0000
0100
0000
1000
0000
0100
0000
1000
0000
0100
0000
,
0010
0001
0010
0001
0010
0001
0010
0001
,
1000
0100
1000
0100
1000
0100
1000
0100
,
1000
0001
1000
0001
1000
0001
1000
0001
,
0100
0001
1000
0001
,
1000
0000
0100
0000
0010
0000
0001
1000
,
0001
1000
0010
0100
,
0001
1000
0001
1000
0001
1000
0001
0010
,
0001
0100
0010
0100
0001
0100
0010
0100
,
0001
1000
0001
0100
0001
1000
0001
0100
,
0001
1000
0100
1000
0001
1000
0100
1000
,
0001
0100
0010
0100
0001
0100
0010
0100
,
0001
0010
0100
0010
0001
0010
0100
0010
,
0001
1000
0001
0100
0001
1000
0002
0000
,
1003
0100
1000
0001
1000
0100
2000
0000
,
3004
0000
0000
2003
,
3001
0101
0000
1001
,
0000
1100
0000
1001
,
0000
0101
0000
0110
,
1001
1001
1001
1001
,
0001
0100
0001
0100
0001
0100
0001
0100
,
0001
1000
0100
1000
0100
1000
0100
1000
,
2002
0000
3003
0000
0000
0000
0000
0202
0303
0000
0202
0000
0303
0000
0000
0000
,
2002
0000
3003
0000
0000
0000
0000
2200
3300
0000
2200
0000
3300
0000
0000
0000
,
1000
0000
1001
0000
0001
0000
0100
0001
,
0000
0100
0000
0001
0010
0100
4000
3001
,
0000
0000
1000
0100
1000
0000
0000
0200
,
1300
0001
1000
0001
0200
0300
0001
1000
,
0001
0000
1001
0000
1000
0000
0010
0100
,
0000
0010
0000
0100
0001
0100
0004
0103
,
0000
0000
0001
1000
0100
0000
0000
1000
,
0100
0010
0100
0010
0004
0003
0100
0001
,
0100
0101
0000
1001
,
0000
1100
0000
1001
,
0000
0110
0000
1001
,
0000
0101
0000
1001
,
0000
1001
0000
0110
,
0000
0101
0000
0002
,
0003
1001
0000
1100
,
0000
0000
1001
0000
0000
0000
0001
1000
,
0001
0100
0001
0100
0001
0100
0001
0100
,
0010
1000
0010
1000
0010
1000
0010
1000
,
0001
1000
0001
1000
0001
1000
0001
1000
,
0100
1000
0100
1000
0100
1000
0100
1000
,
0010
0100
0010
0100
0010
0100
0010
0100
,
0001
1000
0001
1000
0001
1000
0001
1000
,
0010
0100
0010
0100
0001
1000
0001
1000
,
0004
0000
0000
0000
0000
0000
0000
0000
0000
0000
0000
0000
0000
0000
0000
0003
,
2000
3000
0000
0000
,
0MM0
0000
0000
0000
;

//---------------dance-single - J. Nero----------------
#NOTES:
     dance-single:
     J. Nero:
     Beginner:
     3:
     0.319,0.527,0.148,0.307,0.000,324.000,27.000,56.000,1.000,0.000:
0000
0000
0000
0000
,
0000
0000
0000
0000
,
0000
0000
0000
0000
,
0000
0000
0000
0000
,
0000
0000
0000
0000
,
0000
0000
0000
0000
,
0000
0000
0000
0000
,
0000
0000
0000
0000
,
2000
3000
0001
0000
0100
0000
0001
0000
,
1000
0100
1000
0100
,
1000
0001
1000
0001
,
0100
0100
0100
0100
,
0001
1000
0001
1000
,
0001
0100
0001
0100
,
0001
1000
0001
1000
,
0002
0000
0000
0000
,
1003
0001
1000
0010
,
0100
0000
0001
0001
,
1000
0000
0001
0000
,
0100
0001
0100
0002
,
1003
0100
1000
0001
,
1000
0000
0001
0001
,
0100
0000
0010
0000
,
0100
0010
0100
0010
,
1000
0001
1000
0001
,
1000
0000
0001
0001
,
1000
0000
0010
0000
,
0100
0001
1000
0002
,
1003
0001
0100
0001
,
0100
0000
0001
0001
,
0100
0000
0010
0000
,
1000
0001
1000
0001
,
2002
3003
0000
0000
0000
0000
0000
0000
,
2002
3003
0000
0000
0000
0000
0000
0000
,
2002
3003
0000
0000
0000
0000
0000
0000
,
2002
3003
0000
0000
0000
0000
0000
0000
,
0002
0003
0200
0300
0002
0003
0200
0300
,
0002
0003
2000
3000
0002
0003
2000
3000
,
0200
0300
2000
3000
0200
0300
2000
3000
,
0002
0003
0200
0300
0002
0003
2000
3000
,
0001
0000
0100
0000
0001
0100
0001
0000
,
1000
0000
0100
0000
1000
0100
1000
0000
,
0001
0100
0001
1000
,
0001
1000
0010
0100
,
0001
0000
0001
0000
0002
0003
2000
3000
,
0001
0000
0000
0000
0001
0000
0000
0000
0002
0000
0003
0000
2000
0000
0000
3000
,
0001
0100
0001
1000
,
0200
0300
0200
0300
0200
0300
1000
0100
,
1000
0001
1000
0001
,
0100
0000
0001
0001
,
1000
0000
0100
0000
,
1000
0001
1000
0001
,
0100
0001
0100
0001
,
1000
0000
0001
0001
,
0100
0000
0010
1000
,
0002
0000
0000
0003
0000
0000
0001
0100
,
0001
0100
0001
1000
,
0100
0000
1000
1000
,
0001
0000
0100
0000
,
0001
0000
1000
0000
0001
0000
1000
0001
,
1000
0010
0100
0010
,
0100
0000
0001
0001
,
1000
0000
0010
0000
,
0100
0001
1000
0002
,
2003
3000
0000
0000
0100
0000
0000
0000
1000
0000
0000
0000
0100
0000
0000
0000
,
1000
0001
1000
0001
,
0100
0001
0100
0001
,
0010
0001
0010
0001
,
1000
0001
1000
0001
,
1000
0100
1000
0100
,
1000
0001
1000
0001
,
1000
1000
1000
1000
,
0001
0100
0001
0100
,
0001
1000
0001
1000
,
0001
0100
0001
0100
,
0001
0000
1000
0000
0002
0003
0002
0003
,
1000
0100
1000
0100
,
1000
0001
1000
0002
,
0103
0000
0001
0000
0100
0000
0002
0003
,
4000
0000
0000
3002
,
0003
1001
0000
1001
,
0000
0110
0000
0110
,
0000
1001
0000
1001
,
1000
1000
1000
1000
,
0001
0001
0100
0100
,
0001
0001
1000
1000
,
2002
3003
0000
0000
0000
0000
0000
0000
,
2002
3003
0000
0000
0000
0000
0000
0000
,
1000
0001
0100
0001
,
1000
0000
0001
0001
,
1000
0000
0001
0000
,
0100
0001
1000
0001
,
1000
0100
1000
0001
,
1000
0000
0010
0010
,
1000
0000
0001
0000
,
1000
0000
0001
0000
1000
0000
0001
1000
,
0001
1001
0000
1001
,
0000
0110
0000
0110
,
0000
1001
0000
1001
,
0000
0101
0000
0101
,
0000
1010
0000
1010
,
0000
1001
0000
0002
,
0003
1001
0000
0110
,
0000
0000
1001
0000
0000
0000
0001
1000
,
0002
0000
0000
0000
,
2003
0000
0000
0000
,
3200
0000
0000
0000
,
0320
0000
0000
0000
,
0032
0000
0000
0000
,
2003
0000
0000
0000
,
3020
0000
0000
0000
,
0230
0000
0000
0000
,
0301
0000
0000
0000
,
M000
0000
0000
0000
;
