#TITLE:The Fate of;
#SUBTITLE:;
#ARTIST:Saitama Saishuu Heiki;
#TITLETRANSLIT:;
#SUBTITLETRANSLIT:;
#ARTISTTRANSLIT:;
#CREDIT:;
#BANNER:fateofbn.png;
#BACKGROUND:fateofbg.png;
#LYRICSPATH:;
#CDTITLE:!TEEXcdtitle.png;
#MUSIC:11 The Fate of.ogg;
#OFFSET:-0.266;
#SAMPLESTART:87.141;
#SAMPLELENGTH:12.000;
#SELECTABLE:YES;
#BPMS:0.000=154.015;
#STOPS:;
#BGCHANGES:;
// cache tags:
#FIRSTBEAT:0.000;
#LASTBEAT:388.000;
#SONGFILENAME:Songs/SSSC PACK/[TEEX] - The Fate of/The Fate of.sm;
#HASMUSIC:1;
#HASBANNER:1;
#MUSICLENGTH:158.631;
// end cache tags

//---------------dance-single - ----------------
#NOTES:
     dance-single:
     :
     Challenge:
     13:
     1.000,1.000,0.485,1.000,1.000,873.000,77.000,316.000,8.000,5.000:

2000
0000
0000
0000
0000
0000
0000
0000
0000
0000
0000
0000
0000
0000
0000
0000
0000
0000
0000
0000
0000
0000
0000
0000
0000
0000
0000
0000
0000
0000
0000
3000
,
2000
0000
0000
3002
0000
0000
0023
0000
,
0032
0000
0000
0000
,
0203
0000
0000
0302
0000
0000
0023
0000
,
0032
0000
0000
0000
,
2003
0000
0000
3200
0000
0000
2300
0000
,
3002
0000
0000
0000
,
2000
0000
0000
0000
0000
0000
0003
3000
,
0010
0000
2002
3003
0010
0100
0010
0M00
0010
0000
1000
0001
0000
0100
0001
0000
,
0010
0000
1001
0000
0001
0010
0100
0000
1000
0001
1000
0100
0000
1000
0001
0000
,
0010
0000
1001
0000
1000
0100
1000
0000
0001
0000
1000
0100
0000
0010
0100
0000
,
1000
0000
0101
0000
0001
1000
0100
0010
0100
0010
0001
1000
0100
1000
0001
1000
,
2002
3003
0000
0000
0202
0303
0000
0000
0001
0000
1000
0000
0001
0000
0000
0000
0010
0000
0000
0000
0001
0000
1000
0000
0000
0000
0100
0000
0010
0000
0000
0000
,
0001
0000
0011
0000
1000
0100
1000
0000
0100
0010
0001
0010
0000
0100
1000
0000
,
0001
0000
1001
0000
1000
0010
0100
0000
0001
0000
1000
0100
0000
0010
0100
0000
,
1000
0000
0001
0100
0010
1000
0010
0100
0001
1000
2002
3003
2002
3003
0001
0100
,
2020
3030
2020
3030
0001
0100
0001
0000
1000
0000
0100
0010
0000
0001
1000
0000
,
0100
0000
0110
0000
0010
0100
0010
0000
0001
1000
0100
1000
0000
0001
0010
0000
,
0100
0000
1001
0000
1000
0100
0010
0000
0001
0000
0010
0100
0000
0010
0100
0000
,
1000
0000
1001
0000
0001
0000
1000
0010
0100
0010
1000
0001
0100
0001
1000
0001
,
2002
3003
2002
3003
1000
0010
0100
0000
0001
0000
1000
0010
0000
0100
0010
0000
,
1000
0000
1001
0000
0001
0010
0001
0000
1000
0100
0010
0001
0000
0010
0100
0000
,
1000
0000
1001
0000
0010
0100
0010
0000
1000
0000
0100
0010
0000
0010
0001
0000
,
1000
0100
2002
3003
1000
0100
2002
3003
0022
0033
0001
0100
0001
0100
0001
0100
,
2002
3003
0000
0000
0020
0000
0000
0000
1030
0000
0100
0000
1000
0000
0100
0000
2000
0000
0000
0000
0001
0000
0000
0000
0000
0000
0000
0000
3001
0000
0000
0000
,
M200
0000
0001
0000
0000
0000
0301
0000
0000
0010
0100
0000
1000
0000
0011
0000
,
0100
0000
1001
0000
0100
1000
0100
1000
0100
0000
1000
0002
0000
0103
0002
0000
,
2003
0000
3001
2000
0000
3100
0010
0000
0022
0000
0033
0022
0000
0033
0001
0100
,
2020
3030
0001
1000
0001
1000
0001
1000
0200
0000
0320
0000
0030
0001
2000
0000
,
3020
0000
0130
0020
0000
1030
0002
0000
0013
0000
0001
2000
0000
3010
2000
0000
,
3001
1000
0010
0100
0010
0100
0001
1000
0010
0100
0020
0000
1030
0001
0100
0000
,
2002
0000
3003
2002
0000
3003
0001
0100
2002
0000
3003
2002
0000
3003
1000
0010
,
0220
0330
0100
0001
0100
0001
0100
0001
2000
0000
3200
0000
0000
1300
0002
0000
,
0103
0000
0110
0000
0010
1000
0010
2000
0000
3100
0020
0000
0230
0000
2300
0000
,
3000
0001
1000
0010
0100
0010
1000
0001
2000
0000
3002
0000
0000
1003
0020
0000
,
0230
0000
0302
0000
0000
1003
0100
0010
0022
0000
0033
0022
0000
0033
0001
1000
,
2200
3300
1000
0010
1000
0010
1000
0010
2000
0000
3002
0000
0003
1000
0010
0000
,
0100
0000
0110
0000
0100
0010
0100
0010
2000
0000
3002
0000
0000
1003
0200
0000
,
0320
0000
0000
0000
0000
0000
0000
0000
0000
0000
0000
0000
0000
0000
0000
0000
0000
0000
0000
0000
0000
0000
0000
0000
0230
0000
0000
0000
0000
0000
0000
0000
0000
0000
0000
0000
0000
0000
0000
0000
0000
0000
0000
0000
0000
0000
0000
0000
1300
0000
0000
0000
0000
0000
0000
0000
0000
0000
0000
0000
0001
0000
0000
0000
0000
0000
0000
0000
0000
0000
0000
0000
1000
0000
0000
0000
0000
0000
0000
0000
0000
0000
0000
0000
0001
0000
0000
0000
0000
0000
0000
0000
0000
0000
0000
0000
1000
0000
0000
0000
0000
0000
0000
0000
0000
0000
0000
0000
0000
0000
0000
0000
0000
0000
0000
0000
0000
0000
0000
0000
2002
0000
0000
0000
0000
0000
3003
0000
0000
0000
0000
0000
0000
0000
0000
0000
0000
0000
0000
0000
0000
0000
0000
0000
0001
0000
0000
0000
0000
0000
0000
0000
0100
0000
0000
0000
0000
0000
0000
0000
0010
0000
0000
0000
0000
0000
0000
0000
1000
0000
0000
0000
0000
0000
0000
0000
0000
0000
0000
0000
0001
0000
0000
0000
0000
0000
0000
0000
0000
0000
0000
0000
,
2002
0000
3003
2002
0000
3003
1000
0010
2020
0000
3030
2020
0000
3030
0100
0001
,
2000
0000
0000
3200
0000
0000
0320
0000
0000
0000
0000
0000
0230
0000
1300
0002
,
0000
0000
0000
0000
0000
0000
2003
3200
,
0320
0000
0000
0230
0000
0000
2300
0000
0000
0000
3002
0000
0203
0000
0302
0000
,
2003
0000
3200
0000
,
2302
3000
0000
0000
0000
0000
0023
0000
0000
0000
0000
0000
0032
0000
0000
0000
0000
0000
0000
0000
0000
0000
0000
0000
2003
0000
0000
0000
3020
0000
0000
0000
,
2030
0000
0000
0000
0000
0000
3002
0023
,
0032
0000
0000
2003
0000
0000
3200
0000
,
0000
0000
0000
0000
0000
0000
0000
0000
0000
0000
0000
0000
0310
0000
0001
0000
1000
0000
0000
0000
2002
3003
0000
0000
2002
3003
0000
0000
0022
0033
0000
0000
,
0200
0000
2301
0000
0000
0000
0000
0000
3002
0000
0000
0023
0000
0000
0230
0000
,
0320
0000
0000
0000
0000
0000
0000
0000
0032
0000
0000
0000
1003
0010
1000
0001
,
0200
0000
0302
0000
,
2003
0000
0000
0000
0000
0000
3020
0000
0000
0000
0000
0000
0230
0000
0000
0000
0000
0000
0000
0000
2302
3003
0000
0000
0000
0000
0000
0000
0001
0000
0100
0000
,
0010
0000
0000
0000
0000
0000
2002
3003
0000
0000
0000
0000
0102
0000
0000
0000
0000
0000
0000
0000
1003
0000
0000
0000
0001
0000
0000
0000
1000
0000
0010
0000
,
2020
3030
0000
0000
0000
0000
0220
0330
0000
0000
0000
0000
0102
0000
0000
0000
0000
0000
0000
0000
0103
0000
0000
0000
0001
0000
0000
0000
1000
0000
0001
0000
,
2001
0000
0000
0000
0001
0000
0000
0000
0001
0000
0000
0000
3020
0030
0200
0300
,
2002
0000
0000
3003
0000
0000
0000
0000
0000
0202
0000
0000
0303
0000
0000
0000
0000
0000
2020
0000
0000
3030
0000
0000
0000
0000
0000
2200
0000
0000
3300
0000
0000
0000
0000
0000
0001
0000
0010
0000
0100
0000
1000
0000
0001
0000
0010
0000
,
0200
0000
0000
0320
0000
0000
2030
0000
0000
0000
3020
0000
0032
0000
0203
0000
,
0320
0000
0000
0032
0000
0000
0023
0000
0000
0000
2030
0000
3002
0000
0203
0000
,
2300
0000
0000
3200
0000
0000
0302
0000
0000
0000
2003
0000
3020
0000
0230
0000
,
0320
0000
0000
0000
0000
0000
0000
0000
0000
0000
0000
0000
0000
0000
0000
0000
2030
0000
0000
0000
3202
0303
0000
0000
0202
0303
0000
0000
0202
0303
0000
0000
,
2000
0000
0000
3200
0000
0000
0302
0000
0000
0000
2003
0000
3020
0000
0032
0000
,
2003
0000
0000
3020
0000
0000
0032
0000
0000
0000
0023
0000
0230
0000
2300
0000
,
3002
0000
0000
0023
0000
0000
2030
0000
0000
0000
3002
0000
0023
0000
0032
0000
,
1003
0010
0100
0010
1000
0001
1000
0100
2002
0000
3003
0202
0303
0010
1000
0001
,
2000
0000
0000
3200
0000
0000
0320
0000
0000
0000
0230
0000
0302
0000
2003
0000
,
3020
0000
0000
0032
0000
0000
0203
0000
0000
0000
0320
0000
0230
0000
2300
0000
,
3002
0000
0000
0023
0000
0000
2030
0000
0000
0000
3002
0000
0023
0000
0032
0000
,
2003
0000
0000
0000
0000
0000
0000
0000
0000
0000
0000
0000
0000
0000
0000
0000
0000
0000
0000
0000
0000
0000
0000
0000
0000
0000
0000
0000
0000
0000
0000
0000
0000
0000
0000
0000
0000
0000
0000
0000
0000
0000
0000
0000
0000
0000
0000
0000
0000
0000
0000
0000
0000
0000
0000
0000
0000
0000
0000
0000
0000
0000
0000
0000
0000
0000
0000
0000
0000
0000
0000
0000
3001
0000
0000
0000
0000
0000
0000
0000
0000
0000
0000
0000
0100
0000
0000
0000
0000
0000
0000
0000
0000
0000
0000
0000
0010
0000
0000
0000
0000
0000
0000
0000
0000
0000
0000
0000
0000
0000
0000
0000
0000
0000
0000
0000
0000
0000
0000
0000
2002
0000
0000
0000
0000
0000
3003
0000
0000
0000
0000
0000
0000
0000
0000
0000
0000
0000
0000
0000
0000
0000
0000
0000
M00M
0000
0000
0000
0000
0000
0000
0000
0000
0000
0000
0000
0000
0000
0000
0000
0000
0000
0000
0000
0000
0000
0000
0000
0001
0000
0000
0000
0000
0000
0000
0000
1000
0000
0000
0000
0000
0000
0000
0000
0001
0000
0000
0000
0000
0000
0000
0000
,
2000
0000
0000
3020
0000
0000
0032
0000
0000
0000
2003
0000
3200
0000
0302
0000
,
0023
0000
0000
2030
0000
0000
3020
0000
0000
0000
0032
0000
0203
0000
0320
0000
,
2030
0000
0000
0000
0000
0000
3100
0000
0000
0020
0000
0000
0000
0000
0000
0000
0030
0000
0020
0000
0000
0000
0000
0000
0030
0000
0000
0000
0000
0000
0021
0000
0000
0000
0000
0000
2031
0000
0000
0000
0000
0000
3200
0000
0000
0000
0000
0000
,
2300
0000
0000
3002
0000
0000
0103
0000
2020
3030
0000
0220
0330
0000
0202
0303
,
1000
0000
0001
0000
1000
0010
0100
0000
0001
0000
1000
0000
0001
0100
0010
0000
,
1000
0000
0001
0000
1000
0100
0010
0001
1000
0001
0010
0001
1000
0100
0010
0100
,
1000
0000
0001
0000
1000
0010
0100
0000
0001
0000
1000
0010
0000
0100
0001
0000
,
0100
0000
0000
0000
0010
0000
0000
0000
1000
0000
0001
0000
1000
0000
0000
0000
0001
0000
0100
0000
2002
3003
0000
0000
M00M
0000
0000
0000
2002
3003
0000
0000
,
1000
0000
0001
0100
0010
1000
0001
0010
0100
1000
0001
0100
0010
1000
0001
0010
,
0100
1000
0001
0100
0010
0100
0001
1000
0010
0100
0010
1000
0001
1000
0100
1000
,
0001
0100
0001
1000
0010
0100
0010
1000
0001
0010
0001
1000
0100
0010
0100
1000
,
0001
0000
0000
0000
0000
0000
0000
0000
0000
0000
0000
0000
0100
0000
0000
0000
0000
0000
0000
0000
0000
0000
0000
0000
0202
0000
0000
0000
0000
0000
0303
0000
0000
0000
0000
0000
0000
0000
0000
0000
0000
0000
0000
0000
0000
0000
0000
0000
0M0M
0000
0000
0000
0000
0000
0000
0000
0000
0000
0000
0000
0000
0000
0000
0000
0000
0000
0000
0000
0000
0000
0000
0000
0202
0000
0000
0000
0000
0000
0303
0000
0000
0000
0000
0000
0000
0000
0000
0000
0000
0000
0000
0000
0000
0000
0000
0000
0001
0000
0000
0000
0000
0000
0000
0000
0100
0000
0000
0000
0000
0000
0000
0000
0010
0000
0000
0000
0000
0000
0000
0000
1000
0000
0000
0000
0000
0000
0000
0000
0000
0000
0000
0000
0010
0000
0000
0000
0000
0000
0000
0000
0000
0000
0000
0000
0100
0000
0000
0000
0000
0000
0000
0000
0000
0000
0000
0000
0001
0000
0000
0000
0000
0000
0000
0000
0000
0000
0000
0000
1000
0000
0000
0000
0000
0000
0000
0000
0000
0000
0000
0000
0010
0000
0000
0000
0000
0000
0000
0000
0000
0000
0000
0000
,
2000
0000
0010
0000
3010
0100
0010
0100
0010
0000
1000
0000
0000
0001
1000
0010
,
0100
0001
1000
0010
0100
0010
1000
0001
0010
0001
1000
0010
0100
0010
1000
0001
,
0010
0001
1000
0002
0000
0103
0002
0000
1003
0002
0000
1003
0200
1300
0001
0010
,
0100
1000
0010
0100
0001
1000
0100
1000
0001
0100
0010
0100
0001
1000
0100
0010
,
0001
1000
0010
1000
0100
0010
0001
1000
0100
1000
0001
0010
0100
0010
0001
1000
,
0010
0000
0000
0100
0000
0000
0010
0000
0000
1000
0000
0000
0001
0000
1000
0000
0100
0000
1000
0000
0100
0000
1000
0000
0001
0000
0010
0000
0100
0000
0010
0000
0100
0000
0010
0000
0001
0000
1000
0000
0100
0000
1000
0000
0100
0000
1000
0000
,
0002
0000
1003
0100
0010
0001
1000
0010
0100
0010
1000
0001
0010
0100
0010
0001
,
0020
0000
0000
0000
0000
0000
0031
1000
2002
0000
3003
2020
0000
3030
0220
0330
,
0001
2000
0000
3100
2000
0000
3001
2000
0000
3100
2000
0000
3001
1000
0010
0100
,
0002
0000
1003
0200
0000
0310
0200
0000
1300
0200
0000
0310
0001
0100
0001
1000
,
0100
2000
0000
3001
2000
0000
3100
2000
0000
3001
2000
0000
3001
0010
0100
1000
,
0002
0003
0010
0100
1000
0001
0020
0030
0001
1000
0010
1000
0002
0003
1000
0010
,
0100
0000
0000
0010
0000
0000
2000
0000
0000
3002
0000
0000
0003
0000
0000
2000
0000
0000
3002
0000
0000
0003
0000
0000
0000
0000
0000
0002
0000
0000
0003
0000
0000
0000
0000
0000
1000
0000
0010
0000
1000
0000
0001
0000
0100
0000
0001
0000
,
1000
0000
0000
0000
0000
0000
0000
0000
0000
0000
0000
0000
0001
0000
0000
0000
0000
0000
0000
0000
0000
0000
0000
0000
0100
0000
0000
0000
0000
0000
0000
0000
0000
0000
0000
0000
0020
0000
0000
0000
0000
0000
0000
0000
0000
0000
0000
0000
0030
0000
0000
0000
0000
0000
0000
0000
0000
0000
0000
0000
2000
0000
0000
0000
0000
0000
0000
0000
0000
0000
0000
0000
3020
0000
0000
0000
0000
0000
0000
0000
0000
0000
0000
0000
0030
0000
0000
0000
0000
0000
0000
0000
0000
0000
0000
0000
0000
0000
0000
0000
0000
0000
0000
0000
0000
0000
0000
0000
0020
0000
0000
0000
0000
0000
0030
0000
0000
0000
0000
0000
0000
0000
0000
0000
0000
0000
0000
0000
0000
0000
0000
0000
0000
0000
0000
0000
0000
0000
0000
0000
0000
0000
0000
0000
0100
0000
0000
0000
0000
0000
0000
0000
0001
0000
0000
0000
0000
0000
0000
0000
0100
0000
0000
0000
0000
0000
0000
0000
0010
0000
0000
0000
0000
0000
0000
0000
1000
0000
0000
0000
0000
0000
0000
0000
0010
0000
0000
0000
0000
0000
0000
0000
,
0100
0000
0000
0001
0000
0000
1000
0000
0000
0001
0000
0000
0100
0000
0000
0010
0000
0000
1000
0000
0010
0000
0100
0000
0010
0000
1000
0000
0001
0000
0100
0000
0010
0000
0100
0000
0001
0000
1000
0000
0010
0000
0100
0000
0010
0000
1000
0000
,
0002
0000
0000
0000
0000
0000
1003
0000
0000
0100
0000
0000
0010
0000
0000
0100
0000
0000
1000
0000
0000
0001
0000
0000
1000
0000
0001
0000
0100
0000
0001
0000
0100
0000
0001
0000
1000
0000
0010
0000
0100
0000
0010
0000
1000
0000
0002
0000
,
0200
0000
0000
0000
0000
0000
0000
0003
,
0300
0000
0000
0000
;
