#TITLE:V;
#SUBTITLE:;
#ARTIST:TAKA;
#TITLETRANSLIT:;
#SUBTITLETRANSLIT:;
#ARTISTTRANSLIT:;
#CREDIT:;
#BANNER:v.png;
#BACKGROUND:v-bg.png;
#LYRICSPATH:;
#CDTITLE:;
#MUSIC:V.mp3;
#OFFSET:0.000;
#SAMPLESTART:40.038;
#SAMPLELENGTH:12.000;
#SELECTABLE:YES;
#DISPLAYBPM:150.000;
#BPMS:0.000=150.000,301.000=75.000;
#STOPS:;
#BGCHANGES:;
// cache tags:
#FIRSTBEAT:5.000;
#LASTBEAT:305.000;
#SONGFILENAME:Songs/IzzySM Keyboard Mega Pack/V Another/V.sm;
#HASMUSIC:1;
#HASBANNER:1;
#MUSICLENGTH:128.534;
// end cache tags

//---------------dance-single - v----------------
#NOTES:
     dance-single:
     v:
     Hard:
     15:
     1.000,1.000,1.000,0.070,1.000,916.000,314.000,9.000,0.000,0.000:
0000
0000
0000
0000
,
0000
0000
0000
0000
2100
0010
3001
0000
1000
0010
0001
0000
1000
0010
0001
0000
,
1000
0010
0001
0000
0100
0010
0001
0000
0100
0010
0001
0000
0100
0010
0001
0000
,
0100
0010
0001
0000
0012
0100
1003
0000
0001
0100
1000
0000
0001
0100
1000
0000
,
0001
0100
1000
0000
0001
0010
1000
0000
0001
0010
1000
0000
0001
0010
1000
0000
,
0001
0010
1000
0000
2100
0010
3001
0000
0100
0010
0001
0000
0100
0010
0001
0000
,
0100
0010
0001
0000
0011
0100
1000
0000
0010
0100
1000
0000
0010
0100
1000
0000
,
0010
0100
1000
0000
0110
1000
0001
0000
1000
0100
0010
0000
0100
0010
0001
0000
,
0001
0010
0100
0000
0010
0100
1000
0000
1000
0100
0010
0000
0100
0010
0001
0000
,
0001
0010
0100
0000
1002
0100
0013
0000
1000
0100
0010
0000
1000
0100
0010
0000
,
1000
0100
0010
0000
0100
0010
0001
0000
0100
0010
0001
0000
0100
0010
0001
0000
,
0100
0010
0001
0000
1002
0010
1003
0000
0001
0010
1000
0000
0001
0010
1000
0000
,
0001
0010
1000
0000
0010
0100
1000
0000
0010
0100
1000
0000
0010
0100
1000
0000
,
0010
0100
1000
0000
1001
0010
0100
0000
0100
0010
0100
0000
0010
0100
0010
0000
,
0100
0010
0100
0000
1001
0100
0001
0000
1000
0010
1000
0000
0001
0100
0001
0000
,
1000
0010
1000
0000
1001
0100
0010
0000
0100
0010
0100
0000
1001
0010
0100
0000
,
0010
0100
0010
0000
1001
0010
0001
0010
1001
0010
0001
0010
1001
0010
0001
0010
,
1001
0010
0001
0010
1000
0100
0010
0100
0001
0010
1000
0010
0100
1000
0100
0010
,
0001
1000
0100
0001
1000
0100
0001
1000
0001
0100
0001
1000
0010
0100
1000
0100
,
0001
1000
0010
1000
0001
0100
1000
0100
0010
0001
0100
1000
0010
0100
0001
0100
,
0010
1000
0001
0010
1000
0000
0100
0000
1010
0000
0100
0000
1001
0000
0100
0000
,
0011
0000
0100
0000
1001
0000
0010
0000
1100
0000
0010
0000
0101
0000
0000
0100
,
0110
0000
1010
0000
0001
0010
0100
0010
1000
0100
0010
0001
0100
1000
0010
0100
,
0001
0010
1000
0010
0100
0001
0010
1000
0100
1000
0010
1000
0100
0010
0001
0100
,
1000
0010
0100
1000
0001
0010
0001
0100
1000
0001
0100
0010
1000
0100
0010
0001
,
0100
0010
0100
1000
0001
0000
0010
0000
0101
0000
0010
0000
1100
0000
0010
0000
,
1001
0000
0100
0000
1010
0000
0100
0000
0011
0000
0100
0000
1001
0000
0000
0100
,
0110
0000
0011
0000
1000
0010
0100
0001
0010
0100
1000
0010
0100
0001
1000
0010
,
0100
0010
1000
0010
0100
0001
0010
0001
0100
0001
0010
0100
1000
0010
0100
1000
,
0100
0010
0001
1000
0010
1000
0010
0100
0001
0100
0001
0010
0100
1000
0010
0100
,
0001
0010
0100
0010
1001
0110
1001
0110
1001
0110
1001
0110
1001
0110
1001
0110
,
1001
0000
1010
1010
1010
1010
0101
0101
,
0101
0000
0000
0000
1000
0000
0100
0000
1000
0000
0100
0000
0001
0010
0101
0010
,
0001
0010
0101
0010
0001
0000
1100
0000
1010
0000
1100
0000
1010
0000
1100
0000
,
1010
0110
1001
1100
1001
1100
1001
1100
,
1001
0011
0110
1100
0110
1100
0110
1100
,
0110
1001
0011
1010
0011
1010
0011
1010
,
0011
0000
1001
0000
0110
0000
1100
0000
0101
0000
0110
0000
1001
0100
1000
0100
,
1001
0100
1000
0100
1001
0000
1001
0110
1001
0110
1001
0110
1001
0000
0110
0000
,
1100
1001
0110
1100
0110
1001
0110
1100
,
0110
0000
1001
0000
0110
0000
1100
0011
1100
0011
1100
0011
1100
0000
0110
0000
,
0011
1010
0110
0011
1100
0011
0110
0011
,
1100
0000
0011
0000
0110
0000
0011
1100
0011
1100
0011
1100
0011
0000
1001
0000
,
0011
0110
1100
0011
0110
0011
1100
0011
,
0110
0000
0011
0000
1100
0000
0011
1000
0101
1000
0011
1000
0101
0000
1001
0110
,
1001
0000
1100
0000
0110
0000
1100
0000
0110
0000
0011
0000
1000
0011
1000
0011
,
1000
0011
1000
0000
1000
0100
0010
0001
1000
0100
0010
0001
1000
0100
0010
0001
,
1000
0100
0010
1000
0001
0010
0100
1000
0001
0010
0100
1000
0001
0010
0100
1000
,
0001
0010
0100
0001
1000
0010
0100
0010
1000
0100
0010
0001
0010
0100
1000
0001
,
0100
0010
1000
0010
0001
0100
0001
0010
0100
1000
0100
0001
1000
0010
0001
0010
,
0100
0001
1000
0100
0001
0010
0001
1000
0100
0010
0100
1000
0001
0010
0100
1000
,
0001
0010
0100
1000
0001
0100
0001
1000
0010
0100
0010
1000
0001
0010
0100
1000
,
0010
0001
0100
1000
0001
0010
0100
1000
0001
0010
0100
0001
1000
0010
0001
0100
,
0010
1000
0100
0010
0001
1000
0100
0010
0001
0010
0100
1000
0100
0010
0001
0010
,
0100
1000
0100
0001
0010
0100
0001
1000
0100
0010
0001
0100
0010
1000
0010
0100
,
0001
0100
0001
0010
0100
1000
0100
0010
1000
0100
0001
1000
0010
0100
0001
0010
,
0001
1000
0100
1000
0001
0100
0001
0010
0100
1000
0001
0010
0100
1000
0010
0001
,
0100
0010
0001
0010
2001
0010
0100
0010
3000
0001
0100
0010
1000
0100
0010
0001
,
1000
0010
0100
1000
0102
1000
0010
0100
0013
1000
0010
0100
1000
0001
0010
0100
,
1000
0100
0010
0001
0010
1000
0010
1000
0010
1000
0010
1000
0100
0001
0100
0001
,
0100
0001
0100
0000
0110
1001
0110
1001
0110
1001
0110
1001
0110
1001
0110
1001
,
0110
1001
0110
0000
1001
0000
0110
1001
0110
1001
0110
1001
0110
0000
1100
0000
,
0110
1100
0101
1100
0101
1100
0101
1100
,
0101
0000
1100
0000
0101
0000
0011
1100
0011
1100
0011
1100
0011
0000
1001
0000
,
0011
0110
0101
1010
0101
1010
0101
1010
,
0101
0000
1010
0000
0101
0000
0011
1100
0011
1100
0011
1100
0011
0000
0110
0000
,
1001
0110
0011
0110
1001
0110
0011
0110
,
1001
0000
0110
0000
0011
0000
1100
0011
1100
0011
1100
0011
1100
0000
1001
0000
,
0011
0000
1010
0000
0001
0010
0100
1000
0100
0010
0001
0010
0100
1000
0100
0010
,
0001
0010
0100
1000
0100
0000
0110
1001
0110
1001
0110
1001
0110
0000
0011
0000
,
1100
0000
0110
0000
1001
0000
1100
0011
1100
0011
1100
0011
1100
0000
1001
0000
,
0011
0000
1010
0000
0110
0000
0011
1100
0011
1100
0011
1100
0011
0000
0101
0000
,
1100
0000
0110
0000
1001
0000
1001
0110
1001
0110
1001
0110
1001
0000
0110
0000
,
1001
0000
1100
0000
0101
0000
1001
0110
1001
0110
1001
0110
1001
0000
1001
0000
,
0110
0000
1100
0000
0011
0000
0110
1001
0110
1001
0110
1001
0110
0000
1100
0000
,
0101
0011
2002
0000
0000
0000
0000
0000
,
0000
3003
0000
0000
;
