#TITLE:rainbow flyer;
#SUBTITLE:;
#ARTIST:dj TAKA;
#TITLETRANSLIT:;
#SUBTITLETRANSLIT:;
#ARTISTTRANSLIT:;
#CREDIT:;
#BANNER:Rainbow Flyer.png;
#BACKGROUND:Rainbow Flyer-bg.png;
#LYRICSPATH:;
#CDTITLE:!toph-cdtitle.png;
#MUSIC:dj Taka - Rainbow Flyer.mp3;
#OFFSET:-0.422;
#SAMPLESTART:46.100;
#SAMPLELENGTH:13.500;
#SELECTABLE:YES;
#BPMS:0.000=74.000,16.000=148.000,176.000=74.000,192.000=148.000;
#STOPS:;
#BGCHANGES:;
// cache tags:
#FIRSTBEAT:8.000;
#LASTBEAT:256.000;
#SONGFILENAME:Songs/Community Keyboard Megapack - Volume 1/(Toph) Rainbow Flyer/Rainbow Flyer.sm;
#HASMUSIC:1;
#HASBANNER:1;
#MUSICLENGTH:124.499;
// end cache tags

//---------------dance-single - ----------------
#NOTES:
     dance-single:
     :
     Easy:
     5:
     0.369,0.463,0.329,0.000,0.000,281.000,41.000,0.000,0.000,0.000:  // measure 1
0000
0000
0000
0000
,  // measure 2
0000
0000
0000
0000
,  // measure 3
1000
0000
0100
0000
,  // measure 4
0010
0000
0001
0000
,  // measure 5
1000
0000
0010
0000
0100
0001
0100
0000
,  // measure 6
0010
0000
1000
0000
0001
0010
0001
0000
,  // measure 7
0100
0000
0010
0000
1000
0001
1000
0000
,  // measure 8
0100
0000
0010
0000
0001
1000
0001
0000
,  // measure 9
0110
0000
1000
0000
0100
0010
0100
0000
,  // measure 10
1000
0000
0001
0000
0100
0010
0100
0000
,  // measure 11
0001
0000
0010
0000
0100
1000
0100
0000
,  // measure 12
1000
0000
0010
0000
0100
0001
0100
0000
,  // measure 13
1001
0000
1010
0000
0001
0010
0100
0000
,  // measure 14
1001
0000
0101
0000
0010
1000
0001
0000
,  // measure 15
1100
0000
0011
0000
0001
0100
0010
0000
,  // measure 16
1001
0000
0110
0000
1000
0001
0100
0000
,  // measure 17
1001
0000
1100
0000
0010
0001
0100
0000
,  // measure 18
1001
0000
0101
0000
0010
1000
0100
0000
,  // measure 19
1000
0001
1000
0000
0001
1000
0001
0000
,  // measure 20
1000
0001
1000
0001
1000
0001
1000
0000
,  // measure 21
1001
0100
0010
1000
,  // measure 22
0001
0010
0100
1000
,  // measure 23
0001
1000
0001
0000
1000
0001
1000
0000
,  // measure 24
0001
1000
0001
1000
0001
1000
0001
0000
,  // measure 25
1000
0010
0100
0000
0001
0000
1000
0000
,  // measure 26
0001
0010
0100
0000
1000
0000
0001
0000
,  // measure 27
1000
0001
0100
0000
0010
0000
1000
0000
,  // measure 28
0001
0010
0100
0000
1000
0001
0100
0000
,  // measure 29
0010
1000
0100
0000
0010
0000
0001
0000
,  // measure 30
1000
0010
0100
0000
0001
0000
1000
0000
,  // measure 31
0100
0010
0001
0000
1000
0000
0010
0000
,  // measure 32
0100
0001
1000
0000
0100
1000
0001
0000
,  // measure 33
0100
0010
1000
0000
0001
0000
0010
0000
,  // measure 34
0100
1000
0001
0000
0100
0000
0010
0000
,  // measure 35
1000
0100
0010
0000
0001
0000
1000
0000
,  // measure 36
0010
1000
0100
0000
0010
0001
0100
0000
,  // measure 37
0001
1000
0010
0000
0100
0000
0001
0000
,  // measure 38
1000
0100
0010
0000
0001
0000
0100
0000
,  // measure 39
0001
1000
0001
0000
1000
0001
1000
0000
,  // measure 40
0001
1000
0001
1000
0001
1000
0001
0000
,  // measure 41
1001
0000
0000
0000
,  // measure 42
0000
0000
0000
0000
,  // measure 43
0000
0000
0000
0000
,  // measure 44
0000
0000
0000
0000
,  // measure 45
1000
0100
0010
0001
,  // measure 46
0100
0010
1000
0001
,  // measure 47
1000
0100
0010
0001
,  // measure 48
0100
0010
1000
0001
,  // measure 49
0110
1000
0001
0100
,  // measure 50
0010
1000
0100
0010
,  // measure 51
0001
1000
0010
0100
,  // measure 52
0001
0010
0001
0100
,  // measure 53
0010
1000
0100
1000
,  // measure 54
0010
0100
0001
1000
,  // measure 55
0100
0010
0001
0100
,  // measure 56
0010
0100
0001
1000
,  // measure 57
0110
0011
1001
1010
,  // measure 58
0101
1100
0011
0101
,  // measure 59
1010
1001
0011
1100
,  // measure 60
0101
1010
0110
1001
,  // measure 61
0011
1100
0101
1010
,  // measure 62
1001
0011
1100
0101
,  // measure 63
1000
0001
1000
0000
0001
1000
0001
0000
,  // measure 64
1000
0001
1000
0001
1000
0001
1000
0000
,  // measure 65
1001
0000
0000
0000
;

//---------------dance-single - ----------------
#NOTES:
     dance-single:
     :
     Medium:
     8:
     0.490,0.488,0.233,0.000,0.048,398.000,29.000,0.000,0.000,0.000:  // measure 1
0000
0000
0000
0000
,  // measure 2
0000
0000
0000
0000
,  // measure 3
0001
0000
0100
0000
,  // measure 4
0010
0000
1000
0011
,  // measure 5
0100
0010
1000
0001
0000
1000
0100
0010
,  // measure 6
0001
0100
0010
1000
0000
0001
1000
0001
,  // measure 7
0100
0010
1000
0001
0000
1000
0100
1000
,  // measure 8
0010
0100
0001
1000
0000
0001
1000
0001
,  // measure 9
1000
0010
1000
0100
0000
0010
0001
0100
,  // measure 10
0001
1000
0010
0100
0000
0001
0010
0100
,  // measure 11
1000
0010
0100
0001
0000
1000
0100
1000
,  // measure 12
0010
0100
0001
0010
0001
0000
1000
0000
,  // measure 13
1001
0001
0100
0010
1000
0001
1000
0100
,  // measure 14
0000
0010
0001
0100
0010
0100
0001
1000
,  // measure 15
0100
0010
0001
0100
0010
0100
0001
1000
,  // measure 16
0000
0100
0010
0001
1000
0010
0100
0010
,  // measure 17
0110
0100
1000
0001
1000
0010
1000
0100
,  // measure 18
0110
0010
0001
1000
0010
1000
0100
1000
,  // measure 19
0001
1000
0100
0000
1000
0001
0100
0000
,  // measure 20
1001
0110
1001
0110
,  // measure 21
1001
0100
0010
1000
,  // measure 22
0001
0010
0100
1000
,  // measure 23
0001
1000
0100
0000
1000
0001
0100
0000
,  // measure 24
1001
0000
0110
0000
1001
0000
1000
0100
,  // measure 25
0010
0001
0010
0000
0100
0000
1000
0000
0001
0000
1000
0000
0001
0000
0000
0000
,  // measure 26
0100
0010
0100
0000
0001
0000
1000
0000
0100
0000
0010
0000
0001
0000
0000
0000
,  // measure 27
1000
0010
1000
0000
0100
0000
0010
0000
0001
0000
1000
0000
0010
0000
0100
0000
,  // measure 28
0001
0010
0001
0010
0100
1000
0100
1000
,  // measure 29
0001
0100
0001
0000
1000
0000
0100
0000
0010
0000
0001
0000
1000
0000
0000
0000
,  // measure 30
0010
0100
0010
0000
1000
0000
0001
0000
0010
0000
0100
0000
1000
0000
0000
0000
,  // measure 31
0001
0100
0001
0000
1000
0000
0100
0000
1000
0000
0010
0000
0100
0000
0000
0000
,  // measure 32
1001
1100
1001
0101
,  // measure 33
0001
1000
0001
0000
0010
0000
0100
0000
1000
0000
0001
0000
0100
0000
0000
0000
,  // measure 34
0010
1000
0010
0000
0100
0000
0001
0000
0010
0000
0100
0000
1000
0000
0000
0000
,  // measure 35
0001
0100
0001
0000
1000
0000
0100
0000
1000
0000
0010
0000
0100
0000
0001
0000
,  // measure 36
0010
0100
0010
0100
1000
0001
1000
0001
,  // measure 37
1001
1000
0100
0010
0001
1000
0010
0100
,  // measure 38
1001
0001
0100
0010
1000
0001
0010
0100
,  // measure 39
1000
0001
0100
0000
0001
1000
0100
0000
,  // measure 40
1001
0110
1001
0110
,  // measure 41
1001
0000
0000
0000
,  // measure 42
0000
0000
0000
0000
,  // measure 43
0000
0000
0000
0000
,  // measure 44
0000
0000
0000
0000
,  // measure 45
0100
0010
1000
0100
,  // measure 46
0010
0001
1000
0010
,  // measure 47
0100
0001
1000
0100
,  // measure 48
0010
0001
1000
0101
,  // measure 49
0010
1000
0100
1000
0010
1000
0001
1000
,  // measure 50
0010
0100
0001
0100
0010
0100
1000
0100
,  // measure 51
0001
0010
0100
0010
0001
0010
1000
0010
,  // measure 52
0100
1000
0010
1000
0001
1000
0010
1000
,  // measure 53
0100
0010
0100
0010
0001
0010
0001
0010
,  // measure 54
0001
0100
0001
0100
0010
0100
0010
0100
,  // measure 55
0001
0100
0001
0100
0001
1000
0001
1000
,  // measure 56
0100
1000
0100
1000
0100
0010
0100
0010
,  // measure 57
0001
0100
0001
0000
0010
0000
0100
0000
1000
0000
0010
0000
0100
0000
0001
0000
,  // measure 58
1000
0100
0010
0001
0100
0010
1000
0001
,  // measure 59
0010
0100
0010
0000
0001
0000
1000
0000
0010
0000
1000
0000
0100
0000
1000
0000
,  // measure 60
0001
0010
0001
0100
0010
1000
0100
0010
,  // measure 61
0001
0100
0001
0000
1000
0000
0100
0000
0010
0000
0100
0000
1000
0000
0010
0000
,  // measure 62
0100
0001
0010
0100
1000
0010
0100
0010
,  // measure 63
1000
0001
0100
0000
0001
1000
0100
0000
,  // measure 64
1001
0110
1001
0110
,  // measure 65
1001
0000
0000
0000
;

//---------------dance-single - ----------------
#NOTES:
     dance-single:
     :
     Hard:
     9:
     0.593,0.643,0.137,0.064,0.426,492.000,17.000,8.000,0.000,0.000:  // measure 1
0000
0000
0000
0000
,  // measure 2
0000
0000
0000
0000
,  // measure 3
1000
0000
0001
0000
,  // measure 4
0100
0000
0010
0101
,  // measure 5
1000
0000
0100
0000
0010
0000
0100
0000
0000
1000
0001
0000
0100
0000
0010
0000
,  // measure 6
0000
0000
1000
0000
0100
0000
0010
0000
0000
0001
1000
0000
0100
0000
1000
0000
,  // measure 7
0000
0000
0010
0000
0100
0000
0001
0000
0000
1000
0001
0000
0010
0000
0100
0000
,  // measure 8
0000
0000
1000
0000
0010
0000
0100
0000
0000
0001
1000
0000
0100
0000
0010
0000
,  // measure 9
0001
0000
0100
0000
0010
0000
1000
0000
0000
0001
0010
0000
0100
0000
1000
0000
,  // measure 10
0000
0000
0010
0000
0100
0000
0001
0000
0000
0010
0100
0000
0010
0000
0001
0000
,  // measure 11
0000
0000
1000
0000
0010
0000
0100
0000
0000
0001
1000
0000
0100
0000
0010
0000
,  // measure 12
0000
0000
0001
0000
0100
0000
0010
0000
0000
1000
0001
0000
0010
0000
0100
0000
,  // measure 13
1000
0000
0010
0000
0100
0001
0100
0000
0010
0000
1000
0000
0100
0000
0010
0001
,  // measure 14
0000
1000
0100
0000
0010
0001
0010
0000
0100
0000
1000
0000
0010
0000
0100
0001
,  // measure 15
0000
0100
0010
0000
1000
0001
1000
0000
0100
0000
0010
0000
0001
0000
1000
0010
,  // measure 16
0000
0100
0001
0000
1000
0100
1000
0000
0010
0000
0100
0000
0001
0000
1000
0100
,  // measure 17
1000
0001
1000
0000
0100
0010
0100
0000
1000
0000
0010
0000
0100
0000
0001
0100
,  // measure 18
0001
1000
0001
0000
0010
0100
0010
0000
0001
0000
0100
0000
0010
0000
1000
0001
,  // measure 19
0010
0000
0100
0000
0010
0100
0000
0100
0010
0000
0100
0000
0010
0100
0000
0100
,  // measure 20
1000
0001
1000
0001
1000
0001
1000
0002
2000
0000
0000
0000
3003
0000
0000
0000
,  // measure 21
0110
1000
0001
0000
0010
0000
0100
0000
,  // measure 22
0000
1000
0010
0000
0100
0000
0001
0000
,  // measure 23
0010
0000
0100
0000
0010
0100
0000
0100
0010
0000
0100
0000
0010
0100
0000
0100
,  // measure 24
1000
0001
1000
0001
1000
0001
1000
0002
2000
0000
3003
0000
0010
0100
0010
0000
,  // measure 25
1000
0001
1000
0000
0100
0000
0010
0000
0001
0000
1000
0000
0010
0100
0000
0001
,  // measure 26
1000
0100
1000
0000
0001
0000
0100
0010
0100
0000
0001
1000
0001
0010
0000
0100
,  // measure 27
1000
0001
1000
0000
0010
0000
1000
0000
0100
1000
0100
0000
0010
0001
0000
0001
,  // measure 28
0100
0010
0100
0000
0001
0000
1000
0000
0100
0010
0100
0000
1000
0000
0001
0000
,  // measure 29
1000
0010
1000
0000
0001
0000
0010
0000
0100
1000
0100
0000
1000
0001
0000
0100
,  // measure 30
0001
0010
0001
0000
0100
0000
0010
0000
1000
0000
0100
0000
0010
0001
0000
0001
,  // measure 31
0100
0010
0100
0000
0001
0000
1000
0000
0100
0010
0100
0000
1000
0001
0000
1000
,  // measure 32
0001
0100
0001
0000
0010
0000
0100
0000
1000
0000
0010
0000
0100
0000
0001
0000
,  // measure 33
1000
0100
1000
0000
0001
0000
0100
0000
0010
0000
1000
0000
0100
0010
0000
0001
,  // measure 34
1000
0010
1000
0000
0100
0000
0010
0001
0010
0000
0100
1000
0001
0100
0000
0010
,  // measure 35
1000
0010
0100
0000
0001
0000
1000
0000
0100
0010
0100
0000
1000
0001
0000
0010
,  // measure 36
0100
1000
0001
0000
0100
0000
0010
0000
1000
0001
0010
0000
0100
0000
1000
0000
,  // measure 37
0010
0100
0010
0000
1000
0000
0100
0000
0010
0000
0001
0000
0100
0010
0000
1000
,  // measure 38
0001
0010
0100
0000
1000
0000
0001
0100
0001
0000
1000
0010
1000
0001
0000
0001
,  // measure 39
0010
0000
0100
0000
0010
0100
0000
0100
0010
0000
0100
0000
0010
0100
0000
0100
,  // measure 40
1000
0001
1000
0001
1000
0001
1000
0002
2000
0000
0000
0000
3003
0000
0000
0000
,  // measure 41
0110
0000
0000
0000
,  // measure 42
0000
0000
0000
0000
,  // measure 43
0000
0000
0000
0000
,  // measure 44
0000
0000
0000
0000
,  // measure 45
0010
0100
0001
1000
,  // measure 46
0100
0010
0001
0100
,  // measure 47
0010
1000
0100
0010
,  // measure 48
0001
0100
0010
1001
,  // measure 49
0010
1000
0100
0001
0100
1000
0010
0100
,  // measure 50
0001
0010
0001
0100
0010
0001
1000
0100
,  // measure 51
0001
0010
0001
0100
0010
1000
0100
0001
,  // measure 52
0100
0010
0001
0100
0010
0001
1000
0100
,  // measure 53
0010
1000
0100
0010
0001
0100
0001
1000
,  // measure 54
0010
0001
0010
1000
0001
0010
1000
0010
,  // measure 55
0001
0100
0010
1000
0100
0010
0001
0100
,  // measure 56
0001
1000
0100
0010
1000
0010
0001
0100
,  // measure 57
0010
1000
1001
0100
0010
1000
1100
0010
,  // measure 58
0001
1000
1001
0010
1000
0100
0110
0001
,  // measure 59
1000
0010
0110
0001
1000
0100
0110
0001
,  // measure 60
1000
0100
1100
0001
0100
0010
1010
0001
,  // measure 61
1000
0100
1001
0010
0001
0100
1001
0010
,  // measure 62
1000
0001
0110
1000
0001
0100
1010
0001
,  // measure 63
0010
0000
0100
0000
0010
0100
0000
0100
0010
0000
0100
0000
0010
0100
0000
0100
,  // measure 64
1000
0001
1000
0001
1000
0001
1000
0002
2000
0000
0000
0000
3003
0000
0000
0000
,  // measure 65
0110
0000
0000
0000
;

//---------------dance-single - ----------------
#NOTES:
     dance-single:
     :
     Challenge:
     11:
     1.000,1.000,1.000,0.016,1.000,798.000,137.000,2.000,0.000,0.000:  // measure 1
0000
0000
0000
0000
,  // measure 2
0000
0000
0000
0000
,  // measure 3
1001
0000
0011
0000
,  // measure 4
1100
0000
0000
0000
0101
0000
1010
0010
,  // measure 5
1001
0000
0010
0000
0001
0100
0010
1000
0100
0100
0010
0010
0001
1000
0010
1000
,  // measure 6
0000
0010
0100
0000
0001
0100
0010
1000
0001
0001
0010
0010
0100
1000
0010
0100
,  // measure 7
0000
0001
1000
0000
0100
0010
0001
0100
0010
0010
1000
1000
0100
0010
0001
1000
,  // measure 8
0000
0010
0100
0000
0001
1000
0100
0010
0001
0001
0100
0100
0010
1000
0100
0010
,  // measure 9
1001
0100
0010
0000
1000
0100
0010
0001
0100
0100
0010
0010
1000
0100
0010
0001
,  // measure 10
0000
1000
0010
0000
0100
0001
0010
0100
1000
1000
0001
0001
0100
0010
1000
0001
,  // measure 11
0000
0010
0100
0000
1000
0010
0100
0001
1000
1000
0100
0100
0010
0001
0100
0010
,  // measure 12
0000
1000
0001
0000
0010
0001
0100
0010
1000
1000
0001
0001
0010
0100
0010
0001
,  // measure 13
1001
0010
0100
0000
0011
1000
0010
0100
0001
0010
0100
1000
0010
0100
0001
1000
,  // measure 14
0110
0001
1000
0000
0110
0001
0010
0100
1000
0010
0100
0001
1000
0100
0010
0001
,  // measure 15
0110
1000
0001
0000
1100
0010
0001
1000
0010
0100
0001
1000
0100
1000
0010
0100
,  // measure 16
1001
0010
0001
0000
0101
0010
1000
0001
1000
0100
0010
0001
0100
0010
1000
0001
,  // measure 17
1100
0010
0001
0000
1001
0010
0100
1000
0001
0001
0100
0100
0010
1000
0100
0010
,  // measure 18
1001
0100
0010
0000
0101
1000
0010
0100
0001
0001
1000
1000
0010
1000
0100
0010
,  // measure 19
1001
0000
1000
0000
1001
1000
0000
1000
1001
0000
0001
0000
1001
0001
0000
0001
,  // measure 20
1000
0000
0000
0001
0000
0000
1000
0000
0000
0001
0000
0000
1000
0000
0000
0001
0000
0000
1000
0000
0000
0001
0000
0000
1000
0000
0001
0000
1000
0000
0001
0000
1000
0000
0001
0000
1000
0000
0001
0000
1000
0000
0001
0000
1000
0000
0001
0000
,  // measure 21
0110
1000
0001
0000
0100
0010
1000
0001
0100
0100
0010
0010
1000
0100
0010
0001
,  // measure 22
0000
1000
0001
0000
0100
0010
1000
0001
0100
0100
0010
0010
1000
0100
0010
0001
,  // measure 23
1001
0000
1000
0000
1001
1000
0000
1000
1001
0000
0001
0000
1001
0001
0000
0001
,  // measure 24
1000
0001
1000
0001
1000
0001
1000
0001
2002
0000
3003
0000
0001
0100
0010
1000
,  // measure 25
1001
0010
0100
0000
1001
0000
0110
0000
1001
0100
0010
0000
1001
0100
0000
0010
,  // measure 26
0101
1000
0100
0000
0011
0000
1000
0100
0011
0000
1000
0100
0011
1000
0001
0010
,  // measure 27
1001
0100
0010
0000
0101
0000
1010
0000
0101
1000
0010
0000
0101
1000
0000
0100
,  // measure 28
1001
0010
0100
0000
0011
0000
0100
0010
1001
0100
0010
0001
1100
0000
0101
0000
,  // measure 29
0011
1000
0100
0000
1010
0000
0101
0000
0011
1000
0100
0000
1010
0001
0000
0100
,  // measure 30
1001
0010
0100
0000
1001
0000
0100
0010
1001
0000
0100
0010
1001
0100
0010
1000
,  // measure 31
0011
0100
1000
0000
0011
0000
1100
0000
0011
1000
0100
0000
0011
0100
0000
1000
,  // measure 32
0001
0100
0010
0000
1000
0000
0100
0010
0001
1000
0010
0100
0001
0000
0110
0000
,  // measure 33
1001
0010
0100
0000
1001
0000
0110
0000
1001
0100
0010
0000
1001
0010
0000
0100
,  // measure 34
0011
1000
0100
0000
1010
0000
0001
0100
1010
0000
0100
0001
1010
0100
0001
0100
,  // measure 35
0011
1000
0100
0000
0011
0000
1100
0000
0011
1000
0100
0000
0011
1000
0000
0100
,  // measure 36
1001
0010
0100
0000
1001
0000
0100
0010
1001
0010
0100
1000
0101
0000
1010
0000
,  // measure 37
1001
0010
0100
0000
1001
0000
0110
0000
1001
0100
0010
0000
1001
0100
0000
0010
,  // measure 38
0101
1000
0010
0000
0101
0000
1000
0010
0101
0000
1000
0010
0101
1000
0100
0010
,  // measure 39
1001
0010
0100
0000
1001
0000
0110
0000
1001
0000
0110
0000
1001
0100
0000
0010
,  // measure 40
1100
0001
0100
0000
1010
0000
0001
0010
1001
0100
1000
0001
0110
0000
1010
0000
,  // measure 41
1001
0010
0100
0000
0001
0000
1000
0000
0100
0010
0001
0000
0100
0010
1000
0001
,  // measure 42
0010
0100
1000
0000
0010
0000
0100
0000
0001
1000
0100
0000
0010
0001
0100
0010
,  // measure 43
1000
0100
0010
0000
0001
0000
1000
0000
0010
0100
0001
0000
1000
0100
0010
0001
,  // measure 44
1000
0010
0100
0000
0001
0000
1000
0000
0001
0010
0100
0000
1000
0010
0100
0001
,  // measure 45
1010
0101
1100
0010
,  // measure 46
1001
1010
0101
1100
,  // measure 47
0011
0101
1010
0001
,  // measure 48
1100
0000
0110
0000
0011
0000
1010
0010
,  // measure 49
1001
0100
0010
0001
0100
0010
1000
0100
0010
0001
0100
0010
0100
0001
0010
0100
,  // measure 50
1000
0010
1000
0100
0010
0100
1000
0001
0100
0010
0100
0001
0010
0100
1000
0001
,  // measure 51
0100
0010
1000
0100
1000
0010
0100
0001
1000
0100
0010
0001
0010
0001
0100
0010
,  // measure 52
1000
0100
0010
0001
0010
0100
1000
0010
0100
0001
0010
0100
0010
0100
1000
0001
,  // measure 53
0100
0010
1000
0100
0010
0001
0100
0010
1000
0001
0010
0100
1000
0010
0100
0001
,  // measure 54
1000
0100
1000
0010
0100
0010
1000
0100
0010
0001
0100
0010
1000
0100
0010
0001
,  // measure 55
1000
0010
0100
0001
0100
0010
1000
0100
0010
0001
0100
0010
0100
0001
1000
0100
,  // measure 56
0010
0001
0100
0010
0100
0001
1000
0100
0010
0001
0100
0010
0100
0010
1000
0001
,  // measure 57
1100
0010
0001
1000
0101
0010
1000
0001
0010
0100
1000
0010
1001
0100
0001
0010
,  // measure 58
0100
1000
0100
0010
1001
0100
0010
1000
0100
0010
0100
1000
0101
0010
1000
0001
,  // measure 59
0010
0100
1000
0010
0101
1000
0100
0010
0001
1000
0010
0100
1001
0010
0100
0001
,  // measure 60
1000
0100
0010
0001
1010
0100
0001
1000
0100
0010
0001
0010
1001
0100
1000
0001
,  // measure 61
1100
0010
0100
0001
1100
0010
0001
1000
0010
0100
0001
1000
0110
0001
1000
0010
,  // measure 62
1000
0100
1000
0010
0101
1000
0100
0010
0001
0100
0001
0010
1100
0001
0100
0010
,  // measure 63
1001
0000
1000
0000
1001
1000
0000
1000
1001
0000
0001
0000
1001
0001
0000
0001
,  // measure 64
1000
0000
0000
0001
0000
0000
1000
0000
0000
0001
0000
0000
1000
0000
0000
0001
0000
0000
1000
0000
0000
0001
0000
0000
1000
0000
0001
0000
1000
0000
0001
0000
1000
0000
0001
0000
1000
0000
0001
0000
1000
0000
0001
0000
1000
0000
0001
0000
,  // measure 65
0110
0000
0000
0000
;
