#TITLE:Sharper;
#SUBTITLE:;
#ARTIST:NTW;
#TITLETRANSLIT:;
#SUBTITLETRANSLIT:;
#ARTISTTRANSLIT:;
#CREDIT:David N.;
#BANNER:sharper-bn.png;
#BACKGROUND:sharper-bg.png;
#LYRICSPATH:;
#CDTITLE:muteCD.png;
#MUSIC:sharper.ogg;
#OFFSET:2.098;
#SAMPLESTART:25.200;
#SAMPLELENGTH:10.600;
#SELECTABLE:YES;
#BPMS:0.000=115.000;
#STOPS:;
#BGCHANGES:;
// cache tags:
#FIRSTBEAT:4.000;
#LASTBEAT:149.000;
#SONGFILENAME:Songs/SSSC Pack 2/Sharper - [Mute]/sharper.sm;
#HASMUSIC:1;
#HASBANNER:1;
#MUSICLENGTH:76.000;
// end cache tags

//---------------dance-single - Mute----------------
#NOTES:
     dance-single:
     Mute:
     Challenge:
     14:
     1.000,1.000,0.184,0.039,1.000,592.000,14.000,3.000,0.000,2.000:

0000
0000
0000
0000
,
0001
0000
0010
0000
0001
0000
0010
0000
0001
0000
0010
0000
0001
0000
0010
0010
,
0100
0100
0010
0010
0100
0100
0010
0001
0100
1000
0100
0001
0010
0100
1000
0000
,
0100
0010
0100
0001
0100
0000
0100
0000
0100
1000
0100
0010
0001
0000
0000
0000
,
1000
0010
0100
0001
0010
0100
1000
0100
0010
1000
0010
0100
0010
0001
0100
0000
,
0100
0000
0010
0100
0010
0000
1000
0000
0001
0000
0000
0000
1000
0010
1000
0010
0100
0000
0010
0000
1000
0000
0100
0000
0010
0000
0001
0010
0001
0000
1000
0100
,
1000
0000
0100
0000
1000
0000
0010
0000
0100
0000
0010
0000
1000
0000
0100
0000
1000
0010
1000
0010
0100
0001
0100
0001
1000
0000
0010
0000
1000
0000
0000
0000
,
0100
0000
1000
0100
0010
0001
0010
0100
0010
0000
1000
0010
0001
0100
1000
0100
,
0001
0010
0001
1000
0100
0001
0100
1000
0010
0000
1000
0001
0010
0100
0001
0100
,
1000
0000
0001
0000
0010
0000
0100
0000
1000
0000
1000
0000
0010
0100
0010
0000
1000
0000
0010
0000
0100
0010
0100
0000
0001
0000
0010
0000
0001
0100
0001
0000
,
1000
0010
0001
0010
1000
0100
0010
0100
0000
0100
0000
0100
0000
0100
0000
1000
,
0001
0000
0010
0000
0100
0000
1000
0000
0100
0000
0010
0000
0001
0000
1000
0000
0001
0010
0001
0010
0001
1000
0001
1000
0010
1000
0010
1000
0010
0100
0010
0100
,
0001
0100
0010
1000
0001
0100
0001
0000
0100
0001
0100
0000
0010
0100
0010
0000
1000
0010
1000
0000
0001
1000
0001
0000
1000
0010
1000
0100
0010
0100
1000
0001
,
0100
0010
0100
0001
1000
0001
0010
0001
1000
0010
0100
0001
1000
0100
0010
0001
1000
0000
0000
0000
1100
0000
0000
0000
0011
0000
0000
0000
0011
0000
0000
0000
,
1101
1101
0101
0110
1010
0110
1010
0110
,
0010
0100
0010
0100
0020
0000
1000
0000
0000
0000
0100
0000
0000
0000
0001
0000
0000
0000
0100
0000
0000
0000
1030
0000
0001
0000
1000
0000
0010
0000
0001
0000
,
0010
0100
1000
0100
0010
0100
1000
0100
0100
0000
0000
0100
0100
0000
0000
0100
,
0100
0001
0010
0001
0001
0000
0000
0001
0001
0000
0000
0001
0001
0100
0010
1000
,
1000
0000
0000
0100
0100
0010
0010
0001
0010
0010
0001
0010
0010
0100
1000
0010
,
0100
0001
0001
1000
1000
0000
0000
1000
1000
1000
1000
0001
0001
0100
0001
0001
,
0100
0000
0001
0000
0001
0000
0001
0000
0001
0000
0010
0000
0001
0000
0100
0000
0001
0000
1000
0010
1000
0000
0001
0000
0100
0000
0010
0000
0100
0001
0100
0000
,
0010
1010
0000
1100
0000
0110
0000
0001
0010
0100
1000
0100
0010
0001
1000
0100
,
0010
0000
0010
0000
0001
0000
0100
0010
0000
1000
0000
0001
0000
0100
0000
0010
,
1000
0100
0001
0100
0000
1000
0000
0010
0000
1000
0001
0000
0100
0000
0010
0000
,
1000
0000
0000
0000
0100
0000
0010
0001
0010
0000
0100
0000
1000
0000
0010
0100
0010
0000
1000
0000
0001
0000
1000
0100
1000
0000
0100
0000
0010
0000
0001
1000
,
0002
0100
0000
0000
0000
0100
0000
0000
1003
0100
0010
0001
0010
0100
0010
0001
,
0010
0000
0100
0000
1000
0000
0010
0000
0100
0000
0001
0000
0010
0000
0100
0000
0010
0100
1000
0001
0010
0100
1000
0100
1000
0001
1000
0001
1000
0001
1000
0001
,
0100
0010
0100
0010
0100
0001
0100
0001
1000
0100
1000
0100
0010
0100
0010
0100
1000
0001
0010
0100
1000
0001
0010
0100
1000
0010
0100
0001
1000
0010
0100
0001
,
0100
0010
1000
0001
0100
0010
1000
0001
1000
0100
1000
0001
1000
0100
1000
0001
0100
0010
0100
0001
0100
0010
1000
0100
0010
0001
0010
0100
1000
0100
0010
0001
,
1000
0010
1000
0010
0100
0001
0100
0001
1000
0100
1000
0100
0010
0001
0100
0001
,
1000
0000
0001
0000
1000
0000
0001
0000
0010
0000
0100
0000
1000
0000
0001
0000
1000
0000
0100
0000
1000
0000
0010
0000
0100
0000
0001
1000
0001
1000
0010
1000
,
0010
1000
0100
0010
0100
0010
0001
0010
0001
0010
0001
0100
0010
1000
0100
0010
0001
0010
0100
1000
0001
0010
0100
1000
0100
0010
0001
0100
0001
0100
0001
0100
,
0010
1000
0010
1000
0000
0000
0001
1000
0001
1000
0000
0000
0010
0100
0010
0100
0000
0000
0001
0010
0001
0010
0000
0000
0100
1000
0100
1000
0100
0000
0000
0000
,
0010
0001
1000
0100
0010
0001
1000
0100
,
0010
0000
0001
0000
1000
0000
0010
0010
1000
1000
0001
0001
0100
0100
0010
0010
,
1000
0000
1000
0000
0001
0000
0001
0000
0100
0000
0100
0000
0010
1000
0010
0000
0100
0001
0100
0000
0001
0010
0001
0000
1000
0100
1000
0000
0001
0000
0000
0000
,
0010
0200
0000
0000
0000
0000
0000
0000
,
0000
0300
0000
0000
;

//---------------dance-single - Mute----------------
#NOTES:
     dance-single:
     Mute:
     Hard:
     11:
     1.000,1.000,0.197,1.000,1.000,511.000,15.000,84.000,0.000,2.000:
0000
0000
0000
0000
,
0001
0000
0010
0000
0001
0000
0010
0000
0001
0000
0010
0000
0001
0000
0010
0010
,
0100
0100
0010
0010
0100
0100
0010
0001
0100
1000
0100
0001
0010
0100
1000
0000
,
0100
0010
0100
0001
0100
0000
0100
0000
0100
1000
0100
0010
0001
0000
0000
0000
,
1000
0010
0100
0001
0010
0100
1000
0100
0010
1000
0010
0100
0010
0001
0100
0000
,
0100
0000
0010
0100
0010
0000
1000
0000
0001
0000
0000
0000
1000
0010
1000
0010
1000
0000
0010
0000
1000
0000
0100
0000
0010
0000
0001
0010
0001
0000
1000
0100
,
1000
0000
0100
0000
1000
0000
0010
0000
0100
0000
0010
0000
1000
0000
0100
0000
1000
0010
1000
0010
1000
0001
1000
0001
0100
0000
0010
0000
1000
0000
0000
0000
,
0100
0000
1000
0100
0010
0001
0010
0100
0010
0000
1000
0010
0001
0100
1000
0100
,
0001
0010
0001
1000
0100
0001
0100
1000
0010
0000
1000
0001
0010
0100
0001
0100
,
1000
0000
0001
0000
0010
0000
0100
0000
1000
0000
1000
0000
0010
0100
0010
0000
1000
0000
0010
0000
0100
0010
0100
0000
0001
0000
0010
0000
0001
0100
0001
0000
,
1000
0010
0001
0010
1000
0100
0010
0100
0000
0100
0000
0100
0000
0100
0000
1000
,
0001
0010
0100
1000
0100
0010
0001
1000
0002
0203
2300
3200
0302
0023
2030
3020
,
0032
0000
2003
0000
3001
0100
0001
0000
0100
0001
0100
0000
0010
1000
0010
0000
1000
0010
1000
0000
0001
1000
0001
0000
2000
0000
3200
0000
0302
0000
0203
0000
,
2300
0000
3020
0000
0032
0000
2003
0000
3200
0000
0320
0000
2030
0000
3020
0030
1010
0000
0000
0000
1100
0000
0000
0000
0011
0000
0000
0000
0011
0000
0000
0000
,
1101
1101
0101
0110
1010
0110
1010
0110
,
0010
0100
0010
0100
0020
0000
1000
0000
0000
0000
0100
0000
0000
0000
0001
0000
0000
0000
0100
0000
0000
0000
1030
0000
0001
0000
1000
0000
0010
0000
0001
0000
,
0010
0100
1000
0100
0010
0100
1000
0100
0100
0000
0000
0100
0100
0000
0000
0100
,
0100
0001
0010
0001
0001
0000
0000
0001
0001
0000
0000
0001
0001
0100
0010
1000
,
1000
0000
0000
0100
0100
0010
0010
0001
0010
0010
0001
0010
0010
0100
1000
0010
,
0100
0001
0001
1000
1000
0000
0000
1000
1000
1000
1000
0001
0001
0100
0001
0001
,
0100
0000
0001
0000
0001
0000
0001
0000
0001
0000
0010
0000
0001
0000
0100
0000
0001
0000
1000
0010
1000
0000
0001
0000
0100
0000
0010
0000
0100
0001
0100
0000
,
0010
1010
0000
1100
0000
0110
0000
0001
0010
0100
1000
0100
0010
0001
1000
0100
,
0010
0000
0010
0000
0001
0000
0100
0010
0000
1000
0000
0001
0000
0100
0000
0010
,
1000
0100
0001
0100
0000
1000
0000
0010
0000
1000
0001
0000
0100
0000
0010
0000
,
1000
0000
0000
0000
0100
0000
0010
0001
0010
0000
0100
0000
1000
0000
0010
0100
0010
0000
1000
0000
0001
0000
1000
0100
1000
0000
0100
0000
0010
0000
0001
1000
,
0002
0100
0000
0000
0000
0100
0000
0000
1003
0100
0010
0001
0010
0100
0010
0001
,
0010
0100
1000
0010
0100
0001
0010
0100
2000
3002
0203
2300
3200
0320
2030
3020
,
0032
0023
2030
3002
0023
2030
3020
0230
2300
3200
0302
2003
3020
0230
2300
3020
,
0230
2300
3200
0302
0023
0230
2300
3020
0032
0023
2030
3200
0302
0203
2300
3002
,
1003
0010
1000
0010
0100
0001
0100
0001
1000
0100
1000
0100
0010
0001
0100
0001
,
1000
0001
1000
0001
0010
0100
1000
0001
1000
0100
1000
0010
0100
0020
0032
2003
,
3200
0320
0032
2003
3200
0320
2030
3200
0302
0203
2300
3020
0032
0023
2030
3200
,
0310
0001
0010
0001
0000
0000
1000
0001
1000
0001
0000
0000
0100
0010
0100
0010
0000
0000
1000
0100
1000
0100
0000
0000
0010
0001
0010
0001
0010
0000
0000
0000
,
0100
1000
0001
0010
0100
1000
0001
0010
,
0100
0000
1000
0000
0001
0000
0100
0100
0001
0001
1000
1000
0010
0010
0100
0100
,
0001
0000
0001
0000
1000
0000
1000
0000
0010
0000
0010
0000
1000
0001
1000
0000
0001
1000
0001
0000
0100
0010
0100
0000
0010
0100
0010
0000
1000
0000
0000
0000
,
0001
0200
0000
0000
0000
0000
0000
0000
,
0000
0300
0000
0000
;
