#TITLE:Bad Habit;
#SUBTITLE:(ATFC Club Mix);
#ARTIST:ATFC presents Onephatdeeva feat Lisa Millett;
#TITLETRANSLIT:;
#SUBTITLETRANSLIT:;
#ARTISTTRANSLIT:;
#CREDIT:;
#BANNER:badhabitatfcclubmix.png;
#BACKGROUND:badhabitatfcclubmix-bg.png;
#LYRICSPATH:;
#CDTITLE:;
#MUSIC:badhabitatfcclubmix.mp3;
#OFFSET:-5.846;
#SAMPLESTART:45.430;
#SAMPLELENGTH:12.000;
#SELECTABLE:YES;
#BPMS:0.000=124.980;
#STOPS:;
#BGCHANGES:;
// cache tags:
#FIRSTBEAT:4.000;
#LASTBEAT:180.000;
#SONGFILENAME:Songs/mongol/badhabitatfcclubmix/badhabitatfcclubmix.sm;
#HASMUSIC:1;
#HASBANNER:1;
#MUSICLENGTH:99.377;
// end cache tags

//---------------dance-single - ----------------
#NOTES:
     dance-single:
     :
     Easy:
     3:
     0.190,0.204,0.010,0.081,0.000,123.000,1.000,8.000,0.000,0.000:  // measure 1
0000
0000
0000
0000
,  // measure 2
1000
0100
1000
0010
,  // measure 3
0200
0000
0000
0300
,  // measure 4
0001
1000
0001
0100
,  // measure 5
0002
0000
0000
0003
,  // measure 6
0100
0010
0010
1000
,  // measure 7
0001
0001
0000
0000
,  // measure 8
0010
1000
0010
0100
,  // measure 9
0001
1000
1000
0000
,  // measure 10
0100
0010
0001
0010
,  // measure 11
0100
0010
0010
0000
,  // measure 12
0001
1000
0001
0001
,  // measure 13
0100
0001
0010
0000
,  // measure 14
1000
0100
1000
0010
,  // measure 15
0100
0100
0001
0000
,  // measure 16
0010
0001
0100
0001
,  // measure 17
1000
0001
0010
0000
,  // measure 18
0100
1000
0100
0010
,  // measure 19
0100
0100
1000
0000
,  // measure 20
0010
0100
0001
0100
,  // measure 21
1001
0000
0000
0000
,  // measure 22
1000
1000
0010
0010
,  // measure 23
0100
0000
0001
0000
,  // measure 24
0010
0100
0010
0001
,  // measure 25
2000
0000
0000
3000
,  // measure 26
0010
0010
0100
0100
,  // measure 27
0001
0000
0010
0000
,  // measure 28
0100
0010
0001
0010
,  // measure 29
0200
0000
0000
0300
,  // measure 30
1000
0000
1000
0000
,  // measure 31
0001
0000
0100
0000
,  // measure 32
0001
0000
0001
0000
,  // measure 33
0010
0000
0100
0000
,  // measure 34
0010
0000
0010
0000
,  // measure 35
0100
0000
1000
0000
,  // measure 36
0100
0000
0100
0000
,  // measure 37
1000
0000
0010
0010
,  // measure 38
1000
0001
0100
0001
,  // measure 39
2000
0000
0000
3000
,  // measure 40
0010
0100
0001
0100
,  // measure 41
0020
0000
0000
0030
,  // measure 42
1000
0100
0010
0100
,  // measure 43
2000
0000
0000
3000
,  // measure 44
0001
0100
1000
0100
,  // measure 45
0002
0000
0000
0003
,  // measure 46
0100
0000
0000
0000
;

//---------------dance-single - ----------------
#NOTES:
     dance-single:
     :
     Medium:
     4:
     0.260,0.294,0.111,0.111,0.126,159.000,11.000,11.000,0.000,0.000:  // measure 1
0000
0000
0000
0000
,  // measure 2
1000
0100
0010
0001
,  // measure 3
0010
0000
0000
0020
0000
0000
0000
0000
0000
0000
0000
0000
0030
0000
0000
0000
,  // measure 4
0100
1000
0010
0100
,  // measure 5
0001
0001
0001
0000
1000
1000
1000
0000
,  // measure 6
0010
0100
0001
0010
,  // measure 7
0010
0100
0100
1000
,  // measure 8
0001
0100
0001
0001
,  // measure 9
1000
0010
0010
0100
,  // measure 10
0001
1000
0100
0100
,  // measure 11
0010
0001
0001
1000
,  // measure 12
0010
0100
0001
0100
,  // measure 13
0010
1000
0001
0100
,  // measure 14
0101
0010
1000
0010
,  // measure 15
0100
0100
0002
0003
,  // measure 16
0010
0100
1000
0010
,  // measure 17
0100
0001
2000
3000
,  // measure 18
0010
0100
0001
0010
,  // measure 19
0100
0100
0020
0030
,  // measure 20
0001
1000
0001
0100
,  // measure 21
0110
0000
0000
1000
0000
0001
0000
1001
0000
0000
0000
0000
0000
0000
0000
0000
,  // measure 22
0110
1100
0001
0100
,  // measure 23
0010
0000
0000
0020
0000
0000
0000
0000
1000
0000
0000
0000
1030
0000
0000
0000
,  // measure 24
0001
1000
0100
0010
,  // measure 25
0002
0100
1000
0103
,  // measure 26
0110
0101
1000
0100
,  // measure 27
1000
0000
0000
2000
0000
0000
0000
0000
0010
0000
0000
0000
3010
0000
0000
0000
,  // measure 28
0100
0001
0010
0100
,  // measure 29
2000
0010
0001
3001
,  // measure 30
0110
0000
0000
0000
0000
0000
0000
0010
0000
0000
0000
0000
0000
0000
0000
1000
,  // measure 31
0000
0000
0000
0000
0000
0000
0000
0001
0000
0000
0000
0000
0000
0000
0000
0100
,  // measure 32
0000
0000
0000
0000
0000
0000
0000
0001
0000
0000
0000
0000
0000
0000
0000
0010
,  // measure 33
0000
0000
0000
0000
0000
0000
0000
0100
0000
0000
0000
0000
0000
0000
0000
1000
,  // measure 34
0000
0000
0000
0000
0000
0000
0000
0010
0000
0000
0000
0000
0000
0000
0000
0100
,  // measure 35
0000
0000
0000
0000
0000
0000
0000
0001
0000
0000
0000
0000
0000
0000
0000
1000
,  // measure 36
0000
0000
0000
0000
0000
0000
0000
0010
0000
0000
0000
0000
0000
0000
0000
0010
,  // measure 37
0000
0000
0000
0000
0000
0000
0000
0100
0000
0000
0000
0010
0000
0010
0000
0000
,  // measure 38
1001
0100
0001
0001
,  // measure 39
0010
0000
0000
0020
0000
0000
0000
0000
0100
0000
0000
0000
0130
0000
0000
0000
,  // measure 40
1000
0001
0100
0010
,  // measure 41
2000
0100
0000
3100
,  // measure 42
0010
0001
0100
0010
,  // measure 43
1000
0000
0000
2000
0000
0000
0000
0000
0010
0000
0000
0000
3010
0000
0000
0000
,  // measure 44
0100
0001
0010
0100
,  // measure 45
0110
1000
0001
0001
,  // measure 46
0110
0000
0000
0000
;

//---------------dance-single - ----------------
#NOTES:
     dance-single:
     :
     Hard:
     9:
     0.492,0.475,0.151,0.030,1.000,324.000,15.000,3.000,0.000,0.000:  // measure 1
0000
0000
0000
0000
,  // measure 2
0001
1000
0100
1000
0000
0010
0000
0100
0000
0010
0000
1000
0000
0100
0000
0010
,  // measure 3
0001
0000
0000
0200
0000
0000
0000
0000
0010
0000
0000
0000
0310
0000
0000
0000
,  // measure 4
0000
1000
0000
0100
0000
1000
0000
0010
0000
0100
0000
0001
0000
0010
0000
0100
,  // measure 5
0000
0000
1000
0000
0100
0000
1000
0000
0010
0100
0000
0010
0100
0000
0000
0000
,  // measure 6
0001
0000
1000
0000
0001
0100
0000
0100
0000
0000
0000
0000
0010
0000
0100
0000
,  // measure 7
0001
0100
0001
1000
0000
0000
0000
0000
0100
0000
0010
0000
0001
0000
0000
0000
,  // measure 8
0100
0000
0010
0000
1000
0000
0100
0010
0000
0010
0000
0000
0001
0000
0001
1000
,  // measure 9
0001
0000
0100
0010
0100
0000
0001
0010
0000
0001
0000
0000
0100
0000
0000
0000
,  // measure 10
0010
0000
1000
0000
0001
0100
0000
0010
0000
0010
0000
0000
1000
0000
0100
0010
,  // measure 11
0100
0000
1000
0010
0000
1000
0000
0100
0000
0000
0000
0000
0010
0000
0001
0000
,  // measure 12
0100
0000
0000
0001
0000
1000
0000
0001
0000
1000
0000
0000
0010
0000
0100
0000
,  // measure 13
0001
0000
0010
0100
0000
0000
0100
1000
0000
0000
0010
0000
0100
0000
0010
0000
,  // measure 14
0000
0000
0000
1000
0000
0001
0000
0100
0000
0000
0000
0000
0010
0000
1000
0000
,  // measure 15
0010
0000
0100
0001
0000
0010
0000
0010
0000
0000
0000
0000
0100
0000
1000
0000
,  // measure 16
0010
0000
0000
0100
0000
0001
0000
0100
0000
0001
0000
0000
0000
0000
0010
0100
,  // measure 17
0010
0000
0001
0100
0000
0010
0000
0010
0000
0000
0000
0000
1000
0000
1000
0000
,  // measure 18
0000
0010
0100
0010
1000
0000
0100
0000
0010
0000
0001
0010
0000
0000
0100
0010
,  // measure 19
0100
0000
1000
0001
0000
0100
0000
0100
0000
0000
0000
0110
0000
0000
0000
0000
,  // measure 20
1000
0000
0000
0001
0000
1000
0000
0001
0000
1000
0000
0000
0010
0000
0100
0000
,  // measure 21
0110
0000
0000
0110
0000
1010
0000
0011
0000
0000
0100
0000
1000
0000
1000
0000
,  // measure 22
0000
0001
0100
0010
0000
0100
0000
0001
0000
0010
0000
0100
0000
1000
0000
0010
,  // measure 23
0100
0000
0000
0100
0000
0000
0000
0000
0010
0000
1000
0000
1001
0000
0000
0000
,  // measure 24
0000
0001
0000
0010
0000
0100
0000
1000
0000
0010
0000
0100
0000
0100
0000
0002
,  // measure 25
0000
0003
1000
0100
1000
0001
0101
0000
,  // measure 26
0000
0010
0100
1000
0000
0010
0000
0100
0000
0001
0000
0100
0000
0010
0000
1000
,  // measure 27
0100
0000
0000
0100
0000
0000
0000
0000
0010
0000
0001
0000
1001
0000
0000
0000
,  // measure 28
0000
0100
0000
0010
0000
1000
0000
0100
0000
1000
0000
0010
0000
0010
0000
0100
,  // measure 29
0000
0000
0001
0000
1000
0000
0001
0000
0010
0100
0000
0010
0100
0000
0000
0000
,  // measure 30
0000
1000
0000
0100
0000
0010
0000
0010
0000
0001
0000
0100
0000
0010
0000
0010
,  // measure 31
0000
1000
0000
0001
0000
0100
0000
0100
0000
0001
0000
1000
0000
0100
0000
0100
,  // measure 32
0000
0010
0000
0001
0000
0010
0000
0001
0000
0100
0000
0010
0000
0100
0000
0010
,  // measure 33
0000
1000
0000
0001
0000
1000
0000
0001
0000
0100
0000
1000
0000
0100
0000
1000
,  // measure 34
0000
0100
0000
0001
0000
0010
0000
0100
0000
0010
0000
0001
0000
0100
0000
0010
,  // measure 35
0000
1000
0000
0100
0000
0010
0000
0100
0000
1000
0000
0010
0000
0100
0000
0001
,  // measure 36
0000
1000
0000
0100
0000
0001
0000
0100
0000
1000
0000
0001
0000
0010
0000
1000
,  // measure 37
0000
0010
0000
0001
0000
1000
0000
0100
0000
0001
0000
0100
0000
1100
0000
0000
,  // measure 38
0010
0100
0001
0100
0000
0010
0000
1000
0000
0001
0000
0010
0000
0100
0000
1000
,  // measure 39
0010
0000
0000
0110
0000
0000
0000
0000
1000
0000
0001
0000
0011
0000
0000
0000
,  // measure 40
0000
0100
0000
1000
0000
0010
0000
0100
0000
0001
0000
0010
0000
0010
0000
0200
,  // measure 41
0000
0300
1000
0001
0100
0010
1001
0000
,  // measure 42
0000
1000
0100
1000
0000
0010
0000
0100
0000
1000
0000
0100
0000
0001
0000
0010
,  // measure 43
0100
0000
0000
0110
0000
0000
0000
0000
0001
0000
1000
0000
1100
0000
0000
0000
,  // measure 44
0000
0010
0000
0001
0000
0100
0000
0010
0000
0001
0000
0010
0000
0010
0000
1000
,  // measure 45
0000
0000
0001
0000
0100
0010
0000
0000
1000
0000
0001
0000
0100
0010
0000
0000
,  // measure 46
0101
0000
0000
0000
;
