#TITLE:Necrofantasia;
#SUBTITLE:;
#ARTIST:Demetori;
#TITLETRANSLIT:;
#SUBTITLETRANSLIT:;
#ARTISTTRANSLIT:;
#CREDIT:;
#BANNER:Necrofantasia-2-bn.png;
#BACKGROUND:Necrofantasia-2-bg.png;
#LYRICSPATH:;
#CDTITLE:;
#MUSIC:Necrofantasia-2.ogg;
#OFFSET:0.012;
#SAMPLESTART:31.992;
#SAMPLELENGTH:12.000;
#SELECTABLE:YES;
#BPMS:0.000=180.000,417.000=90.000,433.000=180.000,693.000=90.000,695.000=180.000,823.000=90.000,839.000=180.000;
#STOPS:;
#BGCHANGES:;
// cache tags:
#FIRSTBEAT:6.000;
#LASTBEAT:967.000;
#SONGFILENAME:Songs/SSSC PACK/[Kyt-Xune] - Necrofantasia (Demetori Ver) {17ft}/Necrofantasia-2.sm;
#HASMUSIC:1;
#HASBANNER:1;
#MUSICLENGTH:336.689;
// end cache tags

//---------------dance-single - Blank----------------
#NOTES:
     dance-single:
     Blank:
     Challenge:
     17:
     1.000,1.000,1.000,0.166,1.000,2929.000,549.000,56.000,46.000,7.000:

0000
0000
0000
0000
,
0000
0000
0000
0000
0000
0000
0000
0000
0000
0000
0000
0000
0000
0000
0000
0000
1000
0001
0100
0010
1000
0000
0001
0000
0110
0000
0000
0000
0000
0000
0000
0000
,
0100
0001
1000
0100
0010
0100
1100
0000
0000
0000
0110
0100
1000
0000
0101
0000
,
0110
0010
1000
0100
0010
0000
0001
0010
1001
0100
0010
1000
0100
0010
0001
0010
,
0100
1000
0010
0100
0001
0010
1001
1000
0000
0000
1100
0000
0000
0100
0110
0000
,
1001
0000
0010
0100
0101
0000
0001
1000
1100
0000
1000
0100
0110
0000
0000
0000
,
0010
0001
0100
0010
1000
0100
0001
0100
0010
0001
1000
0100
0010
1000
0010
0001
,
0100
0010
1000
0010
0100
1000
0001
0010
0100
0010
1000
0001
1100
0000
0000
0000
,
1001
0000
0010
0100
0001
1000
1100
0000
0010
0001
0100
0010
1010
0000
0100
0001
,
1001
0000
1000
0100
0010
0100
1100
0000
0001
0100
0010
1000
1001
0000
0001
0100
,
0110
0000
0100
0001
1000
0100
0110
0000
0010
0001
1000
0010
0110
0000
0100
0001
,
1001
0000
0001
0100
0010
1000
1100
0000
0101
0000
0010
1000
0001
0100
0010
1000
,
1100
0000
0100
1000
0010
0100
0101
0000
0100
0001
1000
0010
1010
0000
0010
1000
,
1100
0000
0100
0010
0100
1000
1001
0000
0001
0010
0001
0100
0110
0000
0010
1000
,
1010
0000
0100
0001
1000
0100
0110
0000
0010
0001
1000
0001
0011
0000
0100
1000
,
1001
0000
0001
0100
0010
1000
0100
0000
0110
0000
0010
0001
1000
0010
0100
0010
,
1010
0100
0001
1000
0100
0010
0001
0010
0110
0100
1000
0001
0101
0100
0010
1000
,
1001
0001
0100
0010
1010
0100
0001
1000
1001
0001
0010
0100
1100
0010
0001
0100
,
0110
1000
0011
0100
1001
0100
1010
0001
,
1001
0000
1010
0000
0101
0010
1100
0001
,
1000
0100
0001
0100
0010
0001
0100
0010
0001
0010
1000
0010
0100
1000
0100
0001
,
1000
0001
0010
0100
0001
0100
0010
0001
0100
0010
1000
0100
1000
0010
0100
1000
,
0100
0001
1000
0001
0010
0100
1000
0010
0100
0001
1000
0100
0010
0100
1000
0010
,
1011
0000
0000
0000
0000
0000
0000
0000
0000
0000
0000
0000
0000
0000
0000
0000
0000
0000
0000
0000
0000
0000
0000
0000
0000
0000
0000
0000
0000
0000
0000
0000
0111
0000
0000
0000
0000
0000
0000
0000
0000
0000
0000
0000
0000
0000
0000
0000
0000
0000
0000
0000
0000
0000
0000
0000
0000
0000
0000
0000
0000
0000
0000
0000
1101
0000
0000
0000
0000
0000
0000
0000
0000
0000
0000
0000
0000
0000
0000
0000
0000
0000
0000
0000
0000
0000
0000
0000
0000
0000
0000
0000
0000
0000
0000
0000
1001
0000
0000
0000
0000
0000
0000
0000
0000
0000
0000
0000
0000
0000
0000
0000
0000
0000
0000
0000
0000
0000
0000
0000
1000
0000
0000
0000
0000
0000
0001
0000
0000
0000
0000
0000
1000
0000
0000
0000
0000
0000
0000
0000
0000
0000
0000
0000
0110
0000
0000
0000
0000
0000
0000
0000
0000
0000
0000
0000
0000
0000
0000
0000
0000
0000
0000
0000
0000
0000
0000
0000
0000
0000
0000
0000
0000
0000
0000
0000
0000
0000
0000
0000
0000
0000
0000
0000
0000
0000
0000
0000
0000
0000
0000
0000
,
M0M2
0203
10MM
0320
MM00
2030
01MM
3002
,
0MM0
0023
1M0M
0230
M0M0
0302
M1M0
2003
,
3M2M
0032
1MM0
0203
M00M
0320
1M0M
0230
,
M00M
0000
0320
0000
1M3M
0000
0001
0000
1000
0100
0001
0100
1000
0000
0010
0000
,
02M0
0302
MM10
0203
000M
0320
M001
0230
,
00MM
0320
010M
1030
0M01
0010
M100
1000
,
011M
0001
1M00
2100
000M
3010
M100
0102
,
0MM0
0000
0103
0000
0010
0100
0001
0000
1000
0001
0010
0100
1000
0000
0010
0000
,
0110
0000
0010
0100
0001
1000
1100
0000
0100
0010
0001
1000
0010
0100
0101
0000
,
0100
0010
1000
0001
0010
0100
1100
0000
0100
0010
0001
1000
1001
0000
0000
0000
,
0101
0000
0010
1000
0100
0010
0110
0000
1000
0001
0100
0010
1000
0001
0011
0000
,
0100
1000
0010
0100
0001
1000
1100
0000
1000
0010
0100
0001
1001
0000
0000
0000
,
0101
0000
0010
1000
0100
0010
0011
0000
0001
0100
0010
1000
0100
0010
0110
0000
,
0010
0001
1000
0001
0100
0010
1010
0000
1000
0001
0100
0001
1001
0000
0000
0000
,
0001
0010
1000
0020
0000
0130
1000
0010
,
0100
0010
0100
0001
1000
0100
0010
0001
0010
0100
1000
0010
0100
0001
1000
0010
,
1000
0100
0010
0001
2002
0000
0000
0000
3013
0000
0000
0000
2020
0000
0000
0000
,
3031
0000
0000
0000
0101
0000
0010
0100
0001
1000
1100
0010
0001
0100
0001
1000
,
1001
0010
0100
0001
1002
0000
0103
0010
1000
0100
0120
0000
0031
0100
0010
1000
,
2001
0000
3100
0010
0210
0000
0310
0001
1000
0010
0102
0000
0103
0010
1000
0100
,
1200
0000
1300
0010
0210
0000
0310
1000
0001
1000
2001
0000
3100
0010
0100
0010
,
0012
0000
0013
0100
1100
0000
0001
0000
0101
0000
0010
0000
1001
0000
0100
0000
,
0110
0000
1000
0001
0012
0000
0010
0000
1000
0000
0103
0000
0010
0100
0001
1000
,
0100
0000
0010
0100
2100
0000
0100
0000
0001
0000
3010
0000
1000
0001
0010
0001
,
0100
0000
0010
0100
0001
0010
0100
0001
0100
1000
0010
0100
1000
0100
0001
1000
,
0010
0100
0001
1000
0100
0001
0100
1000
0100
0010
0001
0010
1000
0010
0001
0100
,
1000
0100
0010
1000
0010
0100
0001
0100
1000
0100
0001
1000
0100
0010
0100
0010
,
0100
0001
0100
0010
0001
1000
0010
0100
0001
1000
0100
0010
0100
1000
0010
0100
,
0001
0010
0001
0100
0010
1000
0100
0010
0100
0010
0001
1000
0010
0100
0001
0100
,
1000
0100
0010
1000
0100
0010
0001
0010
1000
0010
0100
1000
0001
1000
0010
0100
,
0010
1000
0100
0010
0100
1000
0001
0100
0010
1000
0100
1000
0010
0001
0010
0100
,
0001
1000
0100
0010
1000
0010
0001
0100
0010
1000
0100
1000
0001
0010
0100
0010
,
0001
1000
0001
0100
1001
0000
0100
0000
1010
0000
0101
0000
0001
0000
1100
0000
,
0011
1000
0110
0001
1100
0101
0010
1001
,
0110
0000
1000
0000
0100
0100
0010
0010
0001
0001
0100
0100
0010
0010
1000
1000
,
0002
0000
0000
0000
1003
0100
0010
0100
1000
0010
0100
0001
1000
0100
0010
0001
,
0011
0000
1001
0100
1010
1100
0010
0011
,
1001
0100
0110
0001
1100
0101
0010
1010
,
1100
0001
0101
0010
1010
1100
0100
0110
,
1001
0000
0000
0000
1001
0000
0001
0010
0100
1000
1001
0000
0100
0010
1000
0001
,
0110
0100
1000
0010
0100
0001
1000
0100
0010
0100
0010
0001
1000
0001
0100
0010
,
0100
0001
1000
0001
0010
0100
1000
0100
0010
0100
1000
0010
0100
0001
1000
0100
,
0010
0100
1000
0001
0100
0100
0010
0010
1000
1000
0001
0001
0010
0010
0100
0000
,
2002
0000
3003
0000
0001
0010
0001
0100
0010
1000
0100
0010
0001
0010
0100
0000
,
1000
0001
0101
0010
1001
1100
0001
0110
,
1010
0100
0101
0010
1010
1001
1000
1100
,
0011
0001
0010
0100
1001
0000
0100
0000
1010
0000
1001
0000
0001
0000
0110
0000
,
1100
1000
0010
0100
0101
0010
1000
0001
1100
0001
0011
0010
0100
1000
1001
0100
,
0010
1000
0100
0010
0011
0000
1000
0000
0101
0000
0010
0000
1001
0000
1000
0000
,
0011
0000
0110
0000
0100
0000
1000
0000
0010
0000
0100
0000
0001
0010
0001
1000
,
0100
0000
0010
0000
0011
0010
0100
1000
1001
0001
0100
0010
1010
0000
0000
0000
,
1001
0001
0101
0100
0010
1000
0001
0010
0110
0100
1000
0001
0101
0100
0010
1000
,
1100
1001
0100
0010
1010
1000
1001
0001
,
0011
0110
1000
0001
0101
0010
1001
0101
,
0110
0000
1001
0000
1000
0000
0010
0000
0100
0001
0010
0100
1000
0010
0100
0010
,
1000
0100
0010
0001
0100
0010
1000
0001
1000
0010
0100
0001
1000
0001
0010
0100
,
1000
0100
0010
0001
1001
0000
1000
0000
0101
0000
0010
0000
1001
0000
0001
0000
,
0011
0000
1100
0000
0100
0000
1000
0000
0010
0000
0100
0000
0001
0010
0001
0100
,
0010
0000
1010
0000
1100
0100
0010
0001
1001
1000
0010
0100
0101
0000
0000
0000
,
0110
0100
0101
0001
1000
0100
0010
0001
1001
0001
0010
0100
1100
1000
0001
0100
,
0110
1000
1010
0000
1000
0000
0001
0000
0011
0000
0100
0000
0110
0000
0010
0000
,
1001
0101
0010
1000
1001
1000
1100
0010
,
0011
0000
1001
0000
0000
0000
0101
0000
0000
0110
0000
0000
1100
0000
0000
0000
,
0012
0000
0000
0000
1003
0100
0010
0001
0100
0010
1000
0100
0010
0100
1000
0010
,
0100
0001
1000
0100
0110
0000
0100
1000
0001
0100
0010
1000
0001
0010
0001
0100
,
0010
1000
1200
0000
0310
0001
1000
0001
0100
0010
1000
0001
0010
0001
0100
0010
,
1000
0100
0010
0001
0011
0010
0100
1000
1001
0001
0100
0010
1010
0000
0000
0000
,
0101
0001
1001
1000
0100
0010
0001
1000
1010
0010
0100
0010
0110
0000
0100
0000
,
0101
1001
0001
0010
0110
0100
1100
1000
,
0101
0110
1000
0001
0011
0100
1100
1000
,
0101
0000
0110
0000
0100
0001
0100
0010
1000
0001
0010
0100
1000
0100
0010
0001
,
0010
0001
1000
0001
0100
0010
1000
0001
0010
0100
1000
0001
0100
0010
1000
0001
,
0010
0001
0100
0010
1010
0000
0100
0000
0101
0000
0001
0000
1001
0000
1000
0000
,
0110
0000
0011
0000
0001
0010
0100
1000
0100
0010
0100
1000
0010
0100
0001
0100
,
0010
0000
0110
0000
1010
1000
0001
0010
0110
0100
1000
0001
1001
0000
0000
0000
,
0101
0100
0110
0010
1000
0001
0010
0100
1100
1000
0001
0100
0110
0000
1000
0000
,
0001
0000
0011
0010
0001
0010
0100
1000
0100
0010
0100
1000
0010
0100
0001
0100
,
0010
0000
1001
1000
0001
0100
0010
1000
0001
0010
0001
0100
0010
1000
0001
0010
,
0100
0000
1100
1000
0001
0100
0010
1000
0100
0010
0001
0010
0100
1000
0010
0100
,
0001
0000
0000
1001
0000
0000
0000
0000
0000
0101
0000
0000
0101
0000
0000
0000
0000
0000
0101
0000
0110
0000
1001
0000
,
1100
0000
0000
0000
0000
0000
0000
0000
0000
0000
0000
0000
0000
0000
0000
0000
0110
0000
0000
0000
0000
0000
0000
0000
0000
0000
0000
0000
0000
0000
0000
0000
0011
0000
0000
0000
0000
0000
0000
0000
0000
0000
0000
0000
0000
0000
0000
0000
1001
0000
0000
0000
0000
0000
0000
0000
0000
0000
0000
0000
1000
0000
0000
0000
0000
0000
0000
0000
0000
0000
0000
0000
0100
0000
0000
0000
0000
0000
0000
0000
0000
0000
0000
0000
0110
0000
0000
0000
0000
0000
0000
0000
0000
0000
0000
0000
0001
0000
0000
0000
0000
0000
0000
0000
0000
0000
0000
0000
1000
0000
0000
0000
0000
0000
0000
0000
0000
0000
0000
0000
0001
0000
0000
0000
0000
0000
0100
0000
0000
0000
0000
0000
0010
0000
0000
0000
0000
0000
1000
0000
0000
0000
0000
0000
1100
0000
0000
0000
0000
0000
0000
0000
0000
0000
0000
0000
0100
0000
0000
0000
0000
0000
0000
0000
0000
0000
0000
0000
0011
0000
0000
0000
0000
0000
0000
0000
0000
0000
0000
0000
1000
0000
0000
0000
0000
0000
0000
0000
0000
0000
0000
0000
,
1001
0000
0100
0000
0010
1000
0001
1000
1010
0000
0100
0000
1001
0000
0001
0000
0110
0000
1001
0000
0001
0010
0100
1000
1100
0000
0001
0000
0101
0000
0010
0000
,
1001
0000
1001
0000
0100
0000
1010
0000
1000
0000
0001
0000
0011
0000
0001
0000
0101
0000
0100
0000
0010
1000
0010
0100
0101
0000
0100
0000
1010
0000
1000
0000
,
0100
0000
0000
0000
0010
0000
0000
0000
0001
0000
0000
0000
0010
0000
0000
0000
0100
0000
0000
0000
1000
0000
0000
0000
0010
0000
0000
0000
0000
0000
0000
0000
0000
0000
0000
0000
0101
0000
0000
0000
0000
0000
0000
0000
0000
0000
0000
0000
0000
0000
0000
0000
0000
0000
0000
0000
0000
0000
0000
0000
0000
0000
0000
0000
0000
0000
0000
0000
0000
0000
0000
0000
1001
0000
0000
0000
0000
0000
0000
0000
0000
0000
0000
0000
0000
0000
0000
0000
0000
0000
0000
0000
0000
0000
0000
0000
0011
0000
0000
0000
0000
0000
0000
0000
0000
0000
0000
0000
0000
0000
0000
0000
0000
0000
0000
0000
0000
0000
0000
0000
1100
0000
0000
0000
0000
0000
0000
0000
0000
0000
0000
0000
1010
0000
0000
0000
0000
0000
0000
0000
0000
0000
0000
0000
0100
0000
0000
0000
0000
0000
0000
0000
0000
0000
0000
0000
0001
0000
0000
0000
0100
0000
0000
0000
0001
0000
0000
0000
1000
0000
0000
0000
0000
0000
0100
0000
0000
0000
0000
0000
0010
0000
0000
0000
0000
0000
0100
0000
0000
0000
0000
0000
,
1000
0001
0100
0010
1000
0100
0010
0001
1001
0000
0000
0000
0100
0000
0000
0000
0010
0000
0000
0000
1001
0000
0000
0000
0001
0000
0000
0000
0010
0000
0000
0000
,
0100
1000
0010
0100
0101
0000
0010
0000
1001
0000
0100
0000
1100
0000
0001
0000
,
0011
0000
1010
0000
0100
0000
0001
0000
1000
0001
0010
0001
0100
0000
1010
0000
,
1000
0001
0010
0100
1100
0000
0001
0000
0110
0000
0001
0000
0011
0000
1000
0000
,
0101
0000
1010
0000
0100
0000
0001
0000
1000
0001
0010
0001
0100
0000
0010
0000
,
0100
0001
1000
0001
0010
0000
0100
0000
1000
0100
0010
0000
0001
0100
0110
0000
,
0001
0000
1100
0000
1000
0000
0001
0010
0100
0000
1000
0001
0100
0000
1010
0000
,
0001
0102
0000
0013
0100
1000
0001
0001
,
0100
0010
1000
0001
0010
0100
1000
0100
0001
0100
0010
0001
1000
0001
0100
0010
,
1000
0010
0100
1000
0100
0010
1000
0001
0010
0001
0100
0010
1000
0100
0010
0100
,
0001
0100
0010
0100
1000
0001
1000
0001
0100
0010
0001
0010
0100
0010
1000
0001
,
1000
0100
0010
0001
0010
0100
1000
0001
0100
0010
1000
0001
0010
0100
0110
0010
,
0001
1000
1001
0000
0101
0100
0010
1000
0001
0010
0001
0100
0010
1000
0001
0010
,
0100
1000
0100
0001
0100
0010
0001
0010
0100
1000
0010
0100
0010
0001
0010
1000
,
0010
0100
0001
1000
0100
0010
0001
0010
0100
1000
0010
0100
0001
0010
0100
1000
,
0010
1000
0001
0100
0010
0000
0110
0000
1001
0000
0011
0000
0110
0000
1001
0000
,
0101
0000
1010
0000
1001
0001
0010
0100
1000
0100
0001
0100
0010
0001
0100
0010
,
0001
0010
1000
0001
0010
0100
1000
0100
0001
0100
0010
1000
0010
0001
0100
0010
,
1000
0001
0010
0001
0100
0010
1000
0100
0010
1000
0010
0001
0100
0010
1000
0010
,
0001
0010
0100
0001
1000
0100
0110
0010
0001
1000
1001
0000
0001
0010
0100
1000
,
0001
0010
0100
1000
0010
0100
1000
0100
0001
1000
0100
0001
0100
0010
0001
1000
,
0001
0100
0010
0001
0010
1000
0100
0010
1000
0010
0001
0100
0010
1000
0001
0010
,
0001
0100
0010
1000
0100
0010
0100
1000
0010
0100
1000
0100
0001
1000
0001
0010
,
0100
0000
0000
1000
0000
0000
0010
0000
0000
0100
0000
0000
0001
0000
0010
0000
0001
0000
0100
0000
0010
0000
1000
0000
0100
0000
0010
0000
0100
0000
1000
0000
0001
0000
0100
0000
0010
0000
1000
0000
0001
0000
0010
0000
0001
0000
0100
0000
,
0010
0000
1000
0000
0100
0000
0010
0000
0001
0000
0010
0000
0100
0000
0000
1000
0000
0000
0100
0000
0000
0010
0000
0000
0100
0000
0000
1000
0000
0000
0001
0000
0000
0100
0000
0000
0010
0000
0000
1000
0000
0000
0001
0000
0000
0000
0000
0000
,
1001
0000
0000
0000
0101
0000
0010
1000
0001
0010
0100
0000
1000
0100
0010
0001
,
0100
0000
0010
1000
1001
0000
0001
0010
0100
1000
0100
0000
1000
0001
0100
0010
,
1000
0000
0001
0010
0011
0000
0010
0001
0100
0010
1000
0000
0001
0010
0001
0100
,
0010
0000
1000
0001
1001
0000
0001
0010
0100
0010
0001
0000
1000
0010
0100
0001
,
1000
0000
0100
0010
0100
1000
0100
0010
0001
0100
0010
1000
0001
0010
0001
0100
,
0010
1000
0001
0010
0100
1000
0010
0100
0001
0100
0010
1000
0001
0100
0001
1000
,
0100
1000
0010
0100
0001
0010
0001
0100
0010
1000
0001
1000
0100
1000
0010
0100
,
0001
0010
0001
0100
0010
1000
0100
1000
0001
0010
0100
1000
0100
0010
0001
0100
,
0010
1000
0001
0010
0100
1000
0100
0001
0100
1000
0100
0001
0100
1000
0010
0001
,
0010
1000
0010
0001
0010
0100
0010
0100
0001
0100
0001
0100
0001
0010
0001
0010
,
0100
1000
0100
1000
1100
0000
0001
0000
0011
0000
1000
0000
1010
0000
0001
0000
,
0101
0000
0120
0000
0000
0000
1031
0000
0000
0000
0001
0010
0100
0000
1100
0000
,
0000
0000
0101
0000
0100
0001
1000
0100
1000
0001
0100
0001
0010
0100
0010
0001
,
1000
0010
0100
0010
1000
0001
0010
0100
0010
0001
1000
0100
1000
0010
0100
0001
,
0100
0010
1000
0001
0010
0100
0010
0100
1000
0001
0100
0010
0100
0010
0100
0001
,
0010
0100
1000
0100
0010
0001
0100
0010
1000
0001
0010
0100
1000
0100
0010
0001
,
0100
0010
1000
0001
1100
0011
1100
0011
1100
0011
1100
0000
0000
0000
1001
0000
,
0000
0000
0101
1010
0101
0000
0000
0000
1001
0000
0000
0000
0011
0000
0000
0000
,
1010
0000
0000
0000
0101
1010
0101
1010
0101
1010
0101
0000
0000
0000
0110
0000
,
0000
0000
1100
0011
1100
0000
0000
0000
1001
0000
0000
0000
0101
0001
0010
0100
,
1000
0001
0010
0100
1100
1000
0001
0100
0010
1000
0100
0010
1001
0001
0100
0010
,
1000
0000
0000
0100
0000
0000
0010
0000
0000
0001
0000
0000
0011
0000
0000
0000
0000
0000
1000
0000
0000
0100
0000
0000
1100
0000
0000
0000
0100
0000
1000
0000
0100
0000
0000
0000
0110
0000
0000
0000
0010
0000
0001
0000
0010
0000
0000
0000
,
1001
0000
0000
0000
0001
0010
0100
1000
0001
0010
0100
1000
0001
0100
0010
1000
,
0001
0100
0010
1000
0001
0010
0100
1000
0001
0010
0100
1000
0010
0100
0010
0100
,
1001
0000
0101
0010
1001
1100
0010
0011
,
1001
0100
1010
0100
0101
1001
0010
0110
,
1100
0000
0010
0000
0001
0001
1000
1000
0010
0010
0100
0100
0001
0001
0010
0010
,
0200
0000
0000
0000
1300
0001
0100
0001
0010
0100
1000
0010
0100
0001
1000
0100
,
0010
0001
0010
0100
1100
0000
0001
0000
0101
0000
0110
0000
1000
0000
0011
0000
,
0110
1000
1001
0001
0011
0110
1000
0101
,
1010
1000
1001
0001
0011
0110
0100
1100
,
1001
0000
0100
0000
1010
0000
0010
0100
0001
1000
1001
0010
0100
1000
0100
1000
,
1001
0000
0100
0000
1010
0000
1000
0100
0010
0001
1001
0000
0001
0100
0010
1000
,
1001
0000
1000
0100
1100
0000
0100
1000
0010
0100
0101
0000
0001
0010
0100
1000
,
1100
0000
0001
0000
0100
0100
0010
0010
1000
1000
0100
0100
0010
0010
0001
0001
,
2000
0000
0000
0000
3010
0100
0001
0100
0010
1000
0001
0010
0001
0100
0010
1000
,
0100
0000
0010
0000
0011
0000
0001
0100
0010
1000
1001
0000
1000
0001
0100
0010
,
1010
0000
0100
0001
0101
0000
0001
1000
0001
0010
0110
0000
0100
1000
0010
1000
,
1010
0100
0110
0001
1001
1000
1100
0001
,
0011
0001
0010
0100
1100
0000
0000
1001
0000
0000
0110
0000
1001
0001
0100
0010
,
1002
0000
0000
0000
0100
0100
0100
0100
0100
0100
0100
0100
1013
0000
1000
0000
,
0101
0100
1001
0001
0011
1100
0100
0010
,
0001
0000
1000
0000
0010
0100
0001
1000
0100
0000
0110
0000
1001
0001
0100
0010
,
1010
1000
0001
0010
0011
0000
0000
0000
1001
1000
1010
0010
0100
0001
0010
0100
,
0110
0100
1000
0001
1001
0000
1000
0000
1010
0000
0101
0000
0100
0000
0001
0000
,
0011
0100
1001
1000
1010
0101
0010
1000
,
1001
0000
0001
0000
0011
0000
0100
0000
1100
0000
1001
0000
0100
0000
0010
1000
,
0001
0010
0100
1000
0100
0010
0001
0100
0010
1000
0001
0010
0001
0100
0010
1000
,
0100
0010
0011
1001
1010
0110
0101
0001
,
1001
1000
1100
0010
1001
0101
0010
1000
,
0001
0000
0010
0000
0100
0000
1000
0000
0010
0000
0101
0000
1001
1000
0100
0010
,
0011
0001
1000
0010
0110
0000
0000
0000
0101
0001
1001
1000
0010
0100
0010
1000
,
1100
0100
0010
0001
1001
0000
0100
0000
1010
0000
0101
0000
0001
0000
0010
0000
,
0110
1000
1001
0001
0110
1001
1000
0100
,
0011
0010
1001
0100
1010
0101
0000
0110
,
1001
0000
0000
0000
0001
0100
0010
1000
0001
0010
0100
1000
0100
1000
0001
0100
,
0010
1000
0001
0010
0001
0100
0010
1000
0200
0000
0000
0000
0310
0001
0100
0010
,
1000
0001
0010
0001
0100
0010
1000
0001
0010
0100
2000
0000
3010
0100
0001
0010
,
0001
0100
0010
1000
0001
0010
0100
1000
0010
0100
0002
0000
0013
0001
0100
0010
,
1010
0000
0001
0000
0101
0000
1000
0100
1000
0001
0011
0000
0001
0010
0100
1000
,
1010
0000
0100
0010
0110
0000
0010
0000
1001
0000
0011
0000
0001
0010
0100
1000
,
0100
0010
0100
1000
0010
0100
0001
0100
0010
1000
1001
0000
0100
0010
1000
0001
,
0010
0001
0100
0010
1000
0001
0010
0100
1000
0010
0110
0000
0001
0100
0010
1000
,
0001
0100
0010
1000
0100
1000
0010
0100
0001
0010
0001
0100
0010
1000
0100
0010
,
0001
0000
0010
0000
0110
0000
1001
0000
0101
0000
1010
0000
1001
0000
0001
0010
,
0001
0100
0010
1000
0100
1000
0010
0100
0001
0010
0200
0000
0310
0001
1000
0010
,
0100
0001
0100
0001
1000
0100
1000
0010
0100
0001
0020
0000
0130
1000
0010
0100
,
0101
0000
0010
0000
1001
0000
1000
0000
0010
0100
0110
0000
0100
0001
1000
0100
,
0110
0000
0001
0000
0011
0000
0100
0000
1000
0000
1001
0000
0001
0010
0100
1000
,
0010
0100
0001
0100
0010
1000
0100
1000
0010
0100
0101
0000
0100
0001
1000
0100
,
0010
0100
1000
0010
0100
0001
0010
0001
0100
0010
1010
0000
0000
0000
0101
0000
,
1001
0000
0000
0000
0011
0000
0000
0000
0100
1000
0001
0000
0100
0010
1000
0001
,
0010
0001
0100
0010
1000
0001
0010
0100
1100
0000
0000
0000
1001
1000
0010
0101
,
0010
0000
1000
0000
0001
0010
0100
0010
0011
0000
0001
0000
1001
0000
0100
0000
1010
0000
1000
0000
1100
0000
0110
0000
0010
0000
0001
0000
0101
0000
0010
0000
,
1001
0000
1100
0000
0010
0001
1000
0010
0110
0000
0001
0000
0011
0000
0100
0000
1001
0000
1001
0000
0100
0000
1010
0000
0010
0000
0100
0000
0001
0000
0010
0000
,
0110
0000
0000
0000
0000
0000
0000
0000
0000
0000
0000
0000
0100
0000
0000
0000
0000
0000
0000
0000
0000
0000
0000
0000
1000
0000
0000
0000
0000
0000
0001
0000
0000
0000
0000
0000
0100
0000
0000
0000
0000
0000
0010
0000
0000
0000
0000
0000
1010
0000
0000
0000
0000
0000
0000
0000
0000
0000
0000
0000
1000
0000
0000
0000
0000
0000
0000
0000
0000
0000
0000
0000
0001
0000
0000
0000
0000
0000
0000
0000
0000
0000
0000
0000
0010
0000
0000
0000
0000
0000
0000
0000
0000
0000
0000
0000
0100
0000
0000
0000
1000
0000
0000
0000
0100
0000
0000
0000
0010
0000
0000
0000
0001
0000
0000
0000
1000
0000
0000
0000
0001
0000
0000
0000
0000
0000
0100
0000
0000
0000
0000
0000
0101
0000
0000
0000
0000
0000
0000
0000
0000
0000
0000
0000
0000
0000
0000
0000
0000
0000
0000
0000
0000
0000
0000
0000
0000
0000
0000
0000
0000
0000
0000
0000
0000
0000
0000
0000
0110
0000
0000
0000
0000
0000
0000
0000
0000
0000
0000
0000
0000
0000
0000
0000
0000
0000
0000
0000
0000
0000
0000
0000
,
1001
0000
0000
0000
0000
0000
0000
0000
0000
0000
0000
0000
0000
0000
0000
0000
0000
0000
0000
0000
0000
0000
0000
0000
1100
0000
0000
0000
0000
0000
0000
0000
0000
0000
0000
0000
0110
0000
0000
0000
0000
0000
0000
0000
0000
0000
0000
0000
0010
0000
0000
0000
0000
0000
0000
0000
0000
0000
0000
0000
0001
0000
0000
0000
0000
0000
0000
0000
0000
0000
0000
0000
1000
0000
0000
0000
0000
0000
0000
0000
0000
0000
0000
0000
0010
0000
0000
0000
0000
0000
0100
0000
0000
0000
0000
0000
0001
0000
0000
0000
0000
0000
0000
0000
0100
0000
0000
0000
0000
0000
0000
0000
0010
0000
0000
0000
0000
0000
0000
0000
1000
0000
0000
0000
0000
0000
0000
0000
0001
0000
0000
0000
0000
0000
0000
0000
0010
0000
0000
0000
0000
0000
0000
0000
0110
0000
0000
0000
0000
0000
0000
0000
0000
0000
0000
0000
0000
0000
0000
0000
0000
0000
0000
0000
0000
0000
0000
0000
0100
0000
0000
0000
0000
0000
0000
0000
0000
0000
0000
0000
0000
0000
0000
0000
0000
0000
0000
0000
0000
0000
0000
0000
,
1000
0010
0100
0001
0010
0011
0110
0001
,
1001
0100
1010
1000
1100
0011
0001
0100
,
0010
1000
0001
0010
0100
1100
1001
0100
,
1010
0001
0011
0100
1001
1001
0100
0010
,
1000
0100
0010
0001
0100
1002
0000
0000
,
0000
0000
0000
0000
0003
2010
0000
0000
,
0000
0000
0000
0000
0000
0000
0000
0000
0000
0000
0000
0000
3010
0100
0001
1000
,
0001
0010
0100
1000
0100
0010
0100
1000
0010
0100
0001
1000
1100
0000
0010
0000
,
0101
0000
1000
0000
1001
0000
0010
0000
0110
0000
1100
0000
0100
1000
0010
0100
,
0001
0000
0010
0000
0100
0000
1000
0000
0100
0000
0010
0001
1001
0000
0100
0000
,
1010
0001
0011
0100
1001
0101
0010
1000
,
1100
0000
0001
0000
0011
0000
0010
0000
0110
0000
1001
0000
0010
0100
0001
1000
,
0001
0010
0100
1000
0100
0010
0001
0100
0010
1000
1001
0000
1000
0010
0100
0001
,
0010
0001
0100
0010
1000
0001
0010
0100
1000
0001
0101
0000
0010
0100
0001
1000
,
0001
0000
1000
0010
0100
0000
0001
0010
0100
1000
0100
0000
0010
0001
1000
0001
,
0100
0010
1000
0100
1000
0010
0100
0001
1000
0000
0000
0000
0101
0000
0010
0000
,
1001
0000
0001
0000
0011
0000
0100
0000
1100
0000
1001
0000
1000
0100
0010
0100
,
1000
0010
0100
0001
0100
0110
1010
0001
,
0011
0100
1010
1000
1001
0101
0010
1000
,
1010
0000
0001
0000
0011
0000
0100
0000
1100
0000
1001
0000
1000
0100
0010
0001
,
0010
0000
0001
0000
0100
0000
0010
1000
0100
0010
0011
0000
0100
1000
0010
0100
,
0001
0000
0100
0010
1000
0000
0100
0010
0001
0010
0110
0000
0100
1000
0010
0100
,
0001
0010
0100
1000
0010
0100
0001
0010
0100
1000
0010
0100
1001
0000
0000
0000
,
1000
0001
1000
0001
1000
0001
1000
0001
1000
0001
1000
0001
1000
0100
0010
0100
,
1000
0001
0101
0000
0010
0000
1001
0000
0001
0000
0110
0000
1001
0000
1000
0000
,
0110
0000
0001
0000
1001
0000
0010
0000
1010
0000
0100
0000
0001
0010
0100
0010
,
0001
1000
1010
0000
0100
0000
1001
0000
0001
0000
0011
0000
0110
0000
1000
0000
,
0101
0000
0010
0000
0001
0100
1000
0100
0001
0010
1000
0010
0001
0100
0010
1000
,
0100
0010
0100
1000
0010
0001
0010
0100
0001
1000
0100
0001
0100
0010
0001
0010
,
0100
0000
0000
1000
0000
0000
0010
0000
0000
0100
0000
0000
0001
0000
0000
0100
0000
0000
0010
0000
0000
1000
0000
0000
0001
0000
0000
0000
0000
0000
0000
0000
0000
0000
0000
0000
0010
0000
0000
0000
0001
0000
0000
0000
0100
0000
0000
0000
,
0010
1000
0100
0010
0001
0100
0010
1000
0001
0010
0100
1000
,
0001
1000
0001
0000
0100
0000
0010
0000
1000
0000
0001
0000
1000
0000
0010
0000
0110
0000
M00M
0000
0000
0000
0000
0000
;
